osu file format v13

[General]
AudioFilename: SiM-EXiSTENCE.mp3
AudioLeadIn: 2000
PreviewTime: 64234
Countdown: 0
SampleSet: Normal
StackLeniency: 0.8
Mode: 0
LetterboxInBreaks: 0
WidescreenStoryboard: 0

[Editor]
DistanceSpacing: 1
BeatDivisor: 4
GridSize: 4
TimelineZoom: 3.999998

[Metadata]
Title:EXiSTENCE (TV Edit)
TitleUnicode:EXiSTENCE (TV Edit)
Artist:SiM
ArtistUnicode:SiM
Creator:Saut
Version:Hard
Source:神撃のバハムート GENESIS
Tags:shingeki no bahamut sin mah godri show-hate silence iz mine reggae punk hard core screamo ska opening theme one okoratu squirrel puxtu
BeatmapID:563024
BeatmapSetID:240415

[Difficulty]
HPDrainRate:6
CircleSize:3.8
OverallDifficulty:7
ApproachRate:8.5
SliderMultiplier:1.6
SliderTickRate:1

[Events]
//Background and Video events
0,0,"bg.png",0,0
Video,0,"pishifat.avi"
//Break Periods
2,33814,35164
//Storyboard Layer 0 (Background)
//Storyboard Layer 1 (Fail)
//Storyboard Layer 2 (Pass)
//Storyboard Layer 3 (Foreground)
//Storyboard Sound Samples

[TimingPoints]
403,319.148936170213,4,1,1,50,1,0
403,-125,4,1,1,50,0,0
9339,-100,4,1,1,50,0,0
10615,-111.111111111111,4,1,1,50,0,0
20828,-142.857142857143,4,1,1,50,0,0
29764,-125,4,3,1,50,0,0
30722,-166.666666666667,4,2,1,50,0,0
31041,321.71581769437,4,1,1,50,1,0
32649,-125,4,1,1,50,0,0
33614,317.880794701987,4,1,1,50,1,0
33614,-125,4,1,1,50,0,0
36157,319.148936170213,4,1,1,50,1,0
36157,-111.111111111111,4,1,1,50,0,0
38710,-166.666666666667,4,2,1,50,0,0
41263,-111.111111111111,4,1,1,50,0,0
45093,333.333333333333,4,1,1,50,1,0
45343,319.148936170213,4,1,1,50,1,8
45422,319.148936170213,4,1,1,50,1,8
45422,-111.111111111111,4,1,1,50,0,0
46379,319.148936170213,4,1,1,50,1,0
46379,-111.111111111111,4,1,1,50,0,0
48294,314.13612565445,4,1,1,50,1,8
48294,-111.111111111111,4,1,1,50,0,0
48922,319.148936170213,4,1,1,50,1,0
48922,-111.111111111111,4,1,1,50,0,0
54028,-125,4,1,1,50,0,0
62965,317.460317460317,4,1,1,50,1,0
62965,-125,4,1,1,50,0,0
64234,319.148936170213,4,1,1,50,1,1
83382,-100,4,1,1,50,0,1
84021,-166.666666666667,4,1,1,50,0,1
84659,-100,4,1,1,50,0,0
86255,-125,4,1,1,50,0,0
87212,-100,4,1,1,30,0,0
87372,-100,4,1,1,35,0,0
87531,-100,4,1,1,40,0,0
87691,-100,4,1,1,45,0,0
87851,-100,4,1,1,50,0,0

[Colours]
Combo1 : 133,55,158
Combo2 : 178,24,20
Combo3 : 231,122,125
Combo4 : 253,229,179

[HitObjects]
128,236,403,5,8,0:0:0:0:
145,318,562,1,8,0:2:0:0:
66,294,722,1,8,0:2:0:0:
128,236,881,2,0,P|165:234|205:266,1,64,8|8,1:0|0:2,0:0:0:0:
229,318,1200,1,8,0:2:0:0:
229,318,1360,2,0,P|269:270|249:194,1,128,8|8,0:0|0:0,0:0:0:0:
204,148,1839,5,8,0:2:0:0:
284,128,1998,1,8,0:2:0:0:
261,208,2158,2,0,L|337:208,1,64,8|8,0:0|0:2,0:0:0:0:
396,248,2477,1,8,0:2:0:0:
396,248,2637,2,0,B|352:284|352:284|276:284,1,128,8|8,0:0|0:0,0:0:0:0:
261,208,3115,5,8,0:2:0:0:
200,264,3275,1,8,0:2:0:0:
180,184,3434,2,0,P|192:152|224:132,1,64,8|8,0:0|0:2,0:0:0:0:
300,132,3754,1,8,0:2:0:0:
300,132,3913,1,8,0:0:0:0:
420,44,4232,6,0,P|433:72|422:127,1,64,4|8,0:0|0:2,0:0:0:0:
378,169,4551,1,8,0:2:0:0:
300,132,4711,2,0,P|318:106|371:88,1,64,4|8,0:0|0:2,0:0:0:0:
432,104,5030,1,8,0:2:0:0:
437,188,5190,2,0,P|405:185|363:148,1,64,8|0,0:0|0:0,0:0:0:0:
378,169,5509,6,0,P|378:213|382:261,1,64,8|8,0:0|0:2,0:0:0:0:
418,307,5828,1,8,0:2:0:0:
334,304,5988,2,0,P|302:302|270:302,1,64,8|8,0:0|0:2,0:0:0:0:
186,302,6307,1,8,0:2:0:0:
186,302,6466,2,0,P|230:228|290:220,1,128,8|8,0:0|0:0,0:0:0:0:
350,216,6945,5,8,0:2:0:0:
306,144,7105,1,8,0:2:0:0:
266,217,7264,2,0,L|186:217,1,64,8|8,0:0|0:2,0:0:0:0:
118,217,7583,1,8,0:2:0:0:
118,217,7743,1,8,0:0:0:0:
229,112,8062,6,4,P|229:80|225:28,1,64,8|2,0:0|3:0,0:0:0:0:
375,46,8381,2,4,P|375:78|379:130,1,64,8|2,0:2|3:0,0:0:0:0:
305,165,8700,2,4,P|305:133|301:81,1,64,8|2,0:2|3:0,0:0:0:0:
451,96,9020,2,4,P|451:128|455:180,1,64,8|2,0:2|3:0,0:0:0:0:
436,254,9339,2,0,L|436:302,8,40,8|2|0|2|8|2|0|2|8,0:2|3:0|3:0|3:0|0:2|3:0|3:0|3:0|0:2,0:0:0:0:
416,136,10296,5,4,3:0:0:0:
416,48,10615,6,0,P|392:48|344:104,1,71.9999978027344,12|8,0:2|0:2,0:0:0:0:
332,160,10934,2,0,P|304:182|269:186,1,71.9999978027344,8|0,0:0|2:0,0:0:0:0:
192,148,11254,2,0,P|184:196|252:272,1,143.999995605469,8|8,0:2|0:0,0:0:0:0:
269,186,11732,6,0,P|279:143|263:99,1,71.9999978027344,0|8,0:0|0:2,0:0:0:0:
208,61,12051,1,0,2:0:0:0:
128,88,12211,1,8,0:0:0:0:
116,260,12530,1,8,0:2:0:0:
269,186,12849,1,8,0:0:0:0:
128,88,13168,6,0,P|138:129|111:182,1,71.9999978027344,8|8,0:2|0:2,0:0:0:0:
52,195,13488,2,0,P|42:154|69:101,1,71.9999978027344,8|0,0:0|2:0,0:0:0:0:
189,41,13807,2,0,P|212:106|199:190,1,143.999995605469,8|8,0:2|0:0,0:0:0:0:
162,255,14285,6,0,P|195:267|240:256,1,71.9999978027344,0|8,0:0|0:2,0:0:0:0:
203,179,14605,1,0,2:0:0:0:
203,179,14764,2,0,P|238:173|271:185,1,71.9999978027344,8|8,0:0|0:2,0:0:0:0:
343,134,15083,2,0,P|318:109|284:100,1,71.9999978027344,0|8,0:0|0:2,0:0:0:0:
390,60,15403,2,0,P|417:83|429:116,1,71.9999978027344,8|8,0:0|0:2,0:0:0:0:
403,199,15722,6,0,P|394:238|413:293,1,71.9999978027344,12|8,0:2|0:2,0:0:0:0:
405,356,16041,2,0,P|440:347|467:324,1,71.9999978027344,8|0,0:0|2:0,0:0:0:0:
480,239,16360,2,0,B|500:197|480:156|480:156|479:88,1,143.999995605469,8|8,0:2|0:0,0:0:0:0:
448,17,16839,6,0,P|416:31|402:90,1,71.9999978027344,0|8,0:0|0:2,0:0:0:0:
406,150,17158,1,0,2:0:0:0:
479,98,17317,1,8,0:0:0:0:
385,243,17637,1,8,0:2:0:0:
294,96,17956,1,8,0:0:0:0:
448,18,18275,6,0,P|416:32|402:91,1,71.9999978027344,8|8,0:2|0:2,0:0:0:0:
400,151,18594,2,0,P|388:183|350:207,1,71.9999978027344,8|0,0:0|2:0,0:0:0:0:
318,130,18913,2,0,P|279:176|301:268,1,143.999995605469,8|8,0:2|0:0,0:0:0:0:
367,291,19392,1,8,0:2:0:0:
358,205,19551,1,8,0:0:0:0:
164,252,20030,6,0,L|162:289,2,35.9999989013672,8|8|8,0:2|0:2|0:0,0:0:0:0:
171,166,20349,2,0,P|205:101|293:96,1,143.999995605469,8|8,0:2|0:2,0:0:0:0:
291,214,20828,6,0,L|245:160,1,55.9999982910157,12|0,0:2|0:0,0:0:0:0:
233,44,21147,2,0,L|279:98,1,55.9999982910157,0|0,0:0|0:0,0:0:0:0:
208,237,21466,2,0,P|141:240|105:211,1,111.999996582031,8|0,0:0|0:0,0:0:0:0:
171,166,21945,5,0,0:0:0:0:
98,135,22105,2,0,P|62:149|29:221,1,111.999996582031,12|0,0:2|2:0,0:0:0:0:
64,280,22583,2,0,L|62:328,2,27.9999991455078,8|8|8,0:2|0:2|0:0,0:0:0:0:
107,214,22903,2,0,P|159:186|177:130,1,111.999996582031,8|8,0:2|0:0,0:0:0:0:
195,62,23381,5,0,2:0:0:0:
267,31,23541,1,8,0:2:0:0:
334,69,23700,2,0,P|340:96|355:119,1,55.9999982910157,8|8,0:2|0:2,0:0:0:0:
408,177,24020,1,8,0:0:0:0:
449,239,24179,2,0,P|464:262|470:289,1,55.9999982910157,8|8,0:2|0:2,0:0:0:0:
392,297,24498,2,0,L|312:297,1,55.9999982910157,8|0,0:2|2:0,0:0:0:0:
257,295,24817,5,8,0:2:0:0:
274,215,24977,2,0,P|321:244|335:297,1,111.999996582031,0|8,0:0|0:0,0:0:0:0:
257,295,25456,2,0,P|206:263|193:210,1,111.999996582031,8|8,0:2|0:2,0:0:0:0:
190,137,25934,6,0,L|253:137,1,55.9999982910157,12|0,0:2|0:0,0:0:0:0:
261,59,26254,2,0,B|199:59,1,55.9999982910157,0|0,0:0|0:0,0:0:0:0:
130,83,26573,2,0,P|110:133|132:192,1,111.999996582031,8|0,0:0|0:0,0:0:0:0:
190,137,27051,5,0,0:0:0:0:
252,86,27211,2,0,P|270:138|250:190,1,111.999996582031,12|8,0:2|0:2,0:0:0:0:
199,249,27690,2,0,L|173:279,2,27.9999991455078,8|0|8,0:2|0:0|0:0,0:0:0:0:
251,189,28009,2,0,P|302:168|354:186,1,111.999996582031,8|8,0:2|0:0,0:0:0:0:
412,239,28488,5,0,2:0:0:0:
426,162,28647,1,8,0:2:0:0:
367,109,28807,1,8,0:2:0:0:
289,100,28966,2,0,P|248:106|224:130,1,55.9999982910157,8|8,0:2|0:0,0:0:0:0:
186,174,29285,1,8,0:2:0:0:
160,99,29445,1,8,0:2:0:0:
213,41,29605,1,8,0:2:0:0:
237,114,29764,6,0,P|257:138|263:186,2,64,8|8|8,0:0|3:2|3:2,0:0:0:0:
160,99,30243,2,0,P|140:75|134:27,2,64,8|8|8,0:0|3:2|3:2,0:0:0:0:
237,114,30722,5,12,0:0:0:0:
256,192,31041,12,8,32327,0:0:0:0:
46,234,32649,5,8,0:0:0:0:
136,200,32810,2,0,L|136:232,1,32,8|8,0:2|0:2,0:0:0:0:
136,270,32971,2,0,P|183:281|236:266,2,96,8|8|8,0:0|0:0|0:0,0:0:0:0:
136,270,33614,5,4,3:0:0:0:
136,270,35839,5,8,0:0:0:0:
136,270,36157,6,0,P|187:278|240:243,2,107.999996704102,12|8|8,0:0|0:2|0:0,0:0:0:0:
50,258,36795,2,0,P|66:216|99:191,1,71.9999978027344,8|8,0:2|0:0,0:0:0:0:
138,129,37114,2,0,P|161:153|172:191,1,71.9999978027344,8|8,0:2|0:0,0:0:0:0:
256,166,37433,6,0,P|239:109|188:62,2,107.999996704102,12|8|8,0:0|0:2|0:0,0:0:0:0:
278,249,38071,2,0,B|324:237|338:189,1,71.9999978027344,8|8,0:2|0:0,0:0:0:0:
329,118,38391,1,8,0:2:0:0:
256,166,38550,1,0,0:0:0:0:
332,205,38710,5,8,1:0:0:0:
372,212,39029,1,2,0:0:0:0:
412,212,39348,1,0,0:0:0:0:
448,196,39667,1,2,0:0:0:0:
468,164,39986,1,0,0:0:0:0:
476,128,40305,1,2,0:0:0:0:
473,93,40625,6,0,L|434:93,3,23.9999992675781,0|0|0|0,0:0|3:0|0:0|3:0,0:0:0:0:
420,93,40944,2,0,L|352:92,1,47.9999985351563,2|0,0:3|0:0,0:0:0:0:
284,93,41263,6,0,P|296:40|345:8,2,107.999996704102,12|8|8,0:0|0:2|0:0,0:0:0:0:
285,179,41901,2,0,P|244:171|215:143,1,71.9999978027344,8|8,0:2|0:0,0:0:0:0:
170,81,42220,2,0,P|138:64|98:68,1,71.9999978027344,8|8,0:2|0:0,0:0:0:0:
120,151,42539,6,0,P|146:196|212:243,2,107.999996704102,12|8|8,0:0|0:2|0:0,0:0:0:0:
103,66,43178,2,0,P|66:83|38:136,1,71.9999978027344,8|8,0:2|0:0,0:0:0:0:
40,149,43417,2,0,L|39:210,5,35.9999989013672,0|8|0|8|0|12,0:0|0:2|0:0|0:0|0:0|0:0,0:0:0:0:
121,243,43976,5,0,0:0:0:0:
121,243,44135,2,0,L|202:243,1,71.9999978027344,8|8,0:2|0:0,0:0:0:0:
279,243,44454,2,0,P|328:236|376:140,1,143.999995605469,8|8,0:2|0:2,0:0:0:0:
324,96,44933,1,8,0:0:0:0:
399,42,45093,6,0,L|486:34,1,80,12|0,0:2|0:0,0:0:0:0:
475,122,45422,2,8,L|397:129,1,71.9999978027344,8|8,0:2|0:0,0:0:0:0:
326,168,45741,1,8,0:2:0:0:
398,213,45900,1,0,0:0:0:0:
484,202,46060,1,8,0:2:0:0:
506,278,46219,2,0,P|470:294|417:271,1,71.9999978027344,8|12,0:0|0:2,0:0:0:0:
363,245,46538,6,0,L|363:165,2,71.9999978027344,0|8|8,0:0|0:2|0:0,0:0:0:0:
439,289,47017,1,8,0:2:0:0:
365,334,47176,1,0,0:0:0:0:
289,291,47336,1,8,0:2:0:0:
222,235,47496,6,0,L|222:157,1,71.9999978027344,8|12,0:0|0:2,0:0:0:0:
141,130,47815,2,0,L|141:208,1,71.9999978027344,0|8,0:0|0:2,0:0:0:0:
153,287,48134,1,8,0:0:0:0:
69,271,48294,2,0,P|79:332|122:366,2,107.999996704102,8|8|8,0:2|0:0|0:0,0:0:0:0:
73,148,48922,6,0,P|105:133|146:130,1,71.9999978027344,12|0,0:2|0:0,0:0:0:0:
227,130,49241,2,0,P|262:125|295:110,1,71.9999978027344,8|8,0:2|0:0,0:0:0:0:
361,54,49560,1,8,0:2:0:0:
433,99,49719,1,0,0:0:0:0:
433,99,49879,2,0,P|409:126|376:138,1,71.9999978027344,8|0,2:2|0:0,0:0:0:0:
361,54,50198,6,0,P|400:18|453:16,2,107.999996704102,12|8|8,0:2|0:2|0:0,0:0:0:0:
433,99,50836,1,8,0:2:0:0:
428,272,51156,1,8,0:2:0:0:
256,249,51475,6,0,L|128:249,2,107.999996704102,12|8|8,0:0|0:0|0:0,0:0:0:0:
343,247,52113,2,0,B|343:196|294:174,1,71.9999978027344,8|0,0:2|0:0,0:0:0:0:
228,166,52432,1,8,0:2:0:0:
256,249,52592,1,8,0:0:0:0:
284,330,52751,6,0,L|339:330,3,35.9999989013672,12|0|0|8,0:0|0:0|0:0|0:0,0:0:0:0:
363,330,53070,2,0,P|382:280|363:229,1,107.999996704102,8|0,0:2|0:0,0:0:0:0:
338,197,53390,2,0,P|318:147|337:96,1,107.999996704102,8|8,0:2|0:2,0:0:0:0:
368,69,53709,2,0,P|306:95|233:40,1,143.999995605469,12|12,0:0|0:2,0:0:0:0:
310,11,54187,5,0,0:0:0:0:
243,60,54347,2,0,L|161:60,1,64,8|8,0:2|0:2,0:0:0:0:
137,132,54666,2,0,L|219:132,1,64,8|0,0:0|0:0,0:0:0:0:
284,129,54985,1,0,0:0:0:0:
246,203,55145,1,8,0:2:0:0:
162,203,55304,6,0,P|169:239|228:285,1,96,8|0,0:0|2:0,0:0:0:0:
250,288,55624,2,0,P|296:274|326:222,1,96,0|0,0:0|2:0,0:0:0:0:
333,196,55943,2,0,B|322:150|322:150|366:124|382:60|340:17,1,192,12|0,0:2|2:0,0:0:0:0:
280,76,56581,6,0,B|259:88|242:101|237:136|237:136|248:181,2,96,12|0|8,0:2|0:0|0:2,0:0:0:0:
346,25,57219,1,8,0:0:0:0:
422,59,57379,1,0,0:0:0:0:
433,141,57539,1,0,0:0:0:0:
366,191,57698,1,8,0:2:0:0:
357,108,57858,6,0,P|308:131|284:187,2,96,4|0|8,0:0|2:0|0:2,0:0:0:0:
433,141,58496,2,0,P|448:166|442:220,1,64,8|8,0:0|0:2,0:0:0:0:
427,280,58815,2,0,P|333:280|280:286,1,128,8|12,0:0|0:2,0:0:0:0:
216,292,59294,6,0,L|164:296,5,32,8|8|0|0|8|0,0:2|0:2|0:0|0:0|0:2|0:0,0:0:0:0:
142,298,59773,2,0,L|60:302,1,64,8|0,0:0|0:0,0:0:0:0:
40,226,60092,2,0,L|122:222,1,64,0|0,0:0|0:0,0:0:0:0:
187,218,60411,6,0,P|236:196|259:123,1,128,0|0,0:0|0:0,0:0:0:0:
177,133,60890,1,8,0:2:0:0:
215,59,61049,2,0,B|334:12|333:144|474:79,1,256,8|12,0:0|0:2,0:0:0:0:
419,11,61847,5,2,3:0:0:0:
458,86,62007,1,0,0:0:0:0:
471,169,62166,1,8,0:2:0:0:
469,251,62326,2,0,L|394:251,1,64,8|0,0:0|0:0,0:0:0:0:
320,259,62645,1,0,0:0:0:0:
272,175,62804,1,0,0:0:0:0:
237,293,62964,6,0,P|190:299|139:294,2,96,8|8|0,0:0|0:2|0:0,0:0:0:0:
320,259,63599,1,4,3:0:0:0:
129,183,64234,6,0,B|174:196|206:168|206:168|237:193|280:180,1,160,12|0,0:0|0:0,0:0:0:0:
253,103,64712,1,8,0:2:0:0:
153,101,64872,2,0,P|91:104|47:205,1,160,8|0,0:0|0:0,0:0:0:0:
129,183,65351,1,0,0:0:0:0:
206,169,65510,5,8,0:2:0:0:
161,27,65670,2,0,P|144:63|153:101,1,80,0|0,0:0|0:0,0:0:0:0:
303,193,65989,2,0,P|294:124|218:70,1,160,8|8,0:2|0:2,0:0:0:0:
88,57,66468,1,0,0:0:0:0:
153,101,66627,1,8,0:2:0:0:
30,111,66787,6,0,L|27:207,1,80,12|0,0:2|0:0,0:0:0:0:
15,270,67106,2,0,P|51:270|92:239,1,80,0|8,0:0|0:2,0:0:0:0:
221,229,67425,2,0,P|182:267|72:223,1,160,8|0,0:0|0:0,0:0:0:0:
149,195,67904,1,0,0:0:0:0:
215,150,68063,6,0,P|257:158|288:188,1,80,8|8,0:2|0:0,0:0:0:0:
221,229,68382,1,0,0:0:0:0:
274,86,68542,2,0,P|313:106|344:142,1,80,8|8,0:2|0:0,0:0:0:0:
354,210,68861,1,8,0:2:0:0:
359,215,68941,1,8,0:2:0:0:
364,220,69021,2,0,P|399:204|423:154,1,80,8|8,0:0|0:0,0:0:0:0:
425,89,69340,5,0,0:0:0:0:
318,55,69499,1,12,0:2:0:0:
260,111,69659,1,8,0:2:0:0:
248,189,69819,2,0,P|228:223|193:241,1,80,0|8,0:0|0:0,0:0:0:0:
174,162,70138,1,8,0:2:0:0:
287,272,70297,6,0,P|257:300|198:312,1,80,0|0,0:0|0:0,0:0:0:0:
140,303,70616,1,8,0:2:0:0:
320,204,70776,2,0,P|352:232|361:274,1,80,8|0,0:0|0:0,0:0:0:0:
335,343,71095,1,8,0:2:0:0:
335,343,71175,1,0,0:0:0:0:
335,343,71255,6,0,L|425:343,1,80,8|8,0:2|0:0,0:0:0:0:
480,272,71574,1,0,0:0:0:0:
490,176,71734,1,8,0:2:0:0:
446,90,71893,6,0,P|406:87|366:88,1,80,12|0,0:2|0:0,0:0:0:0:
290,116,72212,1,0,0:0:0:0:
146,166,72372,2,0,P|186:164|226:165,1,80,8|0,0:2|0:0,0:0:0:0:
299,198,72691,1,0,0:0:0:0:
442,245,72851,6,0,P|402:243|363:244,1,80,0|8,0:0|0:0,0:0:0:0:
291,280,73170,1,8,0:2:0:0:
299,198,73329,1,8,0:2:0:0:
290,116,73489,1,8,0:0:0:0:
301,35,73648,1,0,0:0:0:0:
227,66,73808,6,0,L|173:57,3,40,8|0|0|0,0:0|0:0|0:0|0:0,0:0:0:0:
147,52,74127,2,0,P|99:50|62:78,1,80,8|0,0:2|0:0,0:0:0:0:
124,126,74446,5,12,0:2:0:0:
184,179,74606,2,0,P|155:201|91:199,1,80,8|8,0:2|0:0,0:0:0:0:
48,158,74925,1,8,0:2:0:0:
198,104,75085,2,0,P|236:121|258:163,1,80,0|8,0:0|0:2,0:0:0:0:
240,231,75404,5,8,0:0:0:0:
124,126,75563,1,0,0:0:0:0:
256,153,75723,2,0,P|309:190|315:258,1,120,8|0,0:2|2:0,0:0:0:0:
305,278,76042,2,0,P|361:246|424:262,1,120,8|0,0:0|2:0,0:0:0:0:
449,272,76361,2,0,B|443:221|443:221|460:178,1,80,8|0,0:2|0:0,0:0:0:0:
495,107,76680,1,8,0:2:0:0:
429,36,76840,1,0,0:0:0:0:
343,77,76999,6,0,P|365:110|400:126,1,80,12|8,0:2|0:2,0:0:0:0:
429,36,77319,1,8,0:0:0:0:
290,137,77478,2,0,P|317:170|363:194,1,80,8|0,0:2|0:0,0:0:0:0:
440,217,77797,1,8,0:2:0:0:
446,313,77957,6,0,L|355:316,1,80,8|0,0:0|0:0,0:0:0:0:
285,319,78276,2,0,L|140:322,1,120,8|0,0:2|2:0,0:0:0:0:
125,317,78595,2,0,P|105:264|126:195,1,120,8|0,0:0|2:0,0:0:0:0:
137,167,78914,2,0,P|180:177|220:165,1,80,8|0,0:2|0:0,0:0:0:0:
265,86,79234,1,8,0:2:0:0:
309,171,79393,1,0,0:0:0:0:
214,168,79553,5,12,0:2:0:0:
145,87,79712,2,0,B|135:184,1,80,8|8,0:2|0:0,0:0:0:0:
166,240,80031,1,8,0:2:0:0:
68,90,80191,2,0,B|58:187,1,80,8|8,0:2|0:2,0:0:0:0:
237,207,80510,6,0,P|199:168|129:171,1,120,8|0,0:0|2:0,0:0:0:0:
103,190,80829,2,0,P|85:226|103:287,1,80,8|0,0:2|0:0,0:0:0:0:
147,318,81148,2,0,P|221:318|288:323,1,120,8|0,0:0|2:0,0:0:0:0:
306,322,81468,2,0,B|297:276|297:276|334:267|369:220|351:163,1,160,8|8,0:2|0:0,0:0:0:0:
432,166,81946,1,8,2:0:0:0:
266,191,82106,6,0,P|287:132|381:103,1,160,12|0,0:2|0:0,0:0:0:0:
338,284,82744,2,0,P|303:288|240:283,1,80,8|8,0:2|0:0,0:0:0:0:
187,191,83063,2,0,P|231:186|268:191,1,80,8|8,0:0|0:0,0:0:0:0:
357,192,83382,5,12,0:2:0:0:
404,108,83542,1,8,0:0:0:0:
453,190,83702,1,8,0:2:0:0:
357,192,83861,1,8,0:0:0:0:
317,114,84021,6,0,P|321:72|378:27,2,95.9999970703126,4|2|12,2:0|3:0|0:2,0:0:0:0:
357,192,84819,5,8,0:2:0:0:
395,270,84978,2,0,P|391:312|341:354,1,80,8|0,0:0|0:0,0:0:0:0:
296,290,85297,2,0,P|271:324|207:335,1,80,8|0,0:2|0:0,0:0:0:0:
213,244,85616,5,8,0:0:0:0:
226,148,85776,1,0,0:0:0:0:
206,46,85936,2,0,P|168:61|140:91,1,80,8|0,0:2|0:0,0:0:0:0:
104,172,86255,6,0,L|39:162,1,64,8|0,0:0|2:0,0:0:0:0:
83,250,86574,2,0,L|17:245,1,64,8|0,0:0|2:0,0:0:0:0:
69,334,86893,2,0,L|3:335,1,64,8|0,0:0|2:0,0:0:0:0:
145,311,87212,5,8,0:2:0:0:
215,257,87372,1,8,0:0:0:0:
302,248,87531,1,8,0:0:0:0:
388,264,87691,1,8,0:2:0:0:
467,301,87851,2,0,B|475:259|475:259|463:220|463:220|484:166,1,120,4|0,3:0|2:0,0:0:0:0:
491,152,88170,5,8,0:0:0:0:
491,152,88329,1,4,3:0:0:0:
