osu file format v14

[General]
AudioFilename: SiM-EXiSTENCE.mp3
AudioLeadIn: 2000
PreviewTime: 64234
Countdown: 0
SampleSet: Normal
StackLeniency: 0.7
Mode: 0
LetterboxInBreaks: 0
WidescreenStoryboard: 0

[Editor]
DistanceSpacing: 1
BeatDivisor: 4
GridSize: 4
TimelineZoom: 1.9

[Metadata]
Title:EXiSTENCE (TV Edit)
TitleUnicode:EXiSTENCE (TV Edit)
Artist:SiM
ArtistUnicode:SiM
Creator:Saut
Version:Normal
Source:神撃のバハムート GENESIS
Tags:shingeki no bahamut sin mah godri show-hate silence iz mine reggae punk hard core screamo ska opening theme one okoratu squirrel puxtu
BeatmapID:557034
BeatmapSetID:240415

[Difficulty]
HPDrainRate:4
CircleSize:3
OverallDifficulty:4
ApproachRate:5
SliderMultiplier:1.1
SliderTickRate:1

[Events]
//Background and Video events
0,0,"bg.png",0,0
Video,0,"pishifat.avi"
//Break Periods
2,33814,34957
//Storyboard Layer 0 (Background)
//Storyboard Layer 1 (Fail)
//Storyboard Layer 2 (Pass)
//Storyboard Layer 3 (Foreground)
//Storyboard Sound Samples

[TimingPoints]
403,319.148936170213,4,1,1,40,1,0
10615,-100,4,1,1,50,0,0
20828,-100,4,1,1,40,0,0
31041,321.71581769437,4,1,1,40,1,0
33614,317.880794701987,4,1,1,40,1,0
36157,319.148936170213,4,1,1,50,1,0
39029,-100,4,1,1,40,0,0
41263,-100,4,1,1,50,0,0
45093,333.333333333333,4,1,1,50,1,0
45343,319.148936170213,4,1,1,50,1,8
45422,319.148936170213,4,1,1,50,1,8
46379,319.148936170213,4,1,1,50,1,8
48294,314.13612565445,4,1,1,50,1,8
48922,319.148936170213,4,1,1,50,1,0
54028,-100,4,1,1,40,0,0
62965,317.460317460317,4,1,1,40,1,0
64234,319.148936170213,4,1,1,60,1,1
84659,-100,4,1,1,60,0,0

[Colours]
Combo1 : 133,55,158
Combo2 : 178,24,20
Combo3 : 231,122,125
Combo4 : 253,229,179

[HitObjects]
143,285,403,6,0,B|187:265|231:281|231:281|267:297|307:277,1,165,8|8,0:0|1:0,0:0:0:0:
355,260,1041,1,8,0:2:0:0:
437,183,1360,1,8,0:0:0:0:
464,76,1679,2,0,B|411:60|368:89|349:116|349:116|312:116,1,165,8|8,0:0|0:0,0:0:0:0:
257,117,2317,1,8,0:2:0:0:
170,195,2637,1,8,0:0:0:0:
94,115,2956,6,0,P|62:191|94:275,1,165,8|8,0:0|0:0,0:0:0:0:
129,300,3594,1,8,0:2:0:0:
235,272,3913,1,8,0:0:0:0:
220,164,4232,2,0,L|220:92,2,55,4|8|8,0:0|0:2|0:2,0:0:0:0:
276,164,4711,2,0,L|276:92,2,55,4|8|8,0:0|0:2|0:2,0:0:0:0:
332,164,5190,1,8,0:0:0:0:
356,56,5509,6,0,P|416:92|436:192,1,165,8|8,0:0|0:0,0:0:0:0:
413,228,6147,1,8,0:2:0:0:
303,239,6466,1,8,0:0:0:0:
278,347,6785,2,0,P|218:311|198:211,1,165,8|8,0:0|0:0,0:0:0:0:
210,170,7424,1,8,0:2:0:0:
319,167,7743,1,8,0:0:0:0:
259,80,8062,6,0,P|203:80|139:84,1,110,8|8,0:0|0:2,0:0:0:0:
83,172,8700,2,0,P|139:172|203:168,1,110,8|8,0:2|0:2,0:0:0:0:
259,80,9339,2,0,P|280:96|300:181,1,110,8|8,0:2|0:2,0:0:0:0:
246,263,9977,1,8,0:2:0:0:
193,169,10296,1,4,3:0:0:0:
127,257,10615,6,0,P|106:241|93:202,1,55,12|8,0:2|0:2,0:0:0:0:
84,162,10934,2,0,P|96:115|149:69,1,110,8|8,0:0|0:2,0:0:0:0:
247,53,11573,2,0,P|321:53|374:49,1,110,8|8,0:0|0:2,0:0:0:0:
466,40,12211,1,8,0:0:0:0:
418,138,12530,1,8,0:2:0:0:
357,51,12849,1,8,0:0:0:0:
247,53,13168,6,0,P|254:80|247:118,1,55,8|8,0:2|0:2,0:0:0:0:
220,152,13488,2,0,P|207:213|233:274,1,110,8|8,0:0|0:2,0:0:0:0:
298,334,14126,2,0,P|253:362|180:357,1,110,8|8,0:0|0:2,0:0:0:0:
104,304,14764,2,0,L|104:228,2,55,8|8|0,0:0|0:2|0:0,0:0:0:0:
155,284,15243,2,0,L|155:208,2,55,8|8|8,0:2|0:0|0:2,0:0:0:0:
204,260,15722,6,0,L|203:204,1,55,12|8,0:2|0:2,0:0:0:0:
205,149,16041,2,0,B|225:123|225:123|305:123,1,110,8|8,0:0|0:2,0:0:0:0:
393,184,16679,2,0,P|414:134|403:80,1,110,8|8,0:0|0:2,0:0:0:0:
315,15,17317,1,8,0:0:0:0:
302,124,17636,1,8,0:2:0:0:
378,202,17956,1,8,0:0:0:0:
323,297,18275,6,0,L|272:272,1,55,8|8,0:2|0:2,0:0:0:0:
226,244,18594,2,0,P|180:230|111:256,1,110,8|8,0:0|0:2,0:0:0:0:
178,341,19232,2,0,P|147:353|113:357,1,55,8|8,0:0|0:2,0:0:0:0:
71,344,19551,1,8,0:0:0:0:
97,183,20030,6,0,L|98:120,1,55,8|8,0:2|0:0,0:0:0:0:
100,72,20349,2,0,B|140:60|140:60|196:84|260:60,1,165,8|12,0:2|0:2,0:0:0:0:
443,186,21466,6,0,P|401:186|330:192,1,110,8|0,0:0|0:0,0:0:0:0:
232,151,22105,2,0,P|228:223|302:296,1,165,12|8,0:2|0:2,0:0:0:0:
341,286,22743,1,8,0:0:0:0:
394,303,22903,2,0,P|394:244|424:199,1,110,8|8,0:2|0:0,0:0:0:0:
463,168,23381,6,0,B|392:182|346:89|346:89|263:89,1,220,0|8,2:0|0:0,0:0:0:0:
168,89,24339,1,8,0:2:0:0:
64,128,24658,2,0,L|20:65,2,55,0|8|0,2:0|0:2|0:0,0:0:0:0:
148,200,25296,2,0,L|203:200,1,55,8|8,0:0|0:2,0:0:0:0:
313,200,25775,1,8,0:2:0:0:
368,200,25934,6,0,P|309:295|201:287,1,220,12|8,0:2|0:0,0:0:0:0:
261,197,26892,2,0,P|269:149|322:103,1,110,0|12,0:0|0:2,0:0:0:0:
421,107,27530,2,0,P|419:77|404:50,2,55,8|8|8,0:2|0:2|0:0,0:0:0:0:
411,161,28009,2,0,P|404:214|424:280,1,110,8|8,0:2|0:0,0:0:0:0:
451,311,28488,6,0,P|378:301|227:311,1,220,0|8,2:0|0:0,0:0:0:0:
126,279,29445,1,8,0:2:0:0:
206,203,29764,2,0,P|157:172|48:201,2,165,8|8|12,0:0|0:0|0:0,0:0:0:0:
256,192,31041,12,4,33614,3:0:0:0:
168,208,36157,6,0,P|168:96|264:44,1,220,12|8,0:0|0:2,0:0:0:0:
260,152,37114,1,8,0:2:0:0:
348,94,37433,2,0,P|353:199|266:259,1,220,12|8,0:0|0:2,0:0:0:0:
260,152,38391,2,0,P|220:160|168:220,1,110,8|8,0:2|1:0,0:0:0:0:
124,304,39029,5,2,0:0:0:0:
88,88,39667,1,2,0:0:0:0:
232,253,40305,1,2,0:0:0:0:
154,176,40625,2,0,B|187:155|187:155|219:158|219:158|259:130,1,110,0|2,0:0|0:3,0:0:0:0:
312,44,41263,6,0,P|360:116|296:240,1,220,12|8,0:0|0:2,0:0:0:0:
250,137,42220,1,8,0:2:0:0:
200,236,42539,2,0,P|236:314|376:323,1,220,12|8,0:0|0:2,0:0:0:0:
448,268,43497,1,8,0:2:0:0:
452,158,43816,6,0,L|456:34,1,110,12|8,0:0|0:2,0:0:0:0:
361,105,44454,2,0,L|357:229,1,110,8|8,0:2|0:2,0:0:0:0:
448,268,45093,1,12,0:2:0:0:
348,322,45422,1,8,0:2:0:0:
244,288,45741,2,0,P|189:293|146:326,1,110,8|8,0:2|0:2,0:0:0:0:
40,296,46379,6,0,L|36:180,1,110,12|8,0:2|0:2,0:0:0:0:
147,173,47017,2,0,L|150:282,2,110,8|8|12,0:2|0:2|0:2,0:0:0:0:
204,81,47975,1,8,0:2:0:0:
252,180,48294,2,0,L|256:296,1,110,8|8,0:2|0:2,0:0:0:0:
364,275,48922,6,0,B|359:176|359:176|357:148|345:115|322:88|273:74,1,220,12|8,0:2|0:2,0:0:0:0:
252,180,49879,1,8,2:2:0:0:
280,286,50198,2,0,P|310:341|446:292,1,220,12|8,0:2|0:2,0:0:0:0:
466,202,51156,1,8,0:2:0:0:
440,95,51475,6,0,B|215:95,1,220,12|8,0:0|0:2,0:0:0:0:
124,40,52432,1,8,0:2:0:0:
127,149,52751,2,0,B|124:200|80:232|80:232|214:232,1,220,12|8,0:0|0:2,0:0:0:0:
314,232,53709,1,12,0:0:0:0:
274,334,54028,6,0,P|362:331|420:214,1,220,12|8,0:2|0:0,0:0:0:0:
248,88,55304,2,0,P|160:91|102:208,1,220,8|12,0:0|0:2,0:0:0:0:
275,334,56581,6,0,P|318:237|422:224,1,220,12|8,0:2|0:0,0:0:0:0:
249,88,57858,2,0,P|205:184|101:197,1,220,4|8,0:0|0:0,0:0:0:0:
32,284,58815,1,8,0:0:0:0:
140,288,59134,6,0,P|184:288|251:252,1,110,12|0,0:2|0:0,0:0:0:0:
316,180,59773,1,8,0:0:0:0:
468,340,60411,2,0,P|468:232|460:112,1,220,0|8,0:0|0:0,0:0:0:0:
384,328,61687,6,0,P|384:280|380:168,1,110,12|0,0:2|0:0,0:0:0:0:
282,170,62326,1,8,0:0:0:0:
197,240,62645,1,0,0:0:0:0:
300,279,62965,2,0,P|382:213|372:108,1,220,8|4,0:0|3:0,0:0:0:0:
160,52,64234,6,0,P|160:124|164:176,1,110,12|0,0:0|0:0,0:0:0:0:
172,216,64712,1,8,0:2:0:0:
200,264,64872,2,0,P|272:264|328:268,1,110,8|0,0:0|0:0,0:0:0:0:
420,276,65510,2,0,P|412:220|340:164,1,110,8|0,0:2|0:0,0:0:0:0:
334,147,65989,2,0,P|268:128|171:161,1,165,8|0,0:2|0:0,0:0:0:0:
91,223,66787,5,12,0:2:0:0:
36,216,66946,2,0,L|36:296,2,55,0|0|8,0:0|0:0|0:2,0:0:0:0:
21,162,67425,2,0,P|27:122|91:85,1,110,8|0,0:0|0:0,0:0:0:0:
190,102,68063,2,0,P|264:120|355:108,1,165,8|8,0:2|0:2,0:0:0:0:
404,92,68702,1,8,0:0:0:0:
390,201,69021,1,8,0:0:0:0:
494,165,69340,5,0,0:0:0:0:
497,219,69499,2,0,L|465:292,1,55,12|8,0:2|0:2,0:0:0:0:
373,313,69978,1,8,0:0:0:0:
264,295,70297,2,0,P|220:295|152:283,2,110,0|8|0,0:0|0:2|0:0,0:0:0:0:
332,208,71255,1,8,0:2:0:0:
168,60,71893,6,0,P|128:52|56:48,2,110,12|0|0,0:2|0:0|0:0,0:0:0:0:
276,72,72851,2,0,P|320:80|388:84,2,110,0|8|8,0:0|0:2|0:0,0:0:0:0:
212,160,73808,2,0,L|212:280,1,110,8|8,0:0|0:2,0:0:0:0:
304,212,74446,6,0,L|368:212,1,55,12|8,0:2|0:2,0:0:0:0:
436,132,74925,2,0,L|368:132,1,55,8|0,0:2|0:0,0:0:0:0:
300,60,75404,1,8,0:0:0:0:
198,101,75723,1,8,0:2:0:0:
96,60,76042,1,8,0:0:0:0:
113,168,76361,2,0,P|113:240|105:300,1,110,8|8,0:2|0:2,0:0:0:0:
216,305,76999,6,0,L|216:250,1,55,12|8,0:2|0:2,0:0:0:0:
317,207,77478,2,0,L|317:275,1,55,8|0,0:2|0:0,0:0:0:0:
419,304,77957,1,8,0:0:0:0:
419,196,78276,1,8,0:2:0:0:
419,88,78595,1,8,0:0:0:0:
322,141,78914,2,0,B|253:141|197:146,1,110,8|8,0:2|0:2,0:0:0:0:
103,162,79553,6,0,L|43:162,1,55,12|8,0:2|0:2,0:0:0:0:
48,272,80031,2,0,L|120:272,1,55,8|8,0:2|0:2,0:0:0:0:
208,303,80510,2,0,P|208:247|212:175,1,110,8|8,0:0|0:2,0:0:0:0:
216,83,81148,2,0,P|276:103|308:143,1,110,8|8,0:0|0:2,0:0:0:0:
305,247,81787,1,8,0:0:0:0:
408,191,82106,6,0,P|439:165|310:152,1,330,12|8,0:2|0:0,0:0:0:0:
305,247,83382,2,0,L|245:247,1,55,12|8,0:2|0:0,0:0:0:0:
194,247,83702,2,0,L|133:247,1,55,8|8,0:2|0:0,0:0:0:0:
83,247,84021,1,4,2:0:0:0:
138,151,84340,5,2,3:0:0:0:
256,192,84659,12,4,88329,3:0:0:0:
