osu file format v13

[General]
AudioFilename: SiM-EXiSTENCE.mp3
AudioLeadIn: 2000
PreviewTime: 64234
Countdown: 0
SampleSet: Normal
StackLeniency: 0.7
Mode: 0
LetterboxInBreaks: 0
WidescreenStoryboard: 0

[Editor]
Bookmarks: 19711
DistanceSpacing: 1.1
BeatDivisor: 2
GridSize: 4
TimelineZoom: 2.1

[Metadata]
Title:EXiSTENCE (TV Edit)
TitleUnicode:EXiSTENCE (TV Edit)
Artist:SiM
ArtistUnicode:SiM
Creator:Saut
Version:Easy
Source:神撃のバハムート GENESIS
Tags:shingeki no bahamut sin mah godri show-hate silence iz mine reggae punk hard core screamo ska opening theme one okoratu squirrel puxtu
BeatmapID:555650
BeatmapSetID:240415

[Difficulty]
HPDrainRate:2
CircleSize:2.7
OverallDifficulty:2
ApproachRate:3
SliderMultiplier:0.799999999999999
SliderTickRate:1

[Events]
//Background and Video events
0,0,"bg.png",0,0
Video,0,"pishifat.avi"
//Break Periods
2,33814,34717
//Storyboard Layer 0 (Background)
//Storyboard Layer 1 (Fail)
//Storyboard Layer 2 (Pass)
//Storyboard Layer 3 (Foreground)
//Storyboard Sound Samples

[TimingPoints]
403,319.148936170213,4,1,1,40,1,0
10615,-100,4,1,1,50,0,0
20828,-100,4,1,1,40,0,0
31041,321.71581769437,4,1,1,50,1,0
33614,317.880794701987,4,1,1,50,1,0
36157,319.148936170213,4,1,1,50,1,0
39029,-100,4,1,1,40,0,0
41263,-100,4,1,1,50,0,0
45093,333.333333333333,4,1,1,50,1,0
45343,319.148936170213,4,1,1,40,1,8
45422,319.148936170213,4,1,1,40,1,8
46379,319.148936170213,4,1,1,40,1,8
48294,314.13612565445,4,1,1,40,1,8
48922,319.148936170213,4,1,1,40,1,0
54028,-100,4,1,1,40,0,0
62965,317.460317460317,4,1,1,40,1,0
64234,319.148936170213,4,1,1,60,1,1
84659,-100,4,1,1,60,0,0

[Colours]
Combo1 : 133,55,158
Combo2 : 178,24,20
Combo3 : 231,122,125
Combo4 : 253,229,179

[HitObjects]
205,174,403,6,0,P|221:117|197:63,2,120,8|8|8,0:0|1:0|0:0,0:0:0:0:
125,211,1679,2,0,P|166:253|224:260,2,120,8|8|8,0:0|0:0|0:0,0:0:0:0:
135,123,2956,6,0,P|64:147|41:185,2,120,8|8|8,0:0|0:0|0:0,0:0:0:0:
222,124,4232,2,0,L|246:76,2,40,4|8|8,0:0|0:2|0:2,0:0:0:0:
177,200,4871,1,8,0:2:0:0:
132,275,5190,1,8,0:0:0:0:
219,276,5509,6,0,B|342:277,1,120,8|8,0:0|0:0,0:0:0:0:
392,156,6466,1,8,0:0:0:0:
395,68,6785,2,0,L|271:68,1,120,8|8,0:0|0:0,0:0:0:0:
144,76,7743,1,8,0:0:0:0:
76,132,8062,6,0,P|112:160|152:164,1,79.9999999999999,8|8,0:0|0:2,0:0:0:0:
232,168,8700,2,0,P|245:211|236:250,1,79.9999999999999,8|8,0:2|0:2,0:0:0:0:
178,309,9339,2,0,L|123:298,2,40,8|0|8,0:2|3:0|0:2,0:0:0:0:
263,328,9977,2,0,P|300:335|353:326,1,79.9999999999999,8|4,0:2|3:0,0:0:0:0:
401,263,10615,6,0,B|415:184|415:184|419:157|409:126|388:108,1,160,12|8,0:2|0:2,0:0:0:0:
330,172,11573,2,0,L|314:260,1,79.9999999999999,8|8,0:0|0:2,0:0:0:0:
296,336,12211,1,8,0:0:0:0:
212,304,12530,1,8,0:2:0:0:
160,232,12849,1,8,0:0:0:0:
132,148,13168,6,0,P|89:178|101:297,1,160,8|8,0:2|0:2,0:0:0:0:
151,335,14126,2,0,B|183:335|183:335|207:319|207:319|243:319,1,79.9999999999999,8|8,0:0|0:2,0:0:0:0:
316,320,14764,2,0,L|339:369,2,40,8|8|0,0:0|0:2|0:0,0:0:0:0:
273,242,15403,1,8,0:0:0:0:
185,236,15722,6,0,P|124:230|46:143,1,160,12|8,0:2|0:2,0:0:0:0:
22,83,16679,2,0,P|60:76|108:99,1,79.9999999999999,8|8,0:0|0:2,0:0:0:0:
160,151,17317,1,8,0:0:0:0:
239,111,17637,1,8,0:2:0:0:
318,147,17956,1,8,0:0:0:0:
330,234,18275,6,0,P|394:192|397:108,1,160,8|8,0:2|0:2,0:0:0:0:
351,40,19232,2,0,B|322:55|322:55|275:55|275:55|230:83,1,120,8|0,0:0|2:0,0:0:0:0:
155,98,20030,2,0,L|155:46,2,40,8|8|8,0:2|0:0|0:2,0:0:0:0:
60,190,20828,6,0,P|92:238|216:270,1,160,12|8,0:2|0:0,0:0:0:0:
249,215,21785,1,0,0:0:0:0:
320,266,22105,2,0,L|400:266,1,79.9999999999999,12|0,0:2|2:0,0:0:0:0:
479,229,22743,2,0,L|479:187,2,40,8|8|0,0:0|0:2|0:0,0:0:0:0:
491,316,23381,6,0,B|469:316|469:316|436:350|436:350|339:350,1,160,0|8,2:0|0:0,0:0:0:0:
258,332,24339,2,0,B|166:332,1,79.9999999999999,8|0,0:2|2:0,0:0:0:0:
155,247,24977,2,0,B|247:247,1,79.9999999999999,0|8,0:0|0:0,0:0:0:0:
255,72,25934,6,0,P|179:54|118:102,1,160,12|8,0:2|0:0,0:0:0:0:
198,141,26892,2,0,P|230:158|284:155,1,79.9999999999999,0|12,0:0|0:2,0:0:0:0:
446,128,27849,1,8,0:0:0:0:
376,286,28488,6,0,B|262:298|262:298|208:279,1,160,0|8,2:0|0:0,0:0:0:0:
144,237,29445,1,8,0:2:0:0:
140,325,29764,2,0,P|89:306|124:151,1,240,8|12,0:0|0:0,0:0:0:0:
256,192,31041,12,4,33614,3:0:0:0:
256,192,36157,6,0,B|328:156|328:156|400:192,1,160,12|8,0:0|0:2,0:0:0:0:
328,248,37114,1,8,0:2:0:0:
400,304,37433,2,0,B|328:340|328:340|256:304,1,160,12|8,0:0|0:2,0:0:0:0:
184,256,38391,2,0,L|108:216,1,79.9999999999999,8|8,0:2|1:0,0:0:0:0:
112,132,39029,5,2,0:0:0:0:
112,308,39667,1,2,0:0:0:0:
264,220,40305,1,2,0:0:0:0:
212,148,40625,2,0,P|248:132|312:148,1,79.9999999999999,0|2,0:0|0:3,0:0:0:0:
352,196,41263,6,0,P|376:136|328:56,1,160,12|8,0:0|0:2,0:0:0:0:
247,32,42220,1,8,0:2:0:0:
173,80,42539,2,0,P|150:151|196:222,1,160,12|8,0:0|0:2,0:0:0:0:
274,250,43497,1,8,0:2:0:0:
342,302,43816,6,0,P|312:329|273:337,1,79.9999999999999,12|8,0:0|0:2,0:0:0:0:
197,293,44454,2,0,P|182:257|192:219,1,79.9999999999999,8|8,0:2|0:2,0:0:0:0:
258,167,45093,1,12,0:2:0:0:
348,167,45422,1,8,0:2:0:0:
370,81,45741,2,0,L|286:81,1,79.9999999999999,8|8,0:2|0:2,0:0:0:0:
202,81,46379,6,0,L|117:81,1,79.9999999999999,12|8,0:2|0:2,0:0:0:0:
125,168,47017,2,0,L|36:168,2,79.9999999999999,8|8|12,0:2|0:2|0:2,0:0:0:0:
209,191,47975,1,8,0:2:0:0:
295,169,48294,2,0,L|295:265,1,79.9999999999999,8|8,0:2|0:2,0:0:0:0:
346,318,48922,6,0,P|276:332|213:270,1,160,12|8,0:2|0:2,0:0:0:0:
177,196,49879,1,8,2:2:0:0:
130,270,50198,2,0,P|89:205|138:120,1,160,12|8,0:2|0:2,0:0:0:0:
203,112,51156,1,8,0:2:0:0:
288,133,51475,6,0,P|314:205|274:271,1,160,12|8,0:0|0:2,0:0:0:0:
227,198,52432,1,8,0:2:0:0:
204,112,52751,2,0,P|230:66|340:65,1,160,12|8,0:0|0:2,0:0:0:0:
395,114,53709,1,12,0:0:0:0:
318,156,54028,6,0,P|254:208|270:300,1,160,12|8,0:2|0:0,0:0:0:0:
414,360,55304,2,0,P|400:278|313:246,1,160,8|12,0:0|0:2,0:0:0:0:
190,340,56581,6,0,P|267:369|338:309,1,160,12|8,0:2|0:0,0:0:0:0:
181,232,57858,2,0,L|13:232,1,160,4|8,0:0|0:0,0:0:0:0:
44,144,58815,1,8,0:0:0:0:
62,57,59134,6,0,L|158:57,1,79.9999999999999,12|0,0:2|0:0,0:0:0:0:
229,57,59773,1,8,0:0:0:0:
229,232,60411,2,0,L|69:232,1,160,0|8,0:0|0:0,0:0:0:0:
224,144,61687,6,0,P|266:151|302:185,1,79.9999999999999,12|0,0:2|0:0,0:0:0:0:
335,252,62326,1,8,0:0:0:0:
417,282,62645,1,0,0:0:0:0:
500,251,62965,2,0,B|497:231|481:213|460:201|460:201|481:151|453:103,1,160,8|4,0:0|3:0,0:0:0:0:
282,102,64234,6,0,B|203:96|203:96|115:113,1,160,12|8,0:0|0:0,0:0:0:0:
147,289,65510,2,0,B|226:295|226:295|314:278,1,160,8|8,0:2|0:0,0:0:0:0:
386,252,66468,1,0,0:0:0:0:
459,300,66787,6,0,P|470:225|410:166,1,160,12|8,0:2|0:0,0:0:0:0:
247,116,68063,2,0,B|163:158|160:85|84:116,1,160,8|8,0:2|0:0,0:0:0:0:
31,175,69021,1,8,0:0:0:0:
115,198,69340,6,0,P|117:244|89:289,2,79.9999999999999,0|8|8,0:0|0:2|0:0,0:0:0:0:
93,112,70297,2,0,P|85:69|93:23,2,79.9999999999999,0|8|0,0:0|0:2|0:0,0:0:0:0:
178,135,71255,1,8,0:2:0:0:
249,295,71893,6,0,L|161:295,2,79.9999999999999,12|0|0,0:2|0:0|0:0,0:0:0:0:
337,295,72851,2,0,L|425:295,2,79.9999999999999,0|8|8,0:0|0:2|0:0,0:0:0:0:
293,219,73808,2,0,L|293:131,1,79.9999999999999,8|8,0:0|0:2,0:0:0:0:
293,51,74446,6,0,P|237:70|207:126,2,120,12|8|8,0:2|0:2|0:0,0:0:0:0:
378,72,75723,1,8,0:2:0:0:
429,143,76042,1,8,0:0:0:0:
431,230,76361,2,0,L|326:230,1,79.9999999999999,8|8,0:2|0:2,0:0:0:0:
263,230,76999,6,0,P|277:281|339:320,2,120,12|8|8,0:2|0:2|0:0,0:0:0:0:
263,141,78276,1,8,0:2:0:0:
263,53,78595,1,8,0:0:0:0:
175,53,78914,2,0,L|175:145,1,79.9999999999999,8|8,0:2|0:2,0:0:0:0:
175,221,79553,6,0,P|232:240|296:216,2,120,12|8|8,0:2|0:2|0:0,0:0:0:0:
104,168,80829,1,8,0:2:0:0:
96,255,81148,2,0,P|119:290|167:309,1,79.9999999999999,8|8,0:0|0:2,0:0:0:0:
238,325,81787,1,8,0:0:0:0:
324,306,82106,6,0,P|363:297|308:160,1,240,12|8,0:2|0:0,0:0:0:0:
236,157,83382,2,0,L|150:157,1,79.9999999999999,12|8,0:2|0:2,0:0:0:0:
67,157,84021,1,4,2:0:0:0:
110,80,84340,5,2,3:0:0:0:
256,192,84659,12,4,88329,3:0:0:0:
