osu file format v14

[General]
AudioFilename: SiM-EXiSTENCE.mp3
AudioLeadIn: 0
PreviewTime: 64232
Countdown: 0
SampleSet: Normal
StackLeniency: 0.7
Mode: 1
LetterboxInBreaks: 0
WidescreenStoryboard: 0

[Editor]
Bookmarks: 10615,20828,33594,36147,44126,54020,64232,69339,74445
DistanceSpacing: 1.3
BeatDivisor: 4
GridSize: 32
TimelineZoom: 2.399999

[Metadata]
Title:EXiSTENCE (TV Edit)
TitleUnicode:EXiSTENCE (TV Edit)
Artist:SiM
ArtistUnicode:SiM
Creator:[Asuka_Langley]
Version:Oni
Source:神撃のバハムート GENESIS
Tags:Shingeki no Bahamut opening theme BeoMu bbj0920
BeatmapID:816782
BeatmapSetID:372932

[Difficulty]
HPDrainRate:5
CircleSize:5
OverallDifficulty:5
ApproachRate:5
SliderMultiplier:1.4
SliderTickRate:1

[Events]
//Background and Video events
0,0,"bg.jpg",0,0
//Break Periods
//Storyboard Layer 0 (Background)
//Storyboard Layer 1 (Fail)
//Storyboard Layer 2 (Pass)
//Storyboard Layer 3 (Foreground)
//Storyboard Sound Samples

[TimingPoints]
403,319.148936170213,4,1,0,80,1,0
33594,-100,4,1,0,60,0,0
36147,-100,4,1,0,80,0,0
38700,-100,4,1,0,70,0,0
41254,-100,4,1,0,80,0,0
54020,-100,4,1,0,70,0,0
62716,-100,4,1,0,80,0,0
64232,-100,4,1,0,90,0,1
88488,-100,4,1,0,80,0,0

[HitObjects]
256,192,403,5,4,0:0:0:0:
256,192,881,1,4,0:0:0:0:
256,192,1360,1,2,0:0:0:0:
256,192,1679,1,4,0:0:0:0:
256,192,2158,1,4,0:0:0:0:
256,192,2637,1,2,0:0:0:0:
256,192,2956,1,4,0:0:0:0:
256,192,3434,1,4,0:0:0:0:
256,192,3913,1,2,0:0:0:0:
256,192,4232,1,4,0:0:0:0:
256,192,4392,1,2,0:0:0:0:
256,192,4551,1,2,0:0:0:0:
256,192,4711,1,4,0:0:0:0:
256,192,4871,1,2,0:0:0:0:
256,192,5030,1,2,0:0:0:0:
256,192,5190,1,0,0:0:0:0:
256,192,5270,1,0,0:0:0:0:
256,192,5349,1,0,0:0:0:0:
256,192,5509,1,4,0:0:0:0:
256,192,5988,1,4,0:0:0:0:
256,192,6466,1,2,0:0:0:0:
256,192,6785,1,4,0:0:0:0:
256,192,7264,1,4,0:0:0:0:
256,192,7743,1,2,0:0:0:0:
256,192,8062,1,6,0:0:0:0:
256,192,8381,1,4,0:0:0:0:
256,192,8700,1,0,0:0:0:0:
256,192,8860,1,0,0:0:0:0:
256,192,9020,1,0,0:0:0:0:
256,192,9179,1,0,0:0:0:0:
256,192,9339,1,2,0:0:0:0:
256,192,9418,1,2,0:0:0:0:
256,192,9498,1,2,0:0:0:0:
256,192,9578,1,2,0:0:0:0:
256,192,9658,1,2,0:0:0:0:
256,192,9738,1,2,0:0:0:0:
256,192,9817,1,2,0:0:0:0:
256,192,9897,1,2,0:0:0:0:
256,192,9977,1,0,0:0:0:0:
256,192,10296,1,0,0:0:0:0:
256,192,10615,1,4,0:0:0:0:
256,192,10775,1,2,0:0:0:0:
256,192,10934,1,0,0:0:0:0:
256,192,11254,1,0,0:0:0:0:
256,192,11573,1,0,0:0:0:0:
256,192,11732,1,2,0:0:0:0:
256,192,11892,1,0,0:0:0:0:
256,192,12211,1,2,0:0:0:0:
256,192,12530,1,0,0:0:0:0:
256,192,12849,1,2,0:0:0:0:
256,192,13168,1,0,0:0:0:0:
256,192,13328,1,2,0:0:0:0:
256,192,13488,1,0,0:0:0:0:
256,192,13807,1,0,0:0:0:0:
256,192,14126,1,0,0:0:0:0:
256,192,14285,1,2,0:0:0:0:
256,192,14445,1,0,0:0:0:0:
256,192,14764,1,2,0:0:0:0:
256,192,14924,1,0,0:0:0:0:
256,192,15004,1,0,0:0:0:0:
256,192,15083,1,0,0:0:0:0:
256,192,15243,1,0,0:0:0:0:
256,192,15403,1,2,0:0:0:0:
256,192,15562,1,0,0:0:0:0:
256,192,15722,1,4,0:0:0:0:
256,192,15881,1,2,0:0:0:0:
256,192,16041,1,0,0:0:0:0:
256,192,16360,1,0,0:0:0:0:
256,192,16679,1,0,0:0:0:0:
256,192,16839,1,2,0:0:0:0:
256,192,16998,1,0,0:0:0:0:
256,192,17317,1,2,0:0:0:0:
256,192,17637,1,0,0:0:0:0:
256,192,17956,1,2,0:0:0:0:
256,192,18275,1,0,0:0:0:0:
256,192,18434,1,2,0:0:0:0:
256,192,18594,1,0,0:0:0:0:
256,192,18913,1,0,0:0:0:0:
256,192,19232,1,0,0:0:0:0:
256,192,19392,1,2,0:0:0:0:
256,192,19551,1,0,0:0:0:0:
256,192,20030,1,0,0:0:0:0:
256,192,20110,1,0,0:0:0:0:
256,192,20190,1,0,0:0:0:0:
256,192,20349,1,2,0:0:0:0:
256,192,20668,1,0,0:0:0:0:
256,192,20828,1,4,0:0:0:0:
256,192,20988,1,2,0:0:0:0:
256,192,21147,1,0,0:0:0:0:
256,192,21466,1,0,0:0:0:0:
256,192,21785,1,0,0:0:0:0:
256,192,21945,1,2,0:0:0:0:
256,192,22105,1,0,0:0:0:0:
256,192,22583,1,0,0:0:0:0:
256,192,22663,1,0,0:0:0:0:
256,192,22743,1,0,0:0:0:0:
256,192,22903,1,2,0:0:0:0:
256,192,23222,1,2,0:0:0:0:
256,192,23381,1,0,0:0:0:0:
256,192,23541,1,2,0:0:0:0:
256,192,23700,1,2,0:0:0:0:
256,192,23860,1,0,0:0:0:0:
256,192,24020,1,2,0:0:0:0:
256,192,24179,1,2,0:0:0:0:
256,192,24339,1,2,0:0:0:0:
256,192,24498,1,0,0:0:0:0:
256,192,24578,1,0,0:0:0:0:
256,192,24658,1,0,0:0:0:0:
256,192,24817,1,0,0:0:0:0:
256,192,24977,1,0,0:0:0:0:
256,192,25296,1,0,0:0:0:0:
256,192,25456,1,2,0:0:0:0:
256,192,25535,1,2,0:0:0:0:
256,192,25615,1,2,0:0:0:0:
256,192,25775,1,2,0:0:0:0:
256,192,25934,1,4,0:0:0:0:
256,192,26094,1,2,0:0:0:0:
256,192,26254,1,0,0:0:0:0:
256,192,26573,1,0,0:0:0:0:
256,192,26892,1,0,0:0:0:0:
256,192,27051,1,2,0:0:0:0:
256,192,27211,1,0,0:0:0:0:
256,192,27530,1,0,0:0:0:0:
256,192,27690,1,0,0:0:0:0:
256,192,27849,1,0,0:0:0:0:
256,192,28009,1,2,0:0:0:0:
256,192,28328,1,2,0:0:0:0:
256,192,28488,1,0,0:0:0:0:
256,192,28647,1,2,0:0:0:0:
256,192,28807,1,2,0:0:0:0:
256,192,28966,1,0,0:0:0:0:
256,192,29126,1,2,0:0:0:0:
256,192,29285,1,2,0:0:0:0:
256,192,29445,1,2,0:0:0:0:
256,192,29605,1,0,0:0:0:0:
256,192,29764,1,6,0:0:0:0:
256,192,29924,1,0,0:0:0:0:
256,192,30083,1,0,0:0:0:0:
256,192,30243,1,6,0:0:0:0:
256,192,30403,1,0,0:0:0:0:
256,192,30562,1,0,0:0:0:0:
256,192,30722,1,6,0:0:0:0:
256,192,31041,1,2,0:0:0:0:
256,192,31360,1,2,0:0:0:0:
256,192,31679,1,2,0:0:0:0:
256,192,31998,1,2,0:0:0:0:
256,192,32317,1,2,0:0:0:0:
256,192,32637,1,2,0:0:0:0:
256,192,32796,1,0,0:0:0:0:
256,192,32876,1,0,0:0:0:0:
256,192,32956,1,0,0:0:0:0:
256,192,33115,1,0,0:0:0:0:
256,192,33195,1,2,0:0:0:0:
256,192,33434,1,2,0:0:0:0:
256,192,33594,1,4,0:0:0:0:
256,192,35828,1,2,0:0:0:0:
256,192,36147,1,4,0:0:0:0:
256,192,36387,1,0,0:0:0:0:
256,192,36466,1,0,0:0:0:0:
256,192,36626,1,2,0:0:0:0:
256,192,36706,1,2,0:0:0:0:
256,192,36785,1,0,0:0:0:0:
256,192,36945,1,2,0:0:0:0:
256,192,37105,1,0,0:0:0:0:
256,192,37264,1,0,0:0:0:0:
256,192,37344,1,0,0:0:0:0:
256,192,37424,1,0,0:0:0:0:
256,192,37663,1,0,0:0:0:0:
256,192,37743,1,0,0:0:0:0:
256,192,37903,1,2,0:0:0:0:
256,192,38062,1,0,0:0:0:0:
256,192,38222,1,2,0:0:0:0:
256,192,38302,1,0,0:0:0:0:
256,192,38381,1,0,0:0:0:0:
256,192,38541,1,2,0:0:0:0:
256,192,38700,1,4,0:0:0:0:
256,192,39020,1,2,0:0:0:0:
256,192,39179,1,0,0:0:0:0:
256,192,39339,1,0,0:0:0:0:
256,192,39418,1,0,0:0:0:0:
256,192,39578,1,0,0:0:0:0:
256,192,39658,1,2,0:0:0:0:
256,192,39817,1,0,0:0:0:0:
256,192,39977,1,0,0:0:0:0:
256,192,40137,1,0,0:0:0:0:
256,192,40216,1,0,0:0:0:0:
256,192,40296,1,2,0:0:0:0:
256,192,40456,1,0,0:0:0:0:
256,192,40615,1,2,0:0:0:0:
256,192,40695,1,2,0:0:0:0:
256,192,40775,1,0,0:0:0:0:
256,192,40934,1,2,0:0:0:0:
256,192,41254,1,4,0:0:0:0:
256,192,41493,1,0,0:0:0:0:
256,192,41573,1,0,0:0:0:0:
256,192,41732,1,2,0:0:0:0:
256,192,41812,1,2,0:0:0:0:
256,192,41892,1,0,0:0:0:0:
256,192,42051,1,2,0:0:0:0:
256,192,42211,1,0,0:0:0:0:
256,192,42371,1,0,0:0:0:0:
256,192,42450,1,0,0:0:0:0:
256,192,42530,1,0,0:0:0:0:
256,192,42770,1,0,0:0:0:0:
256,192,42849,1,0,0:0:0:0:
256,192,43009,1,2,0:0:0:0:
256,192,43168,1,0,0:0:0:0:
256,192,43328,1,2,0:0:0:0:
256,192,43408,1,0,0:0:0:0:
256,192,43488,1,0,0:0:0:0:
256,192,43647,1,2,0:0:0:0:
256,192,43807,1,4,0:0:0:0:
256,192,44046,1,2,0:0:0:0:
256,192,44126,1,0,0:0:0:0:
256,192,44285,1,2,0:0:0:0:
256,192,44445,1,0,0:0:0:0:
256,192,44605,1,0,0:0:0:0:
256,192,44684,1,2,0:0:0:0:
256,192,44764,1,0,0:0:0:0:
256,192,44924,1,2,0:0:0:0:
256,192,45083,1,0,0:0:0:0:
256,192,45323,1,0,0:0:0:0:
256,192,45403,1,0,0:0:0:0:
256,192,45562,1,2,0:0:0:0:
256,192,45722,1,0,0:0:0:0:
256,192,45881,1,2,0:0:0:0:
256,192,45961,1,2,0:0:0:0:
256,192,46041,1,0,0:0:0:0:
256,192,46200,1,2,0:0:0:0:
256,192,46360,1,0,0:0:0:0:
256,192,46599,1,2,0:0:0:0:
256,192,46679,1,0,0:0:0:0:
256,192,46839,1,2,0:0:0:0:
256,192,46998,1,0,0:0:0:0:
256,192,47158,1,2,0:0:0:0:
256,192,47238,1,2,0:0:0:0:
256,192,47317,1,0,0:0:0:0:
256,192,47477,1,2,0:0:0:0:
256,192,47637,1,0,0:0:0:0:
256,192,47876,1,0,0:0:0:0:
256,192,47956,1,2,0:0:0:0:
256,192,48115,1,0,0:0:0:0:
256,192,48275,1,2,0:0:0:0:
256,192,48355,1,2,0:0:0:0:
256,192,48514,1,0,0:0:0:0:
256,192,48594,1,2,0:0:0:0:
256,192,48754,1,0,0:0:0:0:
256,192,48913,1,6,0:0:0:0:
256,192,49073,1,0,0:0:0:0:
256,192,49153,1,0,0:0:0:0:
256,192,49232,1,0,0:0:0:0:
256,192,49392,1,0,0:0:0:0:
256,192,49551,1,2,0:0:0:0:
256,192,49711,1,0,0:0:0:0:
256,192,49791,1,0,0:0:0:0:
256,192,49871,1,2,0:0:0:0:
256,192,50030,1,0,0:0:0:0:
256,192,50190,1,6,0:0:0:0:
256,192,50429,1,0,0:0:0:0:
256,192,50509,1,0,0:0:0:0:
256,192,50589,1,0,0:0:0:0:
256,192,50668,1,2,0:0:0:0:
256,192,50828,1,0,0:0:0:0:
256,192,50988,1,2,0:0:0:0:
256,192,51067,1,2,0:0:0:0:
256,192,51147,1,0,0:0:0:0:
256,192,51307,1,0,0:0:0:0:
256,192,51466,1,6,0:0:0:0:
256,192,51706,1,2,0:0:0:0:
256,192,51785,1,0,0:0:0:0:
256,192,51945,1,2,0:0:0:0:
256,192,52105,1,0,0:0:0:0:
256,192,52264,1,2,0:0:0:0:
256,192,52344,1,2,0:0:0:0:
256,192,52424,1,0,0:0:0:0:
256,192,52583,1,2,0:0:0:0:
256,192,52743,1,0,0:0:0:0:
256,192,52823,1,0,0:0:0:0:
256,192,52903,1,2,0:0:0:0:
256,192,52982,1,2,0:0:0:0:
256,192,53062,1,0,0:0:0:0:
256,192,53222,1,0,0:0:0:0:
256,192,53381,1,2,0:0:0:0:
256,192,53700,1,2,0:0:0:0:
256,192,54020,1,4,0:0:0:0:
256,192,54498,1,0,0:0:0:0:
256,192,54578,1,0,0:0:0:0:
256,192,54658,1,2,0:0:0:0:
256,192,54871,1,0,0:0:0:0:
256,192,55083,1,0,0:1:0:0:
256,192,55296,1,2,0:0:0:0:
256,192,55775,1,0,0:0:0:0:
256,192,55934,1,2,0:0:0:0:
256,192,56094,1,0,0:0:0:0:
256,192,56573,1,4,0:0:0:0:
256,192,57051,1,0,0:0:0:0:
256,192,57211,1,2,0:0:0:0:
256,192,57424,1,0,0:0:0:0:
256,192,57637,1,0,0:1:0:0:
256,192,57849,1,2,0:0:0:0:
256,192,58328,1,0,0:0:0:0:
256,192,58408,1,0,0:0:0:0:
256,192,58488,1,2,0:0:0:0:
256,192,58647,1,2,0:0:0:0:
256,192,58807,1,0,0:0:0:0:
256,192,59126,1,4,0:0:0:0:
256,192,59764,1,2,0:0:0:0:
256,192,60403,1,2,0:0:0:0:
256,192,60881,1,0,0:0:0:0:
256,192,60961,1,0,0:0:0:0:
256,192,61041,1,2,0:0:0:0:
256,192,61200,1,2,0:0:0:0:
256,192,61360,1,0,0:0:0:0:
256,192,61679,1,4,0:0:0:0:
256,192,61998,1,2,0:0:0:0:
256,192,62078,1,2,0:0:0:0:
256,192,62158,1,0,0:0:0:0:
256,192,62317,1,2,0:0:0:0:
256,192,62557,1,0,0:0:0:0:
256,192,62637,1,0,0:0:0:0:
256,192,62796,1,0,0:0:0:0:
256,192,62956,1,6,0:0:0:0:
256,192,63195,1,6,0:0:0:0:
256,192,63434,1,6,0:0:0:0:
256,192,63594,1,4,0:0:0:0:
256,192,64232,1,4,0:0:0:0:
256,192,64551,1,0,0:0:0:0:
256,192,64711,1,0,0:0:0:0:
256,192,64791,1,0,0:0:0:0:
256,192,64871,1,2,0:0:0:0:
256,192,65030,1,0,0:0:0:0:
256,192,65190,1,2,0:0:0:0:
256,192,65349,1,2,0:0:0:0:
256,192,65429,1,2,0:0:0:0:
256,192,65509,1,0,0:0:0:0:
256,192,65668,1,0,0:0:0:0:
256,192,65748,1,0,0:0:0:0:
256,192,65828,1,0,0:0:0:0:
256,192,65988,1,0,0:0:0:0:
256,192,66147,1,2,0:0:0:0:
256,192,66466,1,0,0:0:0:0:
256,192,66626,1,2,0:0:0:0:
256,192,66785,1,0,0:0:0:0:
256,192,66945,1,2,0:0:0:0:
256,192,67025,1,2,0:0:0:0:
256,192,67105,1,2,0:0:0:0:
256,192,67264,1,0,0:0:0:0:
256,192,67424,1,2,0:0:0:0:
256,192,67504,1,2,0:0:0:0:
256,192,67583,1,0,0:0:0:0:
256,192,67743,1,0,0:0:0:0:
256,192,67903,1,2,0:0:0:0:
256,192,68062,1,0,0:0:0:0:
256,192,68142,1,0,0:0:0:0:
256,192,68222,1,2,0:0:0:0:
256,192,68381,1,2,0:0:0:0:
256,192,68461,1,2,0:0:0:0:
256,192,68541,1,0,0:0:0:0:
256,192,68621,1,0,0:0:0:0:
256,192,68700,1,2,0:0:0:0:
256,192,68860,1,2,0:0:0:0:
256,192,68940,1,2,0:0:0:0:
256,192,69020,1,0,0:0:0:0:
256,192,69179,1,0,0:0:0:0:
256,192,69339,1,6,0:0:0:0:
256,192,69658,1,6,0:0:0:0:
256,192,69817,1,6,0:0:0:0:
256,192,69977,1,0,0:0:0:0:
256,192,70057,1,0,0:0:0:0:
256,192,70137,1,0,0:0:0:0:
256,192,70296,1,6,0:0:0:0:
256,192,70615,1,6,0:0:0:0:
256,192,70775,1,6,0:0:0:0:
256,192,70934,1,0,0:0:0:0:
256,192,71094,1,2,0:0:0:0:
256,192,71174,1,2,0:0:0:0:
256,192,71254,1,0,0:0:0:0:
256,192,71413,1,0,0:0:0:0:
256,192,71573,1,0,0:0:0:0:
256,192,71732,1,0,0:0:0:0:
256,192,71892,1,6,0:0:0:0:
256,192,72211,1,6,0:0:0:0:
256,192,72371,1,6,0:0:0:0:
256,192,72530,1,0,0:0:0:0:
256,192,72610,1,0,0:0:0:0:
256,192,72690,1,0,0:0:0:0:
256,192,72849,1,6,0:0:0:0:
256,192,73168,1,6,0:0:0:0:
256,192,73328,1,6,0:0:0:0:
256,192,73488,1,0,0:0:0:0:
256,192,73647,1,0,0:0:0:0:
256,192,73727,1,0,0:0:0:0:
256,192,73807,1,2,0:0:0:0:
256,192,73887,1,2,0:0:0:0:
256,192,73966,1,2,0:0:0:0:
256,192,74046,1,2,0:0:0:0:
256,192,74126,1,0,0:0:0:0:
256,192,74445,1,2,0:0:0:0:
256,192,74525,1,2,0:0:0:0:
256,192,74605,1,2,0:0:0:0:
256,192,74764,1,0,0:0:0:0:
256,192,74924,1,2,0:0:0:0:
256,192,75004,1,2,0:0:0:0:
256,192,75083,1,2,0:0:0:0:
256,192,75243,1,0,0:0:0:0:
256,192,75403,1,2,0:0:0:0:
256,192,75562,1,0,0:0:0:0:
256,192,75642,1,0,0:0:0:0:
256,192,75722,1,2,0:0:0:0:
256,192,75881,1,0,0:0:0:0:
256,192,75961,1,0,0:0:0:0:
256,192,76041,1,2,0:0:0:0:
256,192,76200,1,0,0:0:0:0:
256,192,76280,1,0,0:0:0:0:
256,192,76360,1,2,0:0:0:0:
256,192,76520,1,0,0:0:0:0:
256,192,76679,1,2,0:0:0:0:
256,192,76998,1,2,0:0:0:0:
256,192,77078,1,2,0:0:0:0:
256,192,77158,1,2,0:0:0:0:
256,192,77317,1,0,0:0:0:0:
256,192,77477,1,2,0:0:0:0:
256,192,77557,1,2,0:0:0:0:
256,192,77637,1,2,0:0:0:0:
256,192,77796,1,0,0:0:0:0:
256,192,77956,1,2,0:0:0:0:
256,192,78115,1,0,0:0:0:0:
256,192,78195,1,0,0:0:0:0:
256,192,78275,1,2,0:0:0:0:
256,192,78434,1,0,0:0:0:0:
256,192,78594,1,2,0:0:0:0:
256,192,78754,1,0,0:0:0:0:
256,192,78913,1,2,0:0:0:0:
256,192,78993,1,2,0:0:0:0:
256,192,79073,1,0,0:0:0:0:
256,192,79232,1,0,0:0:0:0:
256,192,79551,1,2,0:0:0:0:
256,192,79631,1,2,0:0:0:0:
256,192,79711,1,2,0:0:0:0:
256,192,79871,1,0,0:0:0:0:
256,192,80030,1,2,0:0:0:0:
256,192,80110,1,2,0:0:0:0:
256,192,80190,1,2,0:0:0:0:
256,192,80349,1,0,0:0:0:0:
256,192,80509,1,2,0:0:0:0:
256,192,80668,1,0,0:0:0:0:
256,192,80828,1,2,0:0:0:0:
256,192,80988,1,2,0:0:0:0:
256,192,81067,1,2,0:0:0:0:
256,192,81147,1,0,0:0:0:0:
256,192,81307,1,2,0:0:0:0:
256,192,81466,1,0,0:0:0:0:
256,192,81626,1,2,0:0:0:0:
256,192,81706,1,0,0:0:0:0:
256,192,81785,1,2,0:0:0:0:
256,192,81945,1,2,0:0:0:0:
256,192,82105,1,0,0:0:0:0:
256,192,82424,1,2,0:0:0:0:
256,192,82743,1,0,0:0:0:0:
256,192,82903,1,2,0:0:0:0:
256,192,83062,1,2,0:0:0:0:
256,192,83222,1,2,0:0:0:0:
256,192,83381,1,0,0:0:0:0:
256,192,83541,1,0,0:0:0:0:
256,192,83621,1,0,0:0:0:0:
256,192,83700,1,0,0:0:0:0:
256,192,83860,1,0,0:0:0:0:
256,192,84020,1,6,0:0:0:0:
256,192,84658,1,4,0:0:0:0:
256,192,84817,1,2,0:0:0:0:
256,192,84977,1,0,0:0:0:0:
256,192,85296,1,0,0:0:0:0:
256,192,85615,1,0,0:0:0:0:
256,192,85775,1,2,0:0:0:0:
256,192,85934,1,0,0:0:0:0:
256,192,86254,1,0,0:0:0:0:
256,192,86573,1,0,0:0:0:0:
256,192,86892,1,0,0:0:0:0:
256,192,87211,1,2,0:0:0:0:
256,192,87371,1,0,0:0:0:0:
256,192,87530,1,2,0:0:0:0:
256,192,87610,1,2,0:0:0:0:
256,192,87690,1,0,0:0:0:0:
256,192,87770,1,0,0:0:0:0:
256,192,87849,1,0,0:0:0:0:
256,192,88168,1,4,0:0:0:0:
256,192,88328,1,4,0:0:0:0:
