osu file format v7

[General]
AudioFilename: Issei no Koe.mp3
AudioLeadIn: 1000
PreviewTime: 51532
Countdown: 0
SampleSet: Normal
StackLeniency: 0.7
Mode: 0
LetterboxInBreaks: 1

[Editor]
Bookmarks: 89167
DistanceSpacing: 1
BeatDivisor: 4
GridSize: 8

[Metadata]
Title:Issei no Koe
Artist:Shuuhei Kita
Creator:quintessence
Version:Normal
Source:Natsume Yuujin Chou
Tags:

[Difficulty]
HPDrainRate:3
CircleSize:3
OverallDifficulty:5
SliderMultiplier:1.4
SliderTickRate:2

[Events]
//Background and Video events
Video,0,"Issei no Koe(OP).avi"
0,0,"Background book.jpg"
//Break Periods
//Storyboard Layer 0 (Background)
//Storyboard Layer 1 (Fail)
//Storyboard Layer 2 (Pass)
//Storyboard Layer 3 (Foreground)
//Storyboard Sound Samples
//Background Colour Transformations
3,100,225,225,196

[TimingPoints]
5088,491.803278688525,4,1,0,30,1,0
35912,-100,4,1,0,50,0,0
51686,-100,4,1,0,70,0,1
86604,-100,4,1,0,0,0,1
86954,-100,4,1,0,30,0,0

[Colours]
Combo1 : 255,218,162
Combo2 : 151,253,151
Combo3 : 181,255,255
Combo4 : 214,214,173

[HitObjects]
80,328,5087,1,8
256,192,6071,1,8
480,192,7055,1,8
304,328,8038,1,8
192,328,8530,1,4
264,240,9022,6,0,B|120:240,1,140,8|0
200,152,10006,2,0,B|352:152,1,140,8|0
448,160,10989,2,8,B|448:304,2,140
448,48,12465,1,4
360,112,12956,6,0,B|296:56|232:112,1,140,8|0
296,208,13940,1,0
184,208,14432,1,0
248,304,14924,2,0,B|184:360|120:304,1,140,8|0
184,208,15907,1,0
296,208,16399,1,0
184,208,16891,2,0,B|40:208,1,140,8|4
256,192,17874,12,4,20333
416,256,20825,6,0,B|472:192|416:128,1,140,8|0
320,72,21809,2,0,B|256:16|192:72,1,140,8|0
96,128,22792,2,0,B|40:192|96:256,1,140,8|0
192,312,23776,2,0,B|256:368|320:312,1,140,8|4
256,216,24760,5,8
144,192,25251,1,0
48,128,25743,1,8
144,64,26235,1,0
256,32,26727,1,8
368,64,27219,1,0
464,128,27710,1,8
368,192,28202,1,4
256,216,28694,6,0,B|112:216,2,140,8|0|8
256,104,30169,1,0
256,216,30661,2,0,B|184:248,1,70,8|0
256,216,31153,2,0,B|328:248,1,70,8|0
256,216,31645,2,8,B|256:144,3,70,8|8|8|8
256,192,32628,12,4,35579
256,88,36071,5,0
256,296,36809,1,4
328,176,37301,1,0
256,176,37547,1,0
184,176,37792,1,4
256,296,38284,6,0,B|256:224,2,70,0|0|4
184,176,39268,1,0
328,176,39760,1,4
256,56,40251,6,0,B|256:200,1,140,0|4
184,320,41235,1,0
256,320,41481,1,0
328,320,41727,1,4
256,192,42219,12,4,43202
256,304,43940,5,0
256,232,44186,1,0
256,160,44432,1,0
256,88,44678,1,4
256,88,45169,5,0
256,232,45661,1,4
112,232,46153,5,0
184,112,46645,1,0
328,112,47137,5,0
400,232,47628,1,0
400,232,47874,6,4,B|400:344|312:320|224:336|224:232,2,280,4|4|4
256,192,50333,12,4,51071
56,256,51809,6,0,B|136:24|376:24|456:272,2,560
192,216,56235,5,8
192,216,56727,1,0
312,288,57219,2,8,B|168:288,1,140,8|8
312,288,58202,1,8
456,288,58694,1,0
384,168,59186,2,8,B|384:240|384:312,1,140
256,248,60169,5,0
184,128,60661,1,0
328,128,61153,1,0
256,248,61645,2,8,B|256:96,1,140
256,248,62628,1,0
216,312,62874,1,0
296,312,63120,1,4
256,192,63612,12,4,67055
256,256,67547,6,0,B|400:256,1,140
256,256,68530,2,0,B|112:256,1,140
136,120,69514,2,0,B|224:96|256:176,1,140
352,72,70497,2,0,B|440:48|504:248|384:272,1,280
288,176,71973,5,8
144,176,72465,1,0
216,296,72957,2,8,B|216:152,1,140,8|8
216,296,73940,1,8
360,296,74432,1,0
288,176,74924,2,8,B|288:248|288:320,1,140
288,176,75907,6,0,B|288:32,1,140
168,112,76891,2,0,B|104:64|32:112,2,140
80,224,78366,1,0
152,216,78612,1,0
224,208,78858,1,4
112,288,79350,5,0
112,288,79596,1,0
112,288,79842,6,0,B|192:56|432:56|512:304,1,560
320,192,82547,5,0
296,256,82792,1,0
272,320,83038,2,0,B|120:320,1,140
256,192,83776,12,4,86727
