osu file format v14

[General]
AudioFilename: 17. (Vocaloid Ver.).mp3
AudioLeadIn: 0
PreviewTime: 32286
Countdown: 0
SampleSet: Soft
StackLeniency: 0.7
Mode: 1
LetterboxInBreaks: 0
WidescreenStoryboard: 0

[Editor]
DistanceSpacing: 0.5
BeatDivisor: 1
GridSize: 8
TimelineZoom: 0.6999999

[Metadata]
Title:Poni Puni Song(Vocaloid Ver.)
TitleUnicode:ぽにぷにそんぐ(Vocaloid Ver.)
Artist:Shuichiro Fukuhiro
ArtistUnicode:福廣秀一朗
Creator:_verto_
Version:Kantan
Source:げんしけん二代目
Tags:Genshiken Nidaime Hatsune Miku
BeatmapID:324924
BeatmapSetID:128272

[Difficulty]
HPDrainRate:2
CircleSize:4
OverallDifficulty:2
ApproachRate:4
SliderMultiplier:1.4
SliderTickRate:1

[Events]
//Background and Video events
0,0,"Background.png",0,0
//Break Periods
//Storyboard Layer 0 (Background)
//Storyboard Layer 1 (Fail)
//Storyboard Layer 2 (Pass)
//Storyboard Layer 3 (Foreground)
//Storyboard Sound Samples

[TimingPoints]
286,500,4,2,0,100,1,0
64286,-100,4,2,0,100,0,1
96286,-100,4,2,0,100,0,0

[HitObjects]
232,184,286,5,12,0:0:0:0:
200,208,2286,1,8,0:0:0:0:
256,336,3286,1,8,0:0:0:0:
256,336,4286,1,0,0:0:0:0:
248,304,6286,1,0,0:0:0:0:
256,176,7286,1,0,0:0:0:0:
328,184,8286,1,8,0:0:0:0:
272,232,10286,5,8,0:0:0:0:
272,232,11286,5,8,0:0:0:0:
272,232,12286,5,0,0:0:0:0:
272,232,14286,5,0,0:0:0:0:
272,232,15286,1,0,0:0:0:0:
224,288,15786,5,12,0:0:0:0:
264,184,16286,1,0,0:0:0:0:
264,184,17286,1,0,0:0:0:0:
264,184,18286,1,0,0:0:0:0:
160,152,19786,1,8,0:0:0:0:
264,184,20286,1,0,0:0:0:0:
264,184,21286,1,0,0:0:0:0:
264,184,22286,1,0,0:0:0:0:
200,272,23786,1,12,0:0:0:0:
264,184,24286,1,12,0:0:0:0:
264,184,25286,1,0,0:0:0:0:
264,184,26286,1,0,0:0:0:0:
160,152,27786,1,8,0:0:0:0:
144,184,28286,1,0,0:0:0:0:
264,184,29286,1,0,0:0:0:0:
264,184,30286,1,0,0:0:0:0:
264,184,31786,1,12,0:0:0:0:
264,184,32286,1,12,0:0:0:0:
232,176,32786,1,8,0:0:0:0:
264,184,34286,1,0,0:0:0:0:
136,136,34786,1,8,0:0:0:0:
168,168,35286,1,0,0:0:0:0:
264,184,36286,5,0,0:0:0:0:
72,160,36786,1,8,0:0:0:0:
112,176,37286,1,0,0:0:0:0:
264,184,38286,1,0,0:0:0:0:
264,184,38786,1,8,0:0:0:0:
264,184,39786,1,12,0:0:0:0:
264,184,40286,1,12,0:0:0:0:
104,120,40786,1,8,0:0:0:0:
264,184,42286,1,0,0:0:0:0:
112,120,42786,1,8,0:0:0:0:
128,160,43286,1,0,0:0:0:0:
224,200,44286,1,0,0:0:0:0:
136,136,44786,1,8,0:0:0:0:
152,176,45286,1,0,0:0:0:0:
224,200,46286,1,0,0:0:0:0:
224,200,47786,1,12,0:0:0:0:
192,176,48286,1,12,0:0:0:0:
232,264,48786,1,8,0:0:0:0:
280,192,49286,1,0,0:0:0:0:
256,192,50286,1,0,0:0:0:0:
224,112,50786,1,8,0:0:0:0:
256,192,51286,1,0,0:0:0:0:
256,192,52786,1,8,0:0:0:0:
256,192,53286,1,0,0:0:0:0:
256,192,54286,1,0,0:0:0:0:
256,192,54786,1,8,0:0:0:0:
256,192,55286,1,0,0:0:0:0:
168,176,55786,1,12,0:0:0:0:
256,192,56286,1,12,0:0:0:0:
256,192,57286,1,0,0:0:0:0:
256,192,58286,1,0,0:0:0:0:
192,168,58786,1,8,0:0:0:0:
256,192,60286,1,0,0:0:0:0:
216,168,60786,1,8,0:0:0:0:
256,192,61286,1,0,0:0:0:0:
256,192,61786,1,12,0:0:0:0:
256,192,62286,1,12,0:0:0:0:
256,192,63286,1,0,0:0:0:0:
256,192,63786,5,4,0:0:0:0:
256,192,64286,1,8,0:0:0:0:
120,128,64786,1,8,0:0:0:0:
256,192,65786,1,8,0:0:0:0:
248,280,66286,5,0,0:0:0:0:
112,224,67286,1,0,0:0:0:0:
256,192,68286,1,0,0:0:0:0:
120,96,68786,1,8,0:0:0:0:
256,192,69786,1,8,0:0:0:0:
256,192,70286,1,0,0:0:0:0:
256,192,71286,1,0,0:0:0:0:
256,192,71786,1,12,0:0:0:0:
256,192,72286,1,12,0:0:0:0:
256,192,73286,1,0,0:0:0:0:
112,80,73786,1,8,0:0:0:0:
256,192,74286,1,0,0:0:0:0:
328,280,74786,1,8,0:0:0:0:
96,136,75786,1,8,0:0:0:0:
256,192,76286,1,0,0:0:0:0:
256,192,77286,1,0,0:0:0:0:
256,192,77786,1,8,0:0:0:0:
256,184,79286,1,0,0:0:0:0:
256,192,79786,1,12,0:0:0:0:
160,112,80286,1,8,0:0:0:0:
272,192,80786,1,8,0:0:0:0:
256,192,81786,1,8,0:0:0:0:
248,280,82286,5,0,0:0:0:0:
112,224,83286,1,0,0:0:0:0:
256,192,84286,1,0,0:0:0:0:
120,96,84786,1,8,0:0:0:0:
256,192,85786,1,8,0:0:0:0:
256,192,86286,1,0,0:0:0:0:
256,192,87286,1,0,0:0:0:0:
256,192,87786,5,12,0:0:0:0:
256,192,88286,1,12,0:0:0:0:
256,192,89286,1,0,0:0:0:0:
112,80,89786,1,8,0:0:0:0:
256,192,90286,1,0,0:0:0:0:
328,280,90786,1,8,0:0:0:0:
96,136,91786,1,8,0:0:0:0:
256,192,92286,1,0,0:0:0:0:
256,192,93286,1,0,0:0:0:0:
256,192,93786,1,8,0:0:0:0:
256,192,94786,5,8,0:0:0:0:
256,192,95286,1,0,0:0:0:0:
224,288,95786,5,12,0:0:0:0:
264,184,96286,1,0,0:0:0:0:
264,184,97286,1,0,0:0:0:0:
264,184,98286,1,0,0:0:0:0:
160,152,99786,1,8,0:0:0:0:
264,184,100286,1,0,0:0:0:0:
264,184,101286,1,0,0:0:0:0:
264,184,102286,1,0,0:0:0:0:
200,272,103786,1,12,0:0:0:0:
264,184,104286,1,12,0:0:0:0:
264,184,105286,1,0,0:0:0:0:
264,184,106286,1,0,0:0:0:0:
160,152,107786,1,8,0:0:0:0:
144,184,108286,1,0,0:0:0:0:
264,184,109286,1,0,0:0:0:0:
264,184,110286,5,0,0:0:0:0:
224,184,110786,1,8,0:0:0:0:
280,224,111786,1,4,0:0:0:0:
