osu file format v14

[General]
AudioFilename: 17. (Vocaloid Ver.).mp3
AudioLeadIn: 0
PreviewTime: 32286
Countdown: 0
SampleSet: Soft
StackLeniency: 0.7
Mode: 1
LetterboxInBreaks: 0
WidescreenStoryboard: 0

[Editor]
DistanceSpacing: 0.9
BeatDivisor: 4
GridSize: 8
TimelineZoom: 2.010003

[Metadata]
Title:Poni Puni Song(Vocaloid Ver.)
TitleUnicode:ぽにぷにそんぐ(Vocaloid Ver.)
Artist:Shuichiro Fukuhiro
ArtistUnicode:福廣秀一朗
Creator:_verto_
Version:Inner Oni
Source:げんしけん二代目
Tags:Genshiken Nidaime Hatsune Miku
BeatmapID:325245
BeatmapSetID:128272

[Difficulty]
HPDrainRate:5
CircleSize:4
OverallDifficulty:6
ApproachRate:4
SliderMultiplier:1.4
SliderTickRate:1

[Events]
//Background and Video events
0,0,"Background.png",0,0
//Break Periods
//Storyboard Layer 0 (Background)
//Storyboard Layer 1 (Fail)
//Storyboard Layer 2 (Pass)
//Storyboard Layer 3 (Foreground)
//Storyboard Sound Samples

[TimingPoints]
286,500,4,2,0,100,1,0
15786,-66.6666666666667,4,2,0,100,0,0
16286,-83.3333333333333,4,2,0,100,0,0
48161,-100,4,2,0,100,0,0
63661,-66.6666666666667,4,2,0,100,0,0
63911,-100,4,2,0,100,0,0
64286,-76.9230769230769,4,2,0,100,0,1
95661,-66.6666666666667,4,2,0,100,0,1
95911,-83.3333333333333,4,2,0,100,0,1
96286,-83.3333333333333,4,2,0,100,0,0

[HitObjects]
232,176,286,5,12,0:0:0:0:
232,176,536,1,0,0:0:0:0:
232,176,786,1,8,0:0:0:0:
232,176,1036,1,0,0:0:0:0:
232,176,1286,1,8,0:0:0:0:
232,176,1536,1,0,0:0:0:0:
232,176,1661,1,0,0:0:0:0:
232,176,1786,1,8,0:0:0:0:
352,288,2036,1,0,0:0:0:0:
352,288,2286,1,8,0:0:0:0:
352,288,2536,1,8,0:0:0:0:
352,288,2786,1,0,0:0:0:0:
352,288,3036,1,8,0:0:0:0:
352,288,3286,1,0,0:0:0:0:
152,240,3411,1,0,0:0:0:0:
352,288,3536,1,8,0:0:0:0:
352,288,3786,1,0,0:0:0:0:
160,232,4286,1,0,0:0:0:0:
200,232,4536,1,8,0:0:0:0:
432,304,4786,1,0,0:0:0:0:
432,304,5036,1,0,0:0:0:0:
432,304,5286,1,8,0:0:0:0:
264,248,5536,1,0,0:0:0:0:
264,248,5786,1,8,0:0:0:0:
304,280,6036,1,8,0:0:0:0:
304,280,6286,1,0,0:0:0:0:
304,280,6536,1,8,0:0:0:0:
304,280,6661,1,0,0:0:0:0:
304,280,6786,1,8,0:0:0:0:
304,280,7036,1,8,0:0:0:0:
304,280,7286,1,0,0:0:0:0:
208,232,8286,1,8,0:0:0:0:
208,232,8536,1,0,0:0:0:0:
208,232,8786,1,8,0:0:0:0:
304,272,9036,1,0,0:0:0:0:
304,272,9286,1,8,0:0:0:0:
304,272,9536,1,0,0:0:0:0:
208,232,9661,1,0,0:0:0:0:
208,232,9786,1,8,0:0:0:0:
208,232,10036,1,8,0:0:0:0:
176,288,10286,1,0,0:0:0:0:
176,288,10536,1,0,0:0:0:0:
176,288,10786,1,8,0:0:0:0:
176,288,11036,1,8,0:0:0:0:
208,232,11286,1,0,0:0:0:0:
224,32,11411,1,0,0:0:0:0:
208,232,11536,1,8,0:0:0:0:
208,232,11786,1,0,0:0:0:0:
336,240,12286,5,0,0:0:0:0:
336,240,12536,1,8,0:0:0:0:
336,240,12786,1,0,0:0:0:0:
208,232,13036,1,8,0:0:0:0:
144,288,13286,1,0,0:0:0:0:
144,288,13536,1,8,0:0:0:0:
240,312,13661,1,0,0:0:0:0:
144,288,13786,1,0,0:0:0:0:
144,288,14036,1,8,0:0:0:0:
176,240,14286,1,0,0:0:0:0:
264,368,14536,1,0,0:0:0:0:
144,288,14786,1,8,0:0:0:0:
144,288,15036,1,8,0:0:0:0:
144,288,15286,1,0,0:0:0:0:
144,288,15411,1,0,0:0:0:0:
144,288,15536,1,0,0:0:0:0:
224,288,15786,5,12,0:0:0:0:
264,184,16286,1,12,0:0:0:0:
224,184,16536,1,0,0:0:0:0:
264,184,16661,1,8,0:0:0:0:
8,240,16786,1,8,0:0:0:0:
264,184,17036,1,0,0:0:0:0:
264,184,17286,1,8,0:0:0:0:
208,120,17536,1,0,0:0:0:0:
264,184,17661,1,8,0:0:0:0:
208,120,17786,5,8,0:0:0:0:
264,184,18036,1,0,0:0:0:0:
264,184,18286,1,8,0:0:0:0:
264,184,18661,1,8,0:0:0:0:
128,192,18786,1,0,0:0:0:0:
264,184,18911,1,0,0:0:0:0:
264,184,19036,1,8,0:0:0:0:
160,256,19286,1,0,0:0:0:0:
264,184,19411,1,8,0:0:0:0:
88,208,19536,1,8,0:0:0:0:
96,208,19661,1,0,0:0:0:0:
176,136,19786,1,8,0:0:0:0:
152,128,20036,1,0,0:0:0:0:
168,200,20286,1,8,0:0:0:0:
216,176,20536,1,0,0:0:0:0:
264,184,20661,1,8,0:0:0:0:
240,176,20786,1,8,0:0:0:0:
264,184,21036,1,0,0:0:0:0:
264,184,21286,1,8,0:0:0:0:
216,176,21536,1,0,0:0:0:0:
264,184,21661,1,8,0:0:0:0:
240,184,21786,1,8,0:0:0:0:
264,184,22036,1,0,0:0:0:0:
264,184,22286,1,8,0:0:0:0:
216,104,22661,1,8,0:0:0:0:
128,192,22786,1,0,0:0:0:0:
264,184,23036,1,8,0:0:0:0:
264,184,23286,1,8,0:0:0:0:
144,144,23411,1,0,0:0:0:0:
264,184,23536,1,8,0:0:0:0:
264,184,23661,1,8,0:0:0:0:
264,184,23786,1,8,0:0:0:0:
264,184,24036,1,0,0:0:0:0:
264,184,24286,1,8,0:0:0:0:
224,184,24536,1,0,0:0:0:0:
264,184,24661,1,8,0:0:0:0:
192,120,24786,1,8,0:0:0:0:
264,184,25036,1,0,0:0:0:0:
264,184,25286,1,8,0:0:0:0:
224,168,25536,1,0,0:0:0:0:
264,184,25661,1,8,0:0:0:0:
192,120,25786,1,8,0:0:0:0:
264,184,26036,1,0,0:0:0:0:
264,184,26286,1,8,0:0:0:0:
264,184,26661,1,8,0:0:0:0:
128,192,26786,1,0,0:0:0:0:
264,184,26911,1,0,0:0:0:0:
264,184,27036,1,8,0:0:0:0:
160,256,27286,1,0,0:0:0:0:
264,184,27411,1,8,0:0:0:0:
88,208,27536,1,8,0:0:0:0:
96,208,27661,1,0,0:0:0:0:
176,136,27786,1,8,0:0:0:0:
152,128,28036,1,0,0:0:0:0:
264,184,28286,1,8,0:0:0:0:
224,176,28536,1,0,0:0:0:0:
264,184,28661,1,8,0:0:0:0:
368,256,28786,1,8,0:0:0:0:
264,184,29036,5,0,0:0:0:0:
264,184,29286,5,8,0:0:0:0:
264,184,29536,1,0,0:0:0:0:
264,184,29661,1,8,0:0:0:0:
264,184,29786,1,8,0:0:0:0:
264,184,30036,1,0,0:0:0:0:
264,184,30286,1,0,0:0:0:0:
264,184,30536,5,8,0:0:0:0:
264,184,30786,1,8,0:0:0:0:
264,184,31036,1,8,0:0:0:0:
264,184,31161,1,8,0:0:0:0:
264,184,31411,1,8,0:0:0:0:
264,184,31536,1,0,0:0:0:0:
264,184,31786,1,12,0:0:0:0:
264,184,32286,1,4,0:0:0:0:
264,184,32536,1,8,0:0:0:0:
264,184,32786,1,0,0:0:0:0:
264,184,33036,1,8,0:0:0:0:
264,184,33161,1,0,0:0:0:0:
264,184,33411,1,8,0:0:0:0:
224,192,33661,1,0,0:0:0:0:
264,184,33786,1,8,0:0:0:0:
264,184,34036,1,0,0:0:0:0:
64,200,34286,1,0,0:0:0:0:
160,168,34411,1,0,0:0:0:0:
264,184,34536,1,8,0:0:0:0:
264,184,34786,1,8,0:0:0:0:
264,184,35036,1,0,0:0:0:0:
248,288,35161,1,8,0:0:0:0:
64,200,35411,1,8,0:0:0:0:
208,224,35536,1,0,0:0:0:0:
72,168,35661,1,0,0:0:0:0:
264,184,35786,1,8,0:0:0:0:
264,184,36286,5,8,0:0:0:0:
264,184,36536,1,0,0:0:0:0:
264,184,36786,1,8,0:0:0:0:
264,184,37036,1,8,0:0:0:0:
264,184,37161,1,0,0:0:0:0:
264,184,37411,1,0,0:0:0:0:
264,184,37661,1,0,0:0:0:0:
264,184,37786,1,8,0:0:0:0:
264,184,38036,1,8,0:0:0:0:
264,184,38286,1,0,0:0:0:0:
264,184,38411,1,0,0:0:0:0:
264,184,38536,1,8,0:0:0:0:
264,184,38786,1,8,0:0:0:0:
232,184,39036,1,8,0:0:0:0:
264,184,39161,1,8,0:0:0:0:
160,176,39286,1,0,0:0:0:0:
232,184,39411,1,8,0:0:0:0:
264,184,39536,1,0,0:0:0:0:
264,184,39786,1,12,0:0:0:0:
264,184,40286,1,4,0:0:0:0:
80,168,40536,1,8,0:0:0:0:
264,184,40786,1,0,0:0:0:0:
160,176,41036,1,8,0:0:0:0:
80,168,41161,1,0,0:0:0:0:
232,232,41286,1,0,0:0:0:0:
0,152,41411,1,8,0:0:0:0:
264,184,41661,1,0,0:0:0:0:
264,184,41786,1,8,0:0:0:0:
264,184,42036,1,8,0:0:0:0:
264,184,42286,1,0,0:0:0:0:
264,184,42536,1,8,0:0:0:0:
264,184,42786,1,8,0:0:0:0:
232,200,43036,1,8,0:0:0:0:
264,184,43161,1,0,0:0:0:0:
264,184,43411,5,8,0:0:0:0:
264,184,43661,1,8,0:0:0:0:
264,184,43786,1,0,0:0:0:0:
224,200,44286,1,8,0:0:0:0:
264,184,44536,1,0,0:0:0:0:
224,200,44786,1,8,0:0:0:0:
184,192,45036,1,8,0:0:0:0:
224,200,45161,1,0,0:0:0:0:
224,200,45411,1,8,0:0:0:0:
224,200,45661,1,8,0:0:0:0:
224,200,45786,1,0,0:0:0:0:
264,184,46036,1,0,0:0:0:0:
264,184,46286,1,8,0:0:0:0:
224,200,46536,1,8,0:0:0:0:
224,200,46786,1,8,0:0:0:0:
264,184,47036,1,0,0:0:0:0:
264,184,47161,1,8,0:0:0:0:
224,200,47286,1,0,0:0:0:0:
264,184,47411,1,8,0:0:0:0:
184,184,47536,1,0,0:0:0:0:
264,184,47786,1,12,0:0:0:0:
360,240,48286,1,12,0:0:0:0:
304,224,48536,1,0,0:0:0:0:
264,296,48786,1,8,0:0:0:0:
264,184,49036,1,0,0:0:0:0:
176,232,49286,1,8,0:0:0:0:
264,184,49411,1,0,0:0:0:0:
264,184,49536,1,0,0:0:0:0:
256,192,49786,1,8,0:0:0:0:
256,192,50036,1,0,0:0:0:0:
256,192,50286,1,8,0:0:0:0:
256,192,50786,1,8,0:0:0:0:
224,288,51036,1,0,0:0:0:0:
256,192,51286,1,8,0:0:0:0:
280,272,51536,1,0,0:0:0:0:
256,192,51786,1,8,0:0:0:0:
280,272,52036,1,0,0:0:0:0:
224,288,52161,1,0,0:0:0:0:
256,192,52286,1,8,0:0:0:0:
256,192,52536,1,0,0:0:0:0:
256,192,52786,1,8,0:0:0:0:
328,232,53286,1,8,0:0:0:0:
248,288,53536,1,0,0:0:0:0:
256,192,53786,1,8,0:0:0:0:
256,192,54036,1,8,0:0:0:0:
128,176,54286,1,0,0:0:0:0:
128,216,54536,1,0,0:0:0:0:
256,192,54661,1,0,0:0:0:0:
256,192,54786,1,8,0:0:0:0:
256,192,55036,1,0,0:0:0:0:
256,192,55161,1,8,0:0:0:0:
256,192,55411,1,8,0:0:0:0:
256,192,55536,1,0,0:0:0:0:
256,192,55786,1,12,0:0:0:0:
256,192,56286,1,12,0:0:0:0:
256,192,56536,1,0,0:0:0:0:
256,224,56661,1,0,0:0:0:0:
256,192,56786,1,8,0:0:0:0:
0,240,57036,1,0,0:0:0:0:
256,192,57286,1,8,0:0:0:0:
256,256,57536,1,0,0:0:0:0:
392,312,57661,1,0,0:0:0:0:
256,192,57786,1,8,0:0:0:0:
224,192,58036,5,0,0:0:0:0:
256,192,58286,1,8,0:0:0:0:
160,144,58411,1,0,0:0:0:0:
256,192,58536,1,0,0:0:0:0:
336,360,58661,1,0,0:0:0:0:
208,232,58786,1,8,0:0:0:0:
144,240,59036,1,0,0:0:0:0:
256,192,59286,1,8,0:0:0:0:
256,192,59536,1,0,0:0:0:0:
336,360,59661,1,0,0:0:0:0:
256,192,59786,1,8,0:0:0:0:
208,232,60036,1,0,0:0:0:0:
256,192,60286,1,8,0:0:0:0:
256,192,60536,1,0,0:0:0:0:
256,192,60786,1,8,0:0:0:0:
336,360,61036,1,0,0:0:0:0:
256,192,61161,1,0,0:0:0:0:
256,192,61286,1,8,0:0:0:0:
256,192,61536,1,0,0:0:0:0:
256,192,61786,1,12,0:0:0:0:
256,192,62286,1,12,0:0:0:0:
256,192,62536,1,4,0:0:0:0:
256,192,62786,1,4,0:0:0:0:
256,192,63036,1,4,0:0:0:0:
256,192,63286,1,4,0:0:0:0:
256,192,63786,5,12,0:0:0:0:
256,192,64286,1,8,0:0:0:0:
256,192,64411,1,0,0:0:0:0:
256,192,64536,1,8,0:0:0:0:
256,192,64786,1,0,0:0:0:0:
256,192,65036,1,0,0:0:0:0:
256,192,65285,1,8,0:0:0:0:
256,192,65411,1,0,0:0:0:0:
256,192,65536,1,8,0:0:0:0:
256,192,65786,1,0,0:0:0:0:
256,192,66036,1,0,0:0:0:0:
256,192,66286,1,8,0:0:0:0:
256,192,66536,1,0,0:0:0:0:
256,192,66661,1,0,0:0:0:0:
256,192,66786,1,8,0:0:0:0:
256,192,67036,1,0,0:0:0:0:
256,192,67286,1,8,0:0:0:0:
256,192,67411,1,0,0:0:0:0:
256,192,67536,1,0,0:0:0:0:
256,192,67786,1,8,0:0:0:0:
256,192,68286,1,8,0:0:0:0:
256,192,68411,1,0,0:0:0:0:
256,192,68536,1,8,0:0:0:0:
256,192,68786,1,0,0:0:0:0:
192,192,68911,1,0,0:0:0:0:
256,192,69036,1,8,0:0:0:0:
256,192,69286,5,8,0:0:0:0:
256,192,69411,1,0,0:0:0:0:
256,192,69536,1,8,0:0:0:0:
256,192,69786,1,0,0:0:0:0:
232,200,69911,1,0,0:0:0:0:
256,192,70036,1,8,0:0:0:0:
256,192,70286,1,0,0:0:0:0:
256,192,70536,1,8,0:0:0:0:
256,192,70786,1,0,0:0:0:0:
256,192,71036,1,8,0:0:0:0:
256,192,71286,1,0,0:0:0:0:
256,192,71536,1,8,0:0:0:0:
256,192,71661,1,8,0:0:0:0:
256,192,71786,1,8,0:0:0:0:
256,192,72286,1,12,0:0:0:0:
256,192,72536,1,0,0:0:0:0:
224,264,72661,1,0,0:0:0:0:
256,192,72786,1,8,0:0:0:0:
256,192,73036,1,8,0:0:0:0:
256,192,73286,1,8,0:0:0:0:
256,192,73411,1,0,0:0:0:0:
256,192,73536,1,8,0:0:0:0:
256,192,73661,1,0,0:0:0:0:
256,192,73786,1,8,0:0:0:0:
256,192,74036,1,0,0:0:0:0:
256,192,74286,1,8,0:0:0:0:
256,192,74411,1,0,0:0:0:0:
256,192,74536,1,8,0:0:0:0:
256,192,74661,1,0,0:0:0:0:
256,192,74786,1,8,0:0:0:0:
256,192,75036,1,0,0:0:0:0:
256,192,75286,1,8,0:0:0:0:
224,176,75411,1,0,0:0:0:0:
256,192,75536,1,8,0:0:0:0:
208,208,75661,1,0,0:0:0:0:
256,192,75786,1,8,0:0:0:0:
256,192,76286,1,8,0:0:0:0:
256,192,76411,1,0,0:0:0:0:
256,192,76536,1,8,0:0:0:0:
256,192,76786,1,0,0:0:0:0:
256,224,76911,1,0,0:0:0:0:
256,192,77036,1,8,0:0:0:0:
256,192,77286,1,8,0:0:0:0:
256,192,77411,1,0,0:0:0:0:
280,232,77536,1,8,0:0:0:0:
256,192,77786,1,0,0:0:0:0:
256,192,77911,1,0,0:0:0:0:
256,192,78036,1,8,0:0:0:0:
280,232,78286,1,8,0:0:0:0:
256,192,78536,5,0,0:0:0:0:
256,192,78786,1,8,0:0:0:0:
256,192,79036,1,0,0:0:0:0:
256,192,79286,1,8,0:0:0:0:
104,136,79411,1,0,0:0:0:0:
184,176,79661,1,0,0:0:0:0:
256,192,79786,1,12,0:0:0:0:
256,192,80286,1,8,0:0:0:0:
256,192,80411,1,0,0:0:0:0:
256,192,80536,1,8,0:0:0:0:
256,192,80786,1,0,0:0:0:0:
256,192,81036,1,0,0:0:0:0:
256,192,81285,1,8,0:0:0:0:
256,192,81411,1,0,0:0:0:0:
256,192,81536,1,8,0:0:0:0:
256,192,81786,1,0,0:0:0:0:
256,192,82036,1,0,0:0:0:0:
256,192,82286,1,8,0:0:0:0:
256,192,82536,1,0,0:0:0:0:
256,192,82661,1,0,0:0:0:0:
256,192,82786,1,8,0:0:0:0:
256,192,83036,1,0,0:0:0:0:
256,192,83286,1,8,0:0:0:0:
256,192,83411,1,0,0:0:0:0:
256,192,83536,1,0,0:0:0:0:
256,192,83786,1,8,0:0:0:0:
256,192,84286,1,8,0:0:0:0:
256,192,84411,1,0,0:0:0:0:
256,192,84536,1,8,0:0:0:0:
256,192,84786,1,0,0:0:0:0:
256,208,84911,1,0,0:0:0:0:
256,192,85036,1,8,0:0:0:0:
256,192,85286,5,8,0:0:0:0:
256,192,85411,1,0,0:0:0:0:
256,192,85536,1,8,0:0:0:0:
256,192,85786,1,0,0:0:0:0:
232,200,85911,1,0,0:0:0:0:
256,192,86036,1,8,0:0:0:0:
256,192,86286,1,0,0:0:0:0:
256,192,86536,1,8,0:0:0:0:
256,192,86786,1,0,0:0:0:0:
256,192,87036,1,8,0:0:0:0:
256,192,87286,1,0,0:0:0:0:
256,192,87536,1,8,0:0:0:0:
256,192,87661,1,8,0:0:0:0:
256,192,87786,1,8,0:0:0:0:
256,192,88286,1,12,0:0:0:0:
256,192,88536,1,0,0:0:0:0:
256,192,88786,1,8,0:0:0:0:
224,264,88911,1,0,0:0:0:0:
256,192,89036,1,8,0:0:0:0:
256,192,89286,1,8,0:0:0:0:
256,192,89411,1,0,0:0:0:0:
256,192,89536,1,8,0:0:0:0:
256,192,89661,1,0,0:0:0:0:
256,192,89786,1,8,0:0:0:0:
256,192,90036,1,0,0:0:0:0:
256,192,90286,1,8,0:0:0:0:
256,192,90411,1,0,0:0:0:0:
256,192,90536,1,8,0:0:0:0:
256,192,90661,1,0,0:0:0:0:
256,192,90786,1,8,0:0:0:0:
256,192,91036,1,0,0:0:0:0:
256,192,91286,1,8,0:0:0:0:
144,168,91411,1,0,0:0:0:0:
256,192,91536,1,8,0:0:0:0:
144,168,91661,1,0,0:0:0:0:
256,192,91786,1,8,0:0:0:0:
256,192,92286,1,8,0:0:0:0:
256,192,92411,1,0,0:0:0:0:
256,192,92536,1,8,0:0:0:0:
256,192,92786,1,0,0:0:0:0:
256,208,92911,1,0,0:0:0:0:
256,192,93036,1,8,0:0:0:0:
256,192,93286,1,8,0:0:0:0:
256,192,93411,1,0,0:0:0:0:
280,232,93536,1,8,0:0:0:0:
256,192,93786,1,0,0:0:0:0:
256,192,93911,1,0,0:0:0:0:
256,192,94036,1,8,0:0:0:0:
280,232,94286,1,8,0:0:0:0:
256,192,94536,5,0,0:0:0:0:
256,192,94786,1,8,0:0:0:0:
256,192,95036,1,0,0:0:0:0:
256,192,95286,1,8,0:0:0:0:
224,200,95411,1,0,0:0:0:0:
256,192,95661,1,0,0:0:0:0:
256,192,95786,1,12,0:0:0:0:
264,184,96286,1,12,0:0:0:0:
224,184,96536,1,0,0:0:0:0:
264,184,96661,1,8,0:0:0:0:
8,240,96786,1,8,0:0:0:0:
264,184,97036,1,0,0:0:0:0:
264,184,97286,1,8,0:0:0:0:
208,120,97536,1,0,0:0:0:0:
264,184,97661,1,8,0:0:0:0:
208,120,97786,5,8,0:0:0:0:
264,184,98036,1,0,0:0:0:0:
264,184,98286,1,8,0:0:0:0:
264,184,98661,1,8,0:0:0:0:
128,192,98786,1,0,0:0:0:0:
264,184,98911,1,0,0:0:0:0:
264,184,99036,1,8,0:0:0:0:
160,256,99286,1,0,0:0:0:0:
264,184,99411,1,8,0:0:0:0:
88,208,99536,1,8,0:0:0:0:
96,208,99661,1,0,0:0:0:0:
176,136,99786,1,8,0:0:0:0:
152,128,100036,1,0,0:0:0:0:
168,200,100286,1,8,0:0:0:0:
216,176,100536,1,0,0:0:0:0:
264,184,100661,1,8,0:0:0:0:
240,176,100786,1,8,0:0:0:0:
264,184,101036,1,0,0:0:0:0:
264,184,101286,1,8,0:0:0:0:
216,176,101536,1,0,0:0:0:0:
264,184,101661,1,8,0:0:0:0:
240,184,101786,1,8,0:0:0:0:
264,184,102036,1,0,0:0:0:0:
264,184,102286,1,8,0:0:0:0:
216,104,102661,1,8,0:0:0:0:
128,192,102786,1,0,0:0:0:0:
264,184,103036,1,8,0:0:0:0:
264,184,103286,1,8,0:0:0:0:
144,144,103411,1,0,0:0:0:0:
264,184,103536,1,8,0:0:0:0:
264,184,103661,1,8,0:0:0:0:
264,184,103786,1,8,0:0:0:0:
264,184,104036,1,0,0:0:0:0:
264,184,104286,1,8,0:0:0:0:
224,184,104536,1,0,0:0:0:0:
264,184,104661,1,8,0:0:0:0:
192,120,104786,1,8,0:0:0:0:
264,184,105036,1,0,0:0:0:0:
264,184,105286,1,8,0:0:0:0:
224,168,105536,1,0,0:0:0:0:
264,184,105661,1,8,0:0:0:0:
192,120,105786,1,8,0:0:0:0:
264,184,106036,1,0,0:0:0:0:
264,184,106286,1,8,0:0:0:0:
264,184,106661,1,8,0:0:0:0:
128,192,106786,1,0,0:0:0:0:
264,184,106911,1,0,0:0:0:0:
264,184,107036,1,8,0:0:0:0:
160,256,107286,1,0,0:0:0:0:
264,184,107411,1,8,0:0:0:0:
88,208,107536,1,8,0:0:0:0:
96,208,107661,1,0,0:0:0:0:
176,136,107786,1,8,0:0:0:0:
152,128,108036,1,0,0:0:0:0:
264,184,108286,1,8,0:0:0:0:
224,176,108536,1,0,0:0:0:0:
264,184,108661,1,8,0:0:0:0:
368,256,108786,1,8,0:0:0:0:
264,184,109036,5,0,0:0:0:0:
264,184,109286,1,8,0:0:0:0:
264,184,109536,1,0,0:0:0:0:
264,184,109661,1,8,0:0:0:0:
264,184,109786,1,8,0:0:0:0:
264,184,110036,1,0,0:0:0:0:
264,184,110286,1,0,0:0:0:0:
160,192,110536,1,8,0:0:0:0:
40,192,110661,1,0,0:0:0:0:
80,136,110786,1,8,0:0:0:0:
184,168,111036,1,8,0:0:0:0:
208,88,111161,1,8,0:0:0:0:
144,144,111286,1,0,0:0:0:0:
112,152,111411,1,8,0:0:0:0:
112,152,111536,1,0,0:0:0:0:
144,216,111786,1,12,0:0:0:0:
