osu file format v10

[General]
AudioFilename: 20 - Soul Phrase.mp3
AudioLeadIn: 1000
PreviewTime: 66719
Countdown: 0
SampleSet: Soft
StackLeniency: 0.7
Mode: 0
LetterboxInBreaks: 0
StoryFireInFront: 0

[Editor]
Bookmarks: 19166,70472,70813,82916
DistanceSpacing: 0.8
BeatDivisor: 4
GridSize: 4

[Metadata]
Title:Soul Phrase
TitleUnicode:
Artist:Shuhei Kita
ArtistUnicode:
Creator:HakuNoKaemi
Version:Orthrus
Source:Persona 3 Portable
Tags:_Kiva [Shalon] Armin Minato Arisato Shin Megami Tensei Shuei Kita Minako Orpheus Telos Thanatos Messiah Nyx Cocytus P3P Original Soundtrack ost game psp
BeatmapID:131344
BeatmapSetID:28856

[Difficulty]
HPDrainRate:2
CircleSize:3
OverallDifficulty:4
ApproachRate:5
SliderMultiplier:1.3
SliderTickRate:1

[Events]
//Background and Video events
0,0,"Bg.jpg"
Video,-1320,"Persona 3 Portable OP.flv"
//Break Periods
//Storyboard Layer 0 (Background)
//Storyboard Layer 1 (Fail)
//Storyboard Layer 2 (Pass)
//Storyboard Layer 3 (Foreground)
//Storyboard Sound Samples
//Background Colour Transformations
3,100,163,162,255

[TimingPoints]
1317,340.909090909091,4,2,0,90,1,0
1317,-100,4,1,2,60,0,0
23136,-100,4,2,2,90,0,0
28589,-95.2380952380952,4,2,2,90,0,0
33192,-100,4,2,1,90,0,0
33532,-100,4,2,2,90,0,0
34128,-100,4,2,1,90,0,0
44612,-100,4,2,2,90,0,0
55861,-100,4,2,0,90,0,0
56544,-100,4,1,1,60,0,0
58589,-100,4,2,0,90,0,0
58760,-100,4,1,1,60,0,0
62339,-100,4,2,0,90,0,0
62765,-100,4,1,1,60,0,0
66771,-100,4,1,2,80,0,1
89782,-100,4,1,2,50,0,0

[Colours]
Combo1 : 209,80,92
Combo2 : 60,108,221
Combo3 : 255,128,64
Combo4 : 33,18,222
Combo5 : 219,222,103
SliderBorder : 92,84,106

[HitObjects]
176,88,635,1,0,0:0:0
256,24,976,1,2,0:0:0
336,88,1317,1,4,0:0:0
336,88,1487,1,0,0:0:0
304,184,1828,1,0,0:0:0
304,184,1998,1,8,0:0:0
200,184,2339,1,2,0:0:0
200,184,2510,1,2,0:0:0
160,280,2851,1,0,0:0:0
160,280,3021,2,0,B|178:346|254:388|339:349|351:277,1,260,0|4,0:0|0:0,0:0:0
432,212,4044,6,0,B|456:188|456:148,1,65
392,64,4555,2,0,B|360:80|344:108,1,65,0|8,0:0|0:0,0:0:0
256,48,5067,1,2,0:0:0
256,48,5237,1,0,0:0:0
168,108,5578,2,0,B|152:80|120:64,1,65,0|2,0:0|0:0,0:0:0
56,148,6089,2,0,B|56:188|80:212,2,65,12|0|2,0:0|0:0|0:0,0:0:0
16,48,6771,5,6,0:0:0
168,104,7282,1,2,0:0:0
168,104,7453,1,8,0:0:0
256,48,7794,1,0,0:0:0
256,48,7964,1,2,0:0:0
344,104,8305,1,2,0:0:0
344,104,8476,1,2,0:0:0
352,208,8817,2,0,B|334:274|258:316|173:277|161:205,1,260,8|4,0:0|0:0,0:0:0
117,236,9669,5,0,0:0:0
148,335,10010,2,0,B|179:361|222:363,1,65,0|8,0:0|0:0,0:0:0
305,361,10521,2,0,B|333:361|364:335,1,65,2|0,0:0|0:0,0:0:0
395,236,11032,1,0,0:0:0
395,236,11203,1,2,0:0:0
312,168,11544,6,0,B|288:192|256:200|256:200|224:192|200:168,1,130,12|0,0:0|0:0,0:0:0
256,80,12226,1,4,0:0:0
104,48,12737,6,0,B|48:96|48:96,1,65,0|0,0:0|0:0,0:0:0
88,192,13248,2,0,B|160:192|160:192,1,65
54,293,13760,2,0,B|104:336,1,65,0|2,0:0|0:0,0:0:0
208,312,14271,2,0,B|217:345|255:366|298:346|304:310,1,130,8|4,0:0|0:0,0:0:0
408,335,14953,6,0,B|458:293,1,65,0|2,0:0|0:0,0:0:0
359,192,15464,2,0,B|352:192|424:192,1,65,0|8,0:0|0:0,0:0:0
457,90,15976,2,0,B|464:96|412:44,1,65,2|0,0:0|0:0,0:0:0
315,73,16487,2,0,B|280:64|256:48|256:48|232:64|196:72,1,130,2|4,0:0|0:0,0:0:0
200,128,16998,6,0,B|216:152|256:160|256:160|288:152|312:128,1,130,8|0,0:0|0:0,0:0:0
384,200,17680,1,2,0:0:0
304,272,18021,1,0,0:0:0
256,288,18191,1,0,0:0:0
208,272,18362,1,8,0:0:0
128,200,18703,1,2,0:0:0
128,200,18873,1,0,0:0:0
120,304,19214,6,0,B|128:344|168:360|168:360,1,65,0|2,0:0|0:0,0:0:0
256,384,19726,1,8,0:0:0
355,354,20066,2,0,B|384:344|392:304,2,65,0|0|4,0:0|0:0|0:0,0:0:0
256,192,20493,8,0,22453,0:0:0
200,52,23135,6,0,B|167:103|216:184|310:177|358:103|311:41|311:41,1,260,0|0,0:0|0:0,0:0:0
416,88,24157,2,0,B|368:232,1,130,0|2,0:0|0:0,0:0:0
304,288,24839,1,0,0:0:0
256,272,25010,1,0,0:0:0
208,288,25180,1,2,0:0:0
137,211,25521,2,0,B|96:88,1,130,10|0,0:0|0:0,0:0:0
64,288,26544,5,2,0:0:0
136,368,26885,1,0,0:0:0
208,288,27226,2,4,B|224:288|224:288|240:272|240:272|256:296|256:296|272:272|272:272|288:288|288:288|304:288,1,130,2|0,0:0|0:0,0:0:0
376,360,27907,1,10,0:0:0
448,288,28248,1,0,0:0:0
368,220,28589,2,4,B|424:104|356:4|256:-24|156:4|92:104|140:216,1,545.999998372793,10|2,0:0|0:0,0:0:0
256,152,30294,5,0,0:0:0
256,264,30635,1,2,0:0:0
200,352,30976,1,8,0:0:0
256,368,31146,1,0,0:0:0
312,352,31316,1,2,0:0:0
352,248,31657,6,4,B|392:176|344:104,1,136.499999593198,2|0,0:0|0:0,0:0:0
256,64,32339,1,0,0:0:0
159,117,32680,2,0,B|120:176|160:248,1,136.499999593198,2|0,0:0|0:0,0:0:0
256,288,33362,1,8,0:0:0
464,312,34044,6,4,B|376:192|472:64,1,260,0|8,0:0|0:0,0:0:0
256,64,35407,2,4,B|256:344|256:344,1,260,0|8,0:0|0:0,0:0:0
48,312,36771,2,4,B|136:192|40:64,1,260,0|8,0:0|0:0,0:0:0
312,32,38135,6,4,B|345:83|296:164|202:157|154:83|201:21|201:21,1,260,0|8,0:0|0:0,0:0:0
142,233,39498,2,4,B|171:291|320:310|374:226,2,260,0|8|0,0:0|0:0|0:0,0:0:0
144,344,41203,5,0,0:0:0
256,376,41544,1,8,0:0:0
368,344,41885,1,2,0:0:0
256,168,42566,1,2,0:0:0
184,96,42907,1,8,0:0:0
256,24,43248,1,0,0:0:0
328,96,43589,1,2,0:0:0
160,224,44271,6,0,B|193:233|214:271|194:314|158:320,1,130,8|0,0:0|0:0,0:0:0
256,360,44953,1,2,0:0:0
351,319,45294,2,0,B|318:314|298:271|319:233|352:224,1,130,0|4,0:0|0:0,0:0:0
456,48,46316,5,8,0:0:0
456,152,46657,1,2,0:0:0
368,96,46998,1,4,0:0:0
144,96,47680,1,8,0:0:0
56,152,48021,1,2,0:0:0
56,48,48362,1,4,0:0:0
256,168,49044,5,8,0:0:0
344,232,49385,1,2,0:0:0
308,328,49726,1,4,0:0:0
204,328,50066,1,2,0:0:0
168,232,50407,1,8,0:0:0
256,44,51089,5,4,0:0:0
432,152,51771,1,8,0:0:0
360,344,52453,1,4,0:0:0
152,344,53135,1,8,0:0:0
80,152,53816,1,4,0:0:0
256,196,54498,5,8,0:0:0
256,192,54584,12,4,55862,0:0:0
256,44,56544,5,8,0:0:0
256,44,56714,1,0,0:0:0
175,112,57055,2,4,B|200:148|254:168|310:155|343:108,1,195,8|0,0:0|0:0,0:0:0
364,212,57907,1,8,0:0:0
256,248,58248,1,0,0:0:0
148,212,58589,1,2,0:0:0
320,356,59271,6,8,B|256:376|256:376|192:356,1,130,8|8,0:0|0:0,0:0:0
148,260,59953,2,8,B|148:192|148:192|192:120,1,130,0|0,0:0|0:0,0:0:0
256,68,60635,1,8,0:0:0
331,139,60976,2,4,B|364:192|364:192|364:260,1,130,0|8,0:0|0:0,0:0:0
428,60,61998,5,4,0:0:0
256,192,62680,1,6,0:0:0
256,88,63021,5,8,0:0:0
348,136,63362,1,8,0:0:0
348,240,63703,1,8,0:0:0
256,288,64044,1,8,0:0:0
256,288,64214,1,10,0:0:0
164,240,64555,1,8,0:0:0
164,240,64726,1,2,0:0:0
164,136,65066,1,8,0:0:0
164,136,65237,1,6,0:0:0
164,136,65407,5,8,0:0:0
256,288,65919,1,4,0:0:0
348,136,66430,1,0,0:0:0
304,44,66771,6,4,B|296:76|256:100|216:76|208:44,1,130,4|8,0:0|0:0,0:0:0
168,140,67453,2,4,B|196:168|256:184|316:168|348:136,2,195,0|2|8,0:0|0:0|0:0,0:0:0
132,236,68816,1,2,0:0:0
256,332,69328,1,2,0:0:0
380,236,69839,1,8,0:0:0
448,156,70180,5,2,0:0:0
336,60,70691,2,0,B|300:60|272:48|272:48|256:20|256:20|240:48|240:48|212:60|176:60,1,195,0|10,0:0|0:0,0:0:0
256,128,71544,5,0,0:0:0
64,156,72226,1,0,0:0:0
108,252,72567,1,8,0:0:0
64,156,72907,1,0,0:0:0
200,352,73589,6,4,B|167:301|216:220|310:227|358:301|311:363|311:363,1,260,2|0,0:0|0:0,0:0:0
144,232,74953,2,4,B|188:160|324:160|368:232,1,260,2|0,0:0|0:0,0:0:0
424,144,75976,2,0,B|380:96|312:84,1,130
200,84,76657,1,0,0:0:0
200,84,76828,2,0,B|131:96|87:144,1,130
87,144,77339,1,0,0:0:0
164,216,77680,5,0,0:0:0
256,168,78021,1,8,0:0:0
348,216,78362,1,0,0:0:0
336,360,78873,2,0,B|296:372|272:344|256:320|256:320|240:344|216:372|176:360,1,195,0|8,0:0|0:0,0:0:0
84,316,79726,5,0,0:0:0
168,184,80237,2,0,B|176:100|224:84|256:52|256:52|288:84|336:100|344:184,1,325,2|2,0:0|0:0,0:0:0
428,316,81601,1,0,0:0:0
256,157,82453,5,0,0:0:0
193,76,82794,2,0,B|259:28|326:80|326:80,2,130,8|0|8,0:0|0:0|0:0,0:0:0
160,180,83817,2,0,B|178:246|254:288|339:249|351:177,1,260,2|2,0:0|0:0,0:0:0
456,360,85180,5,0,0:0:0
440,257,85521,1,8,0:0:0
360,328,85862,1,8,0:0:0
256,200,86373,5,8,0:0:0
304,112,86714,1,0,0:0:0
208,112,87055,1,8,0:0:0
56,360,87907,5,8,0:0:0
72,257,88248,1,0,0:0:0
152,328,88589,1,8,0:0:0
256,192,88674,8,8,89782,0:0:0
