osu file format v10

[General]
AudioFilename: 20 - Soul Phrase.mp3
AudioLeadIn: 1000
PreviewTime: 66719
Countdown: 0
SampleSet: Normal
StackLeniency: 0.7
Mode: 1
LetterboxInBreaks: 0
StoryFireInFront: 0

[Editor]
DistanceSpacing: 0
BeatDivisor: 4
GridSize: 4

[Metadata]
Title:Soul Phrase
TitleUnicode:
Artist:Shuhei Kita
ArtistUnicode:
Creator:HakuNoKaemi
Version:Nyx Taiko
Source:Persona 3 Portable
Tags:_Kiva [Shalon] Armin Minato Arisato Shin Megami Tensei Shuei Kita Minako Orpheus Telos Thanatos Messiah Nyx Cocytus P3P Original Soundtrack ost game psp
BeatmapID:131343
BeatmapSetID:28856

[Difficulty]
HPDrainRate:5
CircleSize:5
OverallDifficulty:5
ApproachRate:5
SliderMultiplier:1.4
SliderTickRate:1

[Events]
//Background and Video events
0,0,"TaikoBg.jpg"
Video,-1380,"Persona 3 Portable OP.flv"
//Break Periods
//Storyboard Layer 0 (Background)
//Storyboard Layer 1 (Fail)
//Storyboard Layer 2 (Pass)
//Storyboard Layer 3 (Foreground)
//Storyboard Sound Samples
//Background Colour Transformations
3,100,163,162,255

[TimingPoints]
1317,340.909090909091,4,1,2,60,1,0
66771,-100,4,1,2,80,0,1
89782,-100,4,1,2,60,0,0

[HitObjects]
256,192,1317,1,0,0:0:0
256,192,1487,1,0,0:0:0
256,192,1828,1,0,0:0:0
256,192,1998,1,2,0:0:0
256,192,2339,1,0,0:0:0
256,192,2510,1,0,0:0:0
256,192,2851,1,0,0:0:0
256,192,3192,1,0,0:0:0
256,192,3362,1,6,0:0:0
256,192,4044,1,0,0:0:0
256,192,4214,1,0,0:0:0
256,192,4555,1,0,0:0:0
256,192,4726,1,2,0:0:0
256,192,5067,1,0,0:0:0
256,192,5237,1,0,0:0:0
256,192,5578,1,0,0:0:0
256,192,5919,1,0,0:0:0
256,192,6089,1,4,0:0:0
256,192,6771,1,0,0:0:0
256,192,6942,1,0,0:0:0
256,192,7282,1,0,0:0:0
256,192,7453,1,2,0:0:0
256,192,7794,1,0,0:0:0
256,192,7964,1,0,0:0:0
256,192,8305,1,0,0:0:0
256,192,8646,1,0,0:0:0
256,192,8817,1,6,0:0:0
256,192,9498,1,0,0:0:0
256,192,9669,1,0,0:0:0
256,192,10010,1,0,0:0:0
256,192,10180,1,2,0:0:0
256,192,10521,1,0,0:0:0
256,192,10691,1,0,0:0:0
256,192,11032,1,0,0:0:0
256,192,11373,1,0,0:0:0
256,192,11544,1,4,0:0:0
256,192,12226,1,0,0:0:0
256,192,12396,1,0,0:0:0
256,192,12737,1,0,0:0:0
256,192,12907,1,2,0:0:0
256,192,13248,1,0,0:0:0
256,192,13419,1,0,0:0:0
256,192,13760,1,0,0:0:0
256,192,14101,1,0,0:0:0
256,192,14271,1,6,0:0:0
256,192,14953,1,0,0:0:0
256,192,15123,1,0,0:0:0
256,192,15464,1,0,0:0:0
256,192,15635,1,2,0:0:0
256,192,15976,1,0,0:0:0
256,192,16146,1,0,0:0:0
256,192,16487,1,0,0:0:0
256,192,16828,1,0,0:0:0
256,192,16998,1,4,0:0:0
256,192,17680,1,0,0:0:0
256,192,17851,1,0,0:0:0
256,192,18191,1,0,0:0:0
256,192,18362,1,2,0:0:0
256,192,18703,1,0,0:0:0
256,192,18873,1,0,0:0:0
256,192,19214,1,0,0:0:0
256,192,19555,1,0,0:0:0
256,192,19726,1,6,0:0:0
256,192,20237,1,0,0:0:0
256,192,20407,1,4,0:0:0
256,192,21601,1,0,0:0:0
256,192,21771,1,0,0:0:0
256,192,21941,1,6,0:0:0
256,192,22282,1,0,0:0:0
256,192,22453,1,6,0:0:0
256,192,22794,1,8,0:0:0
256,192,22964,1,0,0:0:0
256,192,23816,1,2,0:0:0
256,192,24498,1,2,0:0:0
256,192,25180,1,2,0:0:0
256,192,25521,1,2,0:0:0
256,192,25691,1,2,0:0:0
256,192,26203,1,0,0:0:0
256,192,26544,1,2,0:0:0
256,192,27226,1,2,0:0:0
256,192,27396,1,0,0:0:0
256,192,27907,1,2,0:0:0
256,192,28589,1,0,0:0:0
256,192,29271,1,2,0:0:0
256,192,29953,1,2,0:0:0
256,192,30635,1,2,0:0:0
256,192,30976,1,0,0:0:0
256,192,31146,1,0,0:0:0
256,192,31316,1,8,0:0:0
256,192,31657,1,0,0:0:0
256,192,31828,1,8,0:0:0
256,192,31998,1,2,0:0:0
256,192,32169,1,8,0:0:0
256,192,32510,1,0,0:0:0
256,192,32680,1,2,0:0:0
256,192,33191,1,0,0:0:0
256,192,33362,1,2,0:0:0
256,192,33703,1,0,0:0:0
256,192,34044,1,0,0:0:0
256,192,34385,1,0,0:0:0
256,192,34555,1,0,0:0:0
256,192,34726,1,2,0:0:0
256,192,35066,1,0,0:0:0
256,192,35407,1,2,0:0:0
256,192,35578,1,0,0:0:0
256,192,36089,1,2,0:0:0
256,192,36430,1,0,0:0:0
256,192,36601,1,0,0:0:0
256,192,36771,1,0,0:0:0
256,192,37112,1,0,0:0:0
256,192,37453,1,2,0:0:0
256,192,37794,1,0,0:0:0
256,192,37964,1,0,0:0:0
256,192,38305,1,2,0:0:0
256,192,38646,1,0,0:0:0
256,192,38816,1,2,0:0:0
256,192,39157,1,0,0:0:0
256,192,39498,1,2,0:0:0
256,192,40180,1,2,0:0:0
256,192,40521,1,0,0:0:0
256,192,40862,1,0,0:0:0
256,192,41032,1,0,0:0:0
256,192,41203,1,2,0:0:0
256,192,41544,1,2,0:0:0
256,192,41885,1,0,0:0:0
256,192,42226,1,2,0:0:0
256,192,42566,1,0,0:0:0
256,192,42907,1,2,0:0:0
256,192,43248,1,0,0:0:0
256,192,43419,1,0,0:0:0
256,192,43589,1,2,0:0:0
256,192,43760,1,0,0:0:0
256,192,44271,1,2,0:0:0
256,192,44612,1,0,0:0:0
256,192,44953,1,0,0:0:0
256,192,45294,1,0,0:0:0
256,192,45635,1,2,0:0:0
256,192,46316,1,0,0:0:0
256,192,46657,1,0,0:0:0
256,192,46828,1,0,0:0:0
256,192,46998,1,2,0:0:0
256,192,47339,1,0,0:0:0
256,192,47680,1,0,0:0:0
256,192,48021,1,0,0:0:0
256,192,48191,1,0,0:0:0
256,192,48362,1,2,0:0:0
256,192,48703,1,0,0:0:0
256,192,49044,1,0,0:0:0
256,192,49726,1,2,0:0:0
256,192,50407,1,0,0:0:0
256,192,51089,1,2,0:0:0
256,192,51430,1,0,0:0:0
256,192,51771,1,0,0:0:0
256,192,52112,1,0,0:0:0
256,192,52453,1,2,0:0:0
256,192,53135,1,0,0:0:0
256,192,53476,1,0,0:0:0
256,192,53816,1,2,0:0:0
256,192,54498,1,0,0:0:0
256,192,55180,1,2,0:0:0
256,192,55521,1,0,0:0:0
256,192,55862,1,0,0:0:0
256,192,56544,1,2,0:0:0
256,192,57226,1,0,0:0:0
256,192,57396,1,2,0:0:0
256,192,57566,1,0,0:0:0
256,192,57907,1,2,0:0:0
256,192,58419,1,0,0:0:0
256,192,58589,1,0,0:0:0
256,192,58930,1,0,0:0:0
256,192,59271,1,2,0:0:0
256,192,59612,1,0,0:0:0
256,192,59953,1,0,0:0:0
256,192,60123,1,2,0:0:0
256,192,60635,1,0,0:0:0
256,192,60805,1,0,0:0:0
256,192,60976,1,2,0:0:0
256,192,61316,1,0,0:0:0
256,192,61487,1,2,0:0:0
256,192,61828,1,0,0:0:0
256,192,61998,1,2,0:0:0
256,192,62169,1,0,0:0:0
256,192,62339,1,0,0:0:0
256,192,62510,1,0,0:0:0
256,192,62680,1,2,0:0:0
256,192,62851,1,0,0:0:0
256,192,63021,1,2,0:0:0
256,192,63191,1,0,0:0:0
256,192,63362,1,2,0:0:0
256,192,63703,1,0,0:0:0
256,192,64044,1,4,0:0:0
256,192,64214,1,4,0:0:0
256,192,64555,1,4,0:0:0
256,192,64726,1,12,0:0:0
256,192,65066,1,4,0:0:0
256,192,65237,1,4,0:0:0
256,192,65578,1,0,0:0:0
256,192,65919,1,0,0:0:0
256,192,66089,1,4,0:0:0
256,192,66430,1,4,0:0:0
256,192,66771,1,0,0:0:0
256,192,66941,1,0,0:0:0
256,192,67112,1,2,0:0:0
256,192,67453,1,0,0:0:0
256,192,67623,1,0,0:0:0
256,192,67794,1,2,0:0:0
256,192,68135,1,0,0:0:0
256,192,68476,1,2,0:0:0
256,192,68816,1,0,0:0:0
256,192,68902,1,0,0:0:0
256,192,68987,1,0,0:0:0
256,192,69157,1,2,0:0:0
256,192,69328,1,0,0:0:0
256,192,69669,1,0,0:0:0
256,192,69839,1,2,0:0:0
256,192,70180,1,0,0:0:0
256,192,70351,1,0,0:0:0
256,192,70521,1,2,0:0:0
256,192,70862,1,0,0:0:0
256,192,71032,1,0,0:0:0
256,192,71118,1,0,0:0:0
256,192,71203,1,2,0:0:0
256,192,71373,1,0,0:0:0
256,192,71544,1,0,0:0:0
256,192,71714,1,0,0:0:0
256,192,71885,1,2,0:0:0
256,192,72226,1,0,0:0:0
256,192,72567,1,2,0:0:0
256,192,72907,1,0,0:0:0
256,192,73078,1,0,0:0:0
256,192,73248,1,2,0:0:0
256,192,73589,1,0,0:0:0
256,192,73674,1,0,0:0:0
256,192,73760,1,2,0:0:0
256,192,73930,1,0,0:0:0
256,192,74101,1,2,0:0:0
256,192,74271,1,0,0:0:0
256,192,74356,1,0,0:0:0
256,192,74442,1,2,0:0:0
256,192,74612,1,0,0:0:0
256,192,74782,1,2,0:0:0
256,192,74953,1,0,0:0:0
256,192,75294,1,2,0:0:0
256,192,75635,1,0,0:0:0
256,192,75805,1,0,0:0:0
256,192,75976,1,2,0:0:0
256,192,76317,1,2,0:0:0
256,192,76487,1,0,0:0:0
256,192,76657,1,0,0:0:0
256,192,76828,1,2,0:0:0
256,192,76998,1,0,0:0:0
256,192,77169,1,2,0:0:0
256,192,77339,1,0,0:0:0
256,192,77680,1,0,0:0:0
256,192,78021,1,2,0:0:0
256,192,78362,1,0,0:0:0
256,192,78532,1,0,0:0:0
256,192,78703,1,2,0:0:0
256,192,79044,1,0,0:0:0
256,192,79129,1,0,0:0:0
256,192,79214,1,0,0:0:0
256,192,79385,1,2,0:0:0
256,192,79555,1,0,0:0:0
256,192,79896,1,0,0:0:0
256,192,80067,1,2,0:0:0
256,192,80407,1,0,0:0:0
256,192,80578,1,0,0:0:0
256,192,80748,1,2,0:0:0
256,192,81089,1,0,0:0:0
256,192,81260,1,0,0:0:0
256,192,81430,1,2,0:0:0
256,192,81771,1,0,0:0:0
256,192,81942,1,0,0:0:0
256,192,82027,1,0,0:0:0
256,192,82112,1,2,0:0:0
256,192,82282,1,0,0:0:0
256,192,82623,1,0,0:0:0
256,192,82794,1,2,0:0:0
256,192,83135,1,0,0:0:0
256,192,83476,1,2,0:0:0
256,192,83817,1,0,0:0:0
256,192,83987,1,0,0:0:0
256,192,84157,1,2,0:0:0
256,192,84498,1,0,0:0:0
256,192,84584,1,0,0:0:0
256,192,84669,1,0,0:0:0
256,192,84839,1,2,0:0:0
256,192,85180,1,0,0:0:0
256,192,85351,1,0,0:0:0
256,192,85521,1,2,0:0:0
256,192,85862,1,6,0:0:0
256,192,86373,1,6,0:0:0
256,192,86885,1,6,0:0:0
256,192,87567,1,2,0:0:0
256,192,87737,1,0,0:0:0
256,192,87907,1,2,0:0:0
256,192,88078,1,0,0:0:0
256,192,88589,1,4,0:0:0
256,192,88760,1,4,0:0:0
256,192,89101,1,4,0:0:0
256,192,89271,1,4,0:0:0
256,192,89612,1,4,0:0:0
256,192,89782,1,4,0:0:0
