osu file format v10

[General]
AudioFilename: 20 - Soul Phrase.mp3
AudioLeadIn: 1000
PreviewTime: 66719
Countdown: 0
SampleSet: Soft
StackLeniency: 0.7
Mode: 0
LetterboxInBreaks: 0
StoryFireInFront: 0

[Editor]
Bookmarks: 9958,20356,78865
DistanceSpacing: 0.8
BeatDivisor: 4
GridSize: 4

[Metadata]
Title:Soul Phrase
TitleUnicode:
Artist:Shuhei Kita
ArtistUnicode:
Creator:HakuNoKaemi
Version:Asura
Source:Persona 3 Portable
Tags:_Kiva [Shalon] Armin Minato Arisato Shin Megami Tensei Shuei Kita Minako Orpheus Telos Thanatos Messiah Nyx Cocytus P3P Original Soundtrack ost game psp
BeatmapID:127281
BeatmapSetID:28856

[Difficulty]
HPDrainRate:7
CircleSize:4
OverallDifficulty:7
ApproachRate:8
SliderMultiplier:1.4
SliderTickRate:2

[Events]
//Background and Video events
0,0,"Bg.jpg"
Video,-1380,"Persona 3 Portable OP.flv"
//Break Periods
//Storyboard Layer 0 (Background)
//Storyboard Layer 1 (Fail)
//Storyboard Layer 2 (Pass)
//Storyboard Layer 3 (Foreground)
//Storyboard Sound Samples
//Background Colour Transformations
3,100,163,162,255

[TimingPoints]
1317,340.909090909091,4,2,0,90,1,0
1317,-100,4,1,2,60,0,0
5834,-100,4,2,0,60,0,0
6005,-100,4,1,2,60,0,0
8136,-100,4,2,0,90,0,0
8305,-100,4,1,2,60,0,0
8476,-100,4,2,0,90,0,0
8817,-100,4,1,2,60,0,0
23050,-100,4,2,0,90,0,0
23135,-200,4,2,2,90,0,0
27226,-200,4,2,2,90,0,0
33277,-200,4,2,1,90,0,0
33533,-200,4,2,2,90,0,0
34129,-100,4,2,1,90,0,0
35237,-100,4,2,2,90,0,0
36089,-100,4,2,1,90,0,0
36600,-100,4,2,2,90,0,0
37453,-100,4,2,1,90,0,0
37794,-100,4,2,2,90,0,0
38816,-100,4,2,1,90,0,0
38902,-100,4,2,2,90,0,0
39157,-100,4,2,2,90,0,0
40180,-100,4,2,1,90,0,0
41373,-100,4,2,2,90,0,0
41459,-100,4,2,1,90,0,0
41885,-200,4,2,2,90,0,0
42567,-133.333333333333,4,2,2,90,0,0
42823,-133.333333333333,4,2,1,90,0,0
43248,-133.333333333333,4,2,2,90,0,0
44271,-100,4,2,1,90,0,0
44613,-100,4,2,2,90,0,0
47680,-133.333333333333,4,2,2,90,0,0
50407,-200,4,2,2,90,0,0
52794,-133.333333333333,4,2,2,90,0,0
56544,-100,4,2,2,90,0,0
56885,-100,4,1,1,60,0,0
62765,-100,4,1,1,60,0,0
63021,-200,4,1,1,60,0,0
63361,-100,4,1,1,60,0,0
64129,-100,4,2,2,90,0,0
64470,-100,4,1,1,60,0,0
64640,-100,4,2,2,90,0,0
64981,-100,4,1,1,60,0,0
65151,-100,4,2,2,90,0,0
65406,-100,4,1,1,60,0,0
66771,-100,4,1,2,80,0,1
76402,-100,4,2,2,100,0,1
77169,-100,4,1,2,80,0,1
87225,-117.647058823529,4,1,2,80,0,1
87396,-100,4,2,2,100,0,1
87906,-100,4,1,2,80,0,1
89782,-100,4,1,2,60,0,0

[Colours]
Combo1 : 209,80,92
Combo2 : 60,108,221
Combo3 : 255,128,64
Combo4 : 33,18,222
Combo5 : 219,222,103
SliderBorder : 92,84,106

[HitObjects]
256,88,635,1,2,0:0:0
256,88,805,1,0,0:0:0
256,88,976,2,0,B|236:128|276:184|256:228,1,140,0|4,0:0|0:0,0:0:0
256,224,1487,1,0,0:0:0
148,272,1828,2,0,B|92:288|60:248,1,70,2|0,0:0|0:0,0:0:0
364,272,2339,2,0,B|420:288|452:248,1,70,0|2,0:0|0:0,0:0:0
252,228,2851,2,0,B|228:180|276:180|244:140,1,70
256,104,3192,1,0,0:0:0
256,48,3362,1,8,0:0:0
256,160,3703,1,4,0:0:0
152,224,4044,6,0,B|104:288,1,70,2|0,0:0|0:0,0:0:0
360,224,4555,2,0,B|408:288,1,70,0|8,0:0|0:0,0:0:0
165,122,5067,1,0,0:0:0
165,122,5237,6,0,B|206:59|288:77,1,140,2|0,0:0|0:0,0:0:0
288,77,5748,2,0,B|325:90|343:121,2,70,0|4|8,0:0|0:0|0:0,0:0:0
256,296,6430,1,2,0:0:0
376,240,6771,6,0,B|312:192,1,70,4|0,0:0|0:0,0:0:0
172,312,7282,2,0,B|192:220,1,70,0|8,0:0|0:0,0:0:0
256,104,7794,1,0,0:0:0
256,48,7964,1,2,0:0:0
256,160,8305,2,0,B|240:192|256:228|256:228|272:268|256:300,1,140,0|2,0:0|0:0,0:0:0
257,296,8817,1,8,0:0:0
148,316,9157,1,0,0:0:0
72,232,9498,6,0,B|100:200|136:200,1,70,4|0,0:0|0:0,0:0:0
244,188,10010,2,0,B|284:184|316:148,1,70
228,76,10521,1,0,0:0:0
228,76,10691,1,2,0:0:0
340,60,11032,1,0,0:0:0
228,76,11373,1,0,0:0:0
200,84,11459,1,0,0:0:0
176,96,11544,2,0,B|132:156|152:228,1,140,12|0,0:0|0:0,0:0:0
260,264,12226,6,0,B|296:260|320:232,1,70,4|0,0:0|0:0,0:0:0
212,264,12737,2,0,B|176:260|152:232,1,70,0|10,0:0|0:0,0:0:0
156,176,13078,1,0,0:0:0
188,128,13248,2,0,B|200:92|180:48,1,70,0|2,0:0|0:0,0:0:0
84,104,13760,1,0,0:0:0
52,152,13930,2,0,B|36:192|64:232,1,70
96,260,14271,1,8,0:0:0
296,340,14612,1,4,0:0:0
256,176,14953,6,0,B|292:180|320:152,1,70
348,104,15294,1,2,0:0:0
428,180,15635,1,0,0:0:0
376,196,15805,2,0,B|340:208|320:244,1,70
268,256,16146,2,0,B|228:264|200:236,1,70
172,192,16487,1,8,0:0:0
184,84,16828,2,0,B|168:52|184:16,1,70,4|8,0:0|0:0,0:0:0
292,44,17339,1,0,0:0:0
256,152,17680,5,2,0:0:0
212,184,17851,1,0,0:0:0
156,184,18021,1,0,0:0:0
76,108,18362,1,8,0:0:0
104,156,18532,1,0,0:0:0
104,156,18703,2,0,B|64:236|112:292,1,140
108,288,19214,1,0,0:0:0
256,208,19555,1,0,0:0:0
256,208,19726,1,8,0:0:0
256,320,20066,1,0,0:0:0
176,244,20407,6,0,B|156:212|168:172,1,70,4|0,0:0|0:0,0:0:0
244,96,20919,1,0,0:0:0
296,112,21089,1,0,0:0:0
352,88,21260,1,0,0:3:0
400,116,21430,2,0,B|449:172|416:247,1,140
388,296,21941,1,8,0:0:0
304,368,22282,1,0,0:0:0
268,324,22453,1,8,0:0:0
260,268,22623,1,0,0:0:0
268,240,22709,1,0,0:0:0
288,220,22794,2,0,B|276:196|296:164|280:140,1,70,0|8,0:0|0:0,0:0:0
280,146,23135,1,8,0:0:0
137,228,23816,6,0,B|152:208|136:192|144:160,1,70
260,108,24498,1,0,0:0:0
374,228,24839,2,0,B|360:208|376:192|368:160,2,70,0|0|8,0:0|0:0|0:0,0:0:0
376,232,25691,1,8,0:0:0
380,236,25862,1,0,0:0:0
424,160,26203,6,0,B|392:172|352:156,2,70
264,88,27226,2,0,B|216:96|192:88,1,70,2|0,0:0|0:0,0:0:0
264,88,27907,2,0,B|312:80|336:88,1,70,2|0,0:0|0:0,0:0:0
264,88,28589,6,0,B|244:128|256:156|268:184|248:224,1,140,0|10,0:0|0:0,0:0:0
308,284,29612,1,8,0:0:0
256,352,29953,1,8,0:0:0
200,288,30294,1,2,0:0:0
200,288,30635,6,0,B|176:256|136:244,1,70,8|0,0:0|0:0,0:0:0
196,180,31316,2,0,B|208:212|256:232,1,70
272,148,31998,6,0,B|308:132|348:144,1,70,8|0,0:0|0:0,0:0:0
280,84,32680,2,0,B|248:104|212:96,1,70
232,20,33362,1,8,0:0:0
192,20,33532,1,8,0:0:0
156,44,33703,1,8,0:0:0
256,160,34044,1,0,0:0:0
64,280,34726,6,0,B|104:304|224:280,1,140,8|0,0:0|0:0,0:0:0
204,288,35237,1,8,0:0:0
256,184,35578,1,8,0:0:0
256,240,35748,1,8,0:0:0
448,280,36089,6,0,B|392:312|288:280,1,140,8|0,0:0|0:0,0:0:0
308,288,36601,1,8,0:0:0
304,292,36771,1,0,0:0:0
388,136,37112,1,8,0:0:0
448,272,37453,2,0,B|356:300|301:275|256:208,1,210,8|8,0:0|0:0,0:0:0
232,140,38135,1,8,0:0:0
344,228,38476,1,8,0:0:0
260,213,38816,6,0,B|184:304|72:280,1,210,8|8,0:0|0:0,0:0:0
72,280,39498,2,0,B|40:312|-8:320,2,70,0|8|8,0:0|0:0|0:0,0:0:0
104,112,40180,1,8,0:0:0
184,192,40521,1,2,0:0:0
240,96,40862,2,0,B|272:128|320:136,2,70,0|0|2,0:0|0:0|0:0,0:0:0
240,96,41373,1,0,0:0:0
240,96,41544,2,0,B|240:152|200:168,1,70,8|0,0:0|0:0,0:0:0
244,192,41885,6,0,B|280:260|364:272,1,140,0|8,0:0|0:0,0:0:0
452,188,42907,1,8,0:0:0
364,100,43248,2,0,B|281:118|241:194,1,157.499995306134,0|8,0:0|0:0,0:0:0
242,191,43930,1,0,0:0:0
364,100,44271,2,0,B|372:176|444:220,1,140,8|8,0:0|0:0,0:0:0
420,348,44953,1,0,0:0:0
364,352,45123,1,0,0:0:0
312,328,45294,1,8,0:0:0
296,276,45464,5,0,0:0:0
292,220,45635,2,0,B|240:164|160:188,1,140,4|0,0:0|0:0,0:0:0
204,292,46316,1,8,0:0:0
148,300,46487,1,8,0:0:0
96,276,46657,2,0,B|36:224|60:144,1,140,0|4,0:0|0:0,0:0:0
140,72,47339,1,8,0:0:0
196,136,47680,2,0,B|224:180|272:216,1,104.999996870756
256,128,48362,6,0,B|292:156|356:168,1,104.999996870756,4|0,0:0|0:0,0:0:0
308,96,49044,2,0,B|360:108|412:92,1,104.999996870756,8|0,0:0|0:0,0:0:0
324,44,49726,2,0,B|377:42|423:13,1,104.999996870756,4|0,0:0|0:0,0:0:0
424,80,50407,2,0,B|488:124|468:212,1,140,8|4,0:0|0:0,0:0:0
416,268,51430,1,8,0:0:0
348,312,51771,2,0,B|312:316|272:284,1,70
260,216,52453,1,4,0:0:0
216,280,52794,5,0,0:0:0
180,300,52964,1,0,0:0:0
140,296,53135,2,0,B|76:296|56:224,1,105.000004005432
52,196,53646,1,0,0:0:0
60,156,53817,2,0,B|84:104|144:104,1,105.000004005432,4|0,0:0|0:0,0:0:0
184,104,54328,1,0,0:0:0
224,120,54498,5,8,0:0:0
256,148,54669,1,0,0:0:0
268,188,54839,1,8,0:0:0
224,120,55180,1,4,0:0:0
248,88,55351,1,0,0:0:0
284,72,55521,1,8,0:0:0
368,84,55862,2,0,B|368:28|420:0,1,105.000004005432,2|0,0:0|0:0,0:0:0
368,84,56544,6,0,B|452:96|460:192,1,140,4|0,0:0|0:0,0:0:0
356,184,57055,1,0,0:0:0
356,184,57226,2,0,B|300:232,1,70,0|8,0:0|0:0,0:0:0
396,272,57737,2,0,B|452:224,1,70,0|8,0:0|0:0,0:0:0
488,120,58248,1,0,0:0:0
488,120,58589,2,0,B|432:208|360:224,1,140
332,220,59101,1,0,0:0:0
276,208,59271,5,8,0:0:0
320,120,59612,1,8,0:0:0
432,120,59953,2,0,B|368:160,1,70,8|0,0:0|0:0,0:0:0
328,192,60294,1,0,0:0:0
216,192,60635,2,0,B|256:272,1,70,8|0,0:0|0:0,0:0:0
272,304,60976,1,0,0:0:0
160,304,61316,6,0,B|120:304|88:272,2,70,0|8|0,0:0|0:0|0:0,0:0:0
352,304,61998,2,0,B|392:304|424:272,2,70,8|0|0,0:0|0:0|0:0,0:0:0
256,248,62680,5,0,0:0:0
256,232,62851,1,8,0:0:0
256,216,63021,1,0,0:0:0
256,200,63191,1,0,0:0:0
256,184,63362,2,0,B|232:160|280:120|248:80|272:56|256:44,1,140,8|8,0:0|0:0,0:0:0
184,76,64044,6,0,B|112:116,1,70,8|0,0:0|0:0,0:0:0
328,76,64555,6,0,B|400:116,1,70,8|0,0:0|0:0,0:0:0
256,136,65066,6,0,B|256:224,1,70,8|0,0:0|0:0,0:0:0
224,316,65407,1,0,0:0:0
224,316,65578,1,0,0:0:0
396,188,65919,1,0,0:0:0
396,188,66089,1,0,0:0:0
60,88,66430,1,0,0:0:0
256,64,66771,6,0,B|208:64|176:96,1,70,4|0,0:0|0:0,0:0:0
152,128,67112,1,8,0:0:0
256,176,67453,1,2,0:0:0
312,176,67623,2,0,B|352:184|372:212,1,70,0|8,0:0|0:0,0:0:0
428,216,67964,2,0,B|464:204|480:168,1,70
480,116,68305,2,0,B|469:83|428:63,1,70,0|8,0:0|0:0,0:0:0
320,68,68817,2,0,B|256:104|184:72,1,140
132,96,69328,1,0,0:0:0
96,136,69498,5,0,0:0:0
96,248,69839,1,8,0:0:0
224,192,70180,1,0,0:0:0
324,144,70521,1,8,0:0:0
336,200,70692,1,0,0:0:0
384,228,70862,2,0,B|429:228|451:205,2,70,0|0|8,0:0|0:0|0:0,0:0:0
332,252,71373,1,0,0:0:0
300,300,71544,6,0,B|364:328|452:296,1,140,0|8,0:0|0:0,0:0:0
328,120,72226,6,0,B|264:96|160:128,1,140,4|8,0:0|0:0,0:0:0
140,144,72737,2,0,B|104:160|72:144,2,70,0|0|0,0:0|0:0|0:0,0:0:0
104,72,73248,1,0,0:0:0
104,224,73419,6,0,B|79:251|48:263,1,70
168,324,73930,1,8,0:0:0
272,280,74271,1,0,0:0:0
184,208,74612,1,8,0:0:0
152,104,74953,6,0,B|208:88|248:120,2,70,0|0|8,0:0|0:0|0:0,0:0:0
144,160,75464,1,0,0:0:0
128,216,75635,2,0,B|104:248|80:208|64:256|24:224|16:288,1,140,0|8,0:0|0:0,0:0:0
128,312,76317,2,0,B|208:288,1,70,8|0,0:0|0:0,0:0:0
248,264,76657,1,8,0:0:0
288,224,76828,2,0,B|352:96,1,140,0|4,0:0|0:0,0:0:0
448,40,77510,5,0,0:0:0
448,40,77680,2,0,B|464:112|448:184,1,140,0|8,0:0|0:0,0:0:0
424,232,78192,1,0,0:0:0
368,232,78362,2,0,B|344:268|272:268|248:224,1,140,0|8,0:0|0:0,0:0:0
236,168,78873,1,0,0:0:0
224,112,79044,2,0,B|200:76|128:76|104:120,1,140,0|8,0:0|0:0,0:0:0
96,176,79555,1,0,0:0:0
104,232,79726,6,0,B|160:232|200:336,1,140,0|8,0:0|0:0,0:0:0
408,232,80407,2,0,B|352:232|312:336,1,140,0|8,0:0|0:0,0:0:0
256,232,81089,2,0,B|256:160,1,70
200,164,81430,2,0,B|176:96|112:56,2,140
256,176,82282,1,0,0:0:0
256,232,82453,6,0,B|256:304|160:344,1,140,0|8,0:0|0:0,0:0:0
96,256,83135,1,4,0:0:0
96,256,83305,2,0,B|64:200|72:176,1,70,0|8,0:0|0:0,0:0:0
176,56,83817,1,0,0:0:0
176,56,83987,2,0,B|232:24|256:32,1,70,0|8,0:0|0:0,0:0:0
360,48,84498,1,0,0:0:0
272,120,84839,1,8,0:0:0
376,152,85180,6,0,B|312:224,2,70,0|0|8,0:0|0:0|0:0,0:0:0
424,256,85862,1,8,0:0:0
312,256,86203,2,0,B|312:176,1,70,0|8,0:0|0:0,0:0:0
216,136,86714,2,0,B|216:224,1,70,0|8,0:0|0:0,0:0:0
144,288,87055,1,8,0:0:0
144,288,87226,6,0,B|100:224|160:164,1,118.999995034933
216,80,87907,1,8,0:0:0
312,136,88248,1,0,0:0:0
248,224,88589,5,0,0:0:0
376,100,88760,2,0,B|400:148|376:200|324:208,1,140
240,152,89271,2,0,B|188:160|164:212|184:260,1,140
312,136,89782,1,0,0:0:0
