osu file format v6

[General]
AudioFilename: Minna no Tamago.mp3
AudioLeadIn: 3000
PreviewTime: -1
Countdown: 1
SampleSet: Normal
StackLeniency: 0.7
Mode: 0
LetterboxInBreaks: 0

[Editor]
Bookmarks: 9764
DistanceSpacing: 1
BeatDivisor: 4
GridSize: 8

[Metadata]
Title:Minna no Tamago
Artist:Shugo Chara Egg
Creator:Metruzero
Version:animask difficulty
Source:
Tags:

[Difficulty]
HPDrainRate:5
CircleSize:5
OverallDifficulty:7
SliderMultiplier:1.8
SliderTickRate:1

[Events]
//Background and Video events
Video,0,"Minna no Tamago.avi"
0,0,"shugo-chara.jpg"
//Break Periods
2,20002,22825
//Storyboard Layer 0 (Background)
//Storyboard Layer 1 (Fail)
//Storyboard Layer 2 (Pass)
//Storyboard Layer 3 (Foreground)
//Storyboard Sound Samples
//Background Colour Transformations
3,100,163,162,255

[TimingPoints]
1341,461.538461538462,4,1,0,80,1,0

[Colours]
Combo1 : 255,255,0
Combo2 : 40,205,31
Combo3 : 45,88,228
Combo4 : 200,38,38

[HitObjects]
256,80,1341,2,0,B|336:80|384:112|400:128|432:160,1,180
256,80,2033,2,0,B|176:80|128:112|112:128|80:160,1,180
208,288,2956,2,2,L|256:208|312:304,1,180
256,200,3648,2,2,L|256:104|256:104,1,90,2|2
168,112,4110,1,2
344,112,4571,1,2
256,304,5033,6,2,B|336:304|384:272|400:256|432:224,1,180
256,304,5725,2,2,B|176:304|128:272|112:256|80:224,1,180
208,96,6648,2,2,L|256:176|312:80,1,180
256,184,7341,2,2,L|256:288,1,90
168,272,7802,1,2
344,272,8264,1,6
256,112,8725,5,2
328,56,8956,1,0
416,56,9187,1,0
480,112,9417,1,2
376,256,9879,1,4
208,192,10341,6,2,B|168:272|48:256,1,180
64,168,11033,2,2,B|120:184|144:128,1,90
208,80,11494,1,4
344,192,11956,1,4
208,312,12417,5,2
256,232,12648,1,0
296,312,12879,1,0
256,232,13110,1,2
256,48,13571,1,0
304,192,14033,6,2,B|344:272|464:256,1,180
448,168,14725,2,2,B|392:184|368:128,1,90
304,80,15186,1,4
168,192,15648,1,4
256,352,16110,5,0
256,168,16571,1,0
256,256,16802,1,2
256,72,17264,1,2
72,72,17725,2,0,B|288:72,1,180
344,72,18417,1,0
424,112,18648,1,0
440,192,18879,5,6
256,192,19341,1,6
72,192,19802,1,2
120,104,23725,5,0
208,120,23956,1,0
256,192,24187,1,0
344,192,24417,2,0,B|416:168|416:136,1,90,8|0
455,224,24879,2,0,B|385:248|385:273,1,90,8|0
312,272,25341,1,8
224,232,25571,1,8
152,176,25802,1,8
88,104,26033,2,2,B|64:48|120:32|168:24|232:32|248:88|208:112|248:152,1,270,2|4
408,88,27187,1,4
352,160,27417,5,0
296,232,27648,1,8
208,232,27879,1,0
128,184,28110,1,8
208,136,28341,1,0
248,56,28571,1,8
288,136,28802,1,0
360,192,29033,6,2,B|416:200|440:248,1,90
152,192,29494,2,2,B|96:200|72:248,1,90
256,248,30187,5,8
256,160,30417,1,8
256,72,30648,1,0
80,40,31110,5,2
80,128,31341,1,0
80,216,31571,1,2
136,288,31802,6,0,B|136:344|184:304|200:368,1,90,0|0
256,288,32264,2,0,B|312:288|272:240|336:224,1,90,0|0
304,144,32725,1,2
256,64,32956,1,0
208,144,33187,1,2
256,64,33417,2,0,B|256:168|224:208|288:248|256:320|256:344,1,270,0|4
144,192,34571,1,4
184,112,34802,5,0
256,64,35033,1,0
328,120,35264,1,0
256,176,35494,2,0,B|208:192|184:240,1,90,8|0
256,176,35956,2,0,B|304:192|328:240,1,90,8|0
256,288,36417,1,8
256,376,36648,1,8
256,288,36879,1,8
256,200,37110,2,2,B|232:128|176:120|96:112|72:144|96:184|32:192,1,270,0|4
168,64,38264,1,4
320,192,38725,5,2
288,272,38956,1,0
256,352,39187,1,2
224,272,39417,1,0
192,192,39648,1,2
224,112,39879,1,0
256,32,40110,1,2
288,112,40341,1,2
320,192,40571,1,2
448,72,41033,6,0,B|424:144|416:160|448:216|448:264,2,180,0|0|4
360,80,42187,5,0
272,104,42417,1,0
192,144,42648,1,0
104,176,42879,2,0,B|40:200|32:224|48:256|96:280|224:240|312:192|352:152,1,360
392,136,44033,1,0
472,96,44264,5,2
256,280,44725,5,2
40,96,45187,5,2
192,192,45648,6,0,B|280:176|312:192|352:200|384:192,1,180,4|0
256,56,46571,1,0
256,56,46802,1,0
416,136,47264,2,0,B|320:120|280:136|224:136|184:112|136:112,1,270,4|0
256,272,48417,6,2,L|224:272|224:312|288:312|288:240,1,180
256,64,49341,2,0,B|216:16|176:32|168:56|152:112|232:176|264:216,1,270,0|0
256,64,50264,2,0,B|296:16|336:32|344:56|360:112|280:176|248:216,1,270,0|4
112,96,51417,5,0
400,288,51879,1,0
256,192,52341,2,0,B|256:248,6,45,0|0|0|0|0|0|2
344,168,53264,5,0
272,112,53494,1,2
184,80,53725,1,0
96,56,53956,1,2
8,40,54187,1,2
56,216,54648,5,0
104,288,54879,1,2
184,328,55110,1,0
272,352,55341,1,2
360,360,55571,1,0
448,336,55802,1,2
488,256,56033,1,0
256,112,56725,6,0,B|216:144|280:168|248:216,1,90,2|0
336,192,57187,2,0,B|304:152|280:216|232:184,1,90,2|0
184,248,57648,1,2
104,296,57879,1,2
176,128,58341,6,0,B|232:72|280:72|352:144,1,180,2|2
208,256,59264,1,2
256,176,59494,1,0
296,256,59725,1,2
80,96,60417,6,0,C|88:120|120:120|128:144|152:144,1,90,2|0
80,96,60879,2,0,C|56:104|56:135|32:144|32:168,1,90,2|0
40,240,61341,1,0
128,240,61571,1,0
256,112,62033,6,0,C|256:64,1,45
296,88,62264,2,0,C|352:96,1,45
320,136,62494,2,0,C|288:184,1,45
248,160,62725,2,0,C|192:176,1,45
200,128,62956,2,0,C|144:104,1,45
112,104,63187,1,0
24,104,63417,1,0
192,312,64110,5,0
256,248,64341,1,0
320,184,64571,1,0
376,112,64802,1,0
432,40,65033,1,0
432,128,65264,1,0
472,304,65725,6,0,B|424:288|400:304|368:288,1,90
312,240,66187,2,0,B|272:216|248:224|224:232|200:216,1,90
136,192,66648,2,0,B|104:184|72:192|56:184|32:160,1,90
200,72,67341,1,0
336,192,67802,6,2,B|288:248|256:200|248:152|304:136|312:120|344:144,1,180
280,312,68725,6,2,B|328:368|360:320|368:272|312:256|304:240|272:264,1,180
112,192,69648,6,2,B|64:248|32:200|24:152|80:136|88:120|120:144,1,180
56,312,70571,6,2,B|103:367|135:319|143:271|87:255|79:239|56:256,1,180,0|4
64,72,71494,1,4
256,192,71610,12,0,73341
256,192,73802,5,2
256,192,74264,2,2,B|256:40,1,135
32,104,75187,5,2
104,48,75418,1,0
192,48,75649,1,0
256,104,75879,1,2
152,248,76341,1,4
320,192,76802,6,2,B|360:272|480:256,1,180
456,168,77494,2,2,B|400:184|376:128,1,90
304,88,77955,1,4
160,192,78417,1,4
208,72,78879,5,2
256,152,79110,1,0
296,72,79341,1,0
256,152,79572,1,2
256,336,80033,1,0
208,192,80495,6,2,B|168:272|48:256,1,180
64,168,81187,2,2,B|120:184|144:128,1,90
208,80,81648,1,4
344,192,82110,1,4
256,352,82571,5,0
256,168,83032,1,0
256,256,83263,1,2
256,72,83725,1,2
256,72,84187,2,0,B|256:264,1,180
328,304,84878,1,0
408,264,85109,1,0
440,192,85340,5,6
256,192,85802,1,6
72,192,86263,1,2
