osu file format v6

[General]
AudioFilename: Minna no Tamago.mp3
AudioLeadIn: 518
PreviewTime: -1
Countdown: 1
SampleSet: Normal
StackLeniency: 0.7
Mode: 0
LetterboxInBreaks: 0

[Editor]
DistanceSpacing: 1.10000002384186
BeatDivisor: 4
GridSize: 32

[Metadata]
Title:Minna no Tamago
Artist:Shugo Chara Egg
Creator:Metruzero
Version:Normal
Source:
Tags:Minna no Tamago Shugo Chara Egg animask

[Difficulty]
HPDrainRate:5
CircleSize:4
OverallDifficulty:7
SliderMultiplier:1.4
SliderTickRate:1

[Events]
//Background and Video events
Video,0,"Minna no Tamago.avi"
0,0,"shugo-chara.jpg"
//Break Periods
2,20006,22829
//Storyboard Layer 0 (Background)
//Storyboard Layer 1 (Fail)
//Storyboard Layer 2 (Pass)
//Storyboard Layer 3 (Foreground)
//Storyboard Sound Samples
//Background Colour Transformations
3,100,163,162,255

[TimingPoints]
1345,461.538461538462,4,1,0,100,1,0

[Colours]
Combo1 : 255,255,0
Combo2 : 40,205,31
Combo3 : 45,88,228
Combo4 : 200,38,38

[HitObjects]
256,64,1345,2,0,L|96:64,1,140
128,128,2037,2,0,L|282:128,1,140,0|0
128,192,2960,2,0,L|273:192,1,140
320,128,3652,2,0,C|224:128,2,70,0|0|0
192,128,4575,1,0
448,128,5037,6,0,L|448:288,1,140
384,256,5729,2,0,L|384:96,1,140,0|0
352,256,6652,2,0,L|352:83,1,140,0|0
288,128,7345,2,0,C|288:32,2,70,0|0|0
160,128,8268,1,0
320,77,8729,6,0,L|320:224,1,140
256,224,9421,2,0,L|256:74,1,140,0|0
23,189,10344,6,0,B|45:104|114:69|114:69,1,140
100,169,11037,2,0,B|132:119|176:113,1,70,0|0
224,96,11498,5,0
224,288,11960,1,0
336,266,12421,6,0,B|432:246|420:156,1,140
352,192,13114,2,0,B|441:185|430:82,1,140
289,63,14037,6,0,B|435:63,1,140
431,133,14729,2,0,B|335:133,1,70
352,192,15191,5,0
160,192,15652,1,0
64,320,16114,6,0,B|224:320,1,140
160,256,16806,2,0,B|320:256,1,140
192,192,17729,2,0,B|352:192,1,140
416,192,18421,1,0
416,256,18652,1,0
352,256,18883,5,0
160,256,19345,1,0
160,64,19806,1,0
128,64,23729,5,0
128,128,23960,2,0,B|85:138|84:185,1,70,0|0
128,224,24421,2,0,B|224:224,3,70
224,160,25345,2,0,B|320:160,1,70
352,192,25806,2,0,B|352:288,1,70
224,256,26498,5,0
224,192,26729,1,0
224,128,26960,1,0
224,64,27191,1,0
323,67,27421,6,0,B|399:71|435:151,1,140
384,192,28114,2,0,B|288:192,2,70
448,224,28806,1,0
384,256,29037,2,0,B|288:256,1,70
256,224,29498,2,0,B|256:128,1,70
128,64,30191,5,0
128,128,30421,1,0
192,128,30652,1,0
256,128,30883,1,0
288,32,31114,6,0,B|384:32|416:96,1,140
416,160,31806,2,0,B|320:160,3,70
288,160,32729,2,0,B|288:256,1,70
288,288,33191,2,0,B|192:288,1,70,0|0
32,64,33883,5,0
32,128,34114,1,0
32,64,34345,1,0
96,64,34575,1,0
160,64,34806,6,0,B|256:64,1,70
288,64,35268,1,0
288,128,35498,2,0,B|288:224,3,70
352,192,36421,2,0,B|352:96,1,70
416,128,36883,2,0,B|416:224,1,70
320,64,37575,5,0
320,128,37806,1,0
320,192,38037,1,0
320,256,38268,1,0
256,256,38498,6,0,B|192:288|96:224,1,140
64,192,39191,1,0
288,192,39883,1,0
352,192,40114,1,0
352,256,40345,1,0
288,256,40575,1,0
64,96,42191,6,0,B|64:192|128:224,1,140
192,224,42883,1,0
416,224,43575,1,0
416,288,43806,1,0
352,288,44037,1,0
352,224,44268,1,0
64,64,45652,5,0
224,64,46114,1,0
384,64,46575,1,0
384,128,46806,1,0
384,288,47268,2,0,B|224:288,1,140
160,288,47960,1,0
160,128,48421,5,0
320,128,48883,1,0
320,288,49345,2,0,B|288:160|192:192|192:288,1,210
128,320,50268,1,0
96,192,50960,5,0
256,192,51421,1,0
416,192,51883,1,0
256,192,52114,12,0,52806
96,224,53037,6,0,B|96:128,1,70
160,160,53498,2,0,B|160:256,1,70
224,224,53960,2,0,B|224:128,1,70
352,224,54652,5,0
416,224,54883,2,0,B|416:128,1,70
480,160,55345,2,0,B|480:256,1,70
416,224,55806,2,0,B|416:128,1,70
192,224,56729,6,0,B|192:128,1,70
128,160,57191,2,0,B|128:256,1,70
64,224,57652,2,0,B|64:128,1,70
224,160,58345,6,0,B|384:160,1,140
224,224,59268,1,0
288,224,59498,1,0
352,224,59729,1,0
