osu file format v9

[General]
AudioFilename: Showtek - Dutchi.mp3
AudioLeadIn: 0
PreviewTime: -1
Countdown: 0
SampleSet: Soft
StackLeniency: 0.7
Mode: 0
LetterboxInBreaks: 1

[Editor]
DistanceSpacing: 1.1
BeatDivisor: 2
GridSize: 16

[Metadata]
Title:Dutchie
Artist:Showtek (feat. MC Stretch)
Creator:Mondlicht-
Version:Easy+
Source:Analogue Players in a Digital World
Tags:hardstyle, techno

[Difficulty]
HPDrainRate:3
CircleSize:3
OverallDifficulty:2
ApproachRate:3
SliderMultiplier:0.999999999999999
SliderTickRate:1

[Events]
//Background and Video events
0,0,"bg.jpg"
//Break Periods
2,27588,27976
2,132994,157705
2,185290,190138
2,198264,203111
2,256237,258246
//Storyboard Layer 0 (Background)
//Storyboard Layer 1 (Fail)
//Storyboard Layer 2 (Pass)
//Storyboard Layer 3 (Foreground)
//Storyboard Sound Samples
//Background Colour Transformations
3,100,163,162,255

[TimingPoints]
3470.09328289988,405.405405405405,4,2,1,70,1,0
81206,-100,4,2,1,70,0,1
119922,-100,4,2,1,70,0,0
204467,-100,4,2,1,70,0,1
256139,-100,4,2,1,70,0,0
272557,-100,4,2,1,70,0,1
297186,-100,4,2,1,60,0,1
297591,-100,4,2,1,50,0,1
297997,-100,4,2,1,40,0,0

[Colours]
Combo1 : 255,255,81
Combo2 : 151,255,47
Combo3 : 45,150,255
Combo4 : 255,83,83
Combo5 : 255,183,74
Combo6 : 117,255,255
Combo7 : 255,60,255

[HitObjects]
64,48,3470,1,0
256,48,4280,1,0
448,48,5091,1,0
448,256,5902,2,8,B|400:272|400:272|336:256,1,99.9999999999999
272,192,6713,5,0
64,192,7524,1,0
272,192,8334,1,0
464,192,9145,2,8,B|448:144|448:144|464:80,1,99.9999999999999
368,48,9956,5,0
160,48,10767,1,0
272,224,11578,1,0
80,192,12389,2,8,B|64:240|64:240|80:304,1,99.9999999999999
176,320,13199,5,0
368,320,14010,1,0
448,128,14821,1,0
256,48,15632,2,8,B|240:80|240:80|272:112|272:112|256:144,1,99.9999999999999
256,224,16443,6,8,B|240:272|240:272|256:336,1,99.9999999999999
352,320,17253,2,8,B|368:272|368:272|352:208,1,99.9999999999999
368,128,18064,2,8,B|352:176|352:176|368:240,1,99.9999999999999
256,224,18875,2,8,B|272:176|272:176|256:112,1,99.9999999999999
208,224,19686,6,8,B|192:176|192:176|208:112,1,99.9999999999999
96,128,20497,2,8,B|112:176|112:176|96:240,1,99.9999999999999
96,320,21307,2,8,B|112:272|112:272|96:208,1,99.9999999999999
208,224,22118,2,8,B|192:272|192:272|208:336,1,99.9999999999999,8|8
304,336,22929,5,4
204,336,23334,1,4
127,271,23740,1,4
110,173,24145,1,4
160,86,24551,1,4
253,52,24956,1,4
347,86,25361,1,4
397,173,25767,1,4
380,271,26172,2,4,B|272:272,3,99.9999999999999
256,192,29416,5,4
256,96,29821,1,4
176,144,30226,1,4
176,240,30632,1,4
256,288,31037,1,4
336,240,31443,1,4
336,144,31848,2,12,B|272:144|288:224|240:208,1,99.9999999999999
176,256,32659,5,4
96,192,33064,1,4
176,256,33470,1,4
256,320,33875,1,4
176,256,34280,1,4
96,320,34686,1,4
176,256,35091,2,8,B|176:224|256:240|256:192,1,99.9999999999999
336,128,35902,5,4
256,64,36307,1,4
176,128,36713,1,4
256,192,37118,1,4
336,256,37524,1,4
256,192,37929,1,4
176,256,38334,2,8,B|160:288|160:288|112:304|112:304|96:336,1,99.9999999999999
48,240,39145,6,8,B|64:192|64:192|48:128,1,99.9999999999999
48,48,39956,2,8,B|96:64|96:64|160:48,1,99.9999999999999
240,48,40767,2,8,B|224:96|224:96|240:176,1,99.9999999999999
240,240,41578,2,2,B|192:224|192:224|112:240,1,99.9999999999999
48,240,42389,5,4
48,336,42794,1,4
144,336,43199,1,4
240,336,43605,1,4
240,240,44010,1,4
144,240,44416,1,4
48,240,44821,2,8,B|32:208|32:208|64:160|64:160|48:128,1,99.9999999999999
48,48,45632,5,4
144,48,46037,1,4
240,48,46443,1,4
144,48,46848,1,4
240,48,47253,1,4
336,48,47659,1,4
432,48,48064,2,8,B|480:48|480:48|480:128,1,99.9999999999999
480,192,48875,5,4
480,288,49280,1,4
400,240,49686,1,4
400,336,50091,1,4
320,288,50497,1,4
320,192,50902,1,4
416,192,51307,2,8,B|416:96|288:96,1,99.9999999999999
272,112,52118,5,4
224,192,52524,1,4
160,112,52929,1,4
224,192,53334,1,4
128,208,53740,2,2,B|48:208|48:208|64:336|64:336|176:336,1,300
272,336,55361,5,4
368,336,55767,1,4
368,240,56172,1,4
272,240,56578,1,4
272,336,56983,1,4
368,336,57389,1,4
368,240,57794,2,8,B|352:224|352:224|304:256|304:256|256:240,1,99.9999999999999
192,240,58605,5,4
192,240,59010,1,4
96,240,59416,1,4
96,240,59821,1,4
96,336,60226,1,4
96,336,60632,1,4
192,336,61037,2,8,B|208:352|208:352|256:320|256:320|304:336,1,99.9999999999999
368,336,61848,5,4
368,240,62253,1,4
368,144,62659,1,4
368,48,63064,2,8,B|320:64|320:64|240:48,1,99.9999999999999
256,144,63875,1,4
256,240,64280,1,4
256,336,64686,2,8,B|208:320|208:320|144:336,1,99.9999999999999
64,336,65497,1,4
64,240,65902,1,4
160,240,66307,2,8,B|208:256|208:256|272:240,1,99.9999999999999
256,48,68334,5,4
256,144,68740,1,4
208,240,69145,2,8,B|192:288|192:288|208:352,1,99.9999999999999
304,336,69956,2,8,B|320:288|320:288|304:224,1,99.9999999999999
256,144,70767,1,4
256,48,71172,1,4
160,96,71578,5,4
64,96,71983,1,4
64,192,72389,2,8,B|112:208|112:208|176:192,1,99.9999999999999
160,288,73199,2,8,B|112:272|112:272|48:288,1,99.9999999999999
112,192,74010,1,4
208,192,74416,1,4
256,192,74821,12,4,79686
256,96,81307,5,4
336,192,81713,1,4
256,272,82118,2,4,B|256:336,2,50
144,320,82929,2,4,B|144:256,2,50
144,192,83740,1,4
256,192,84145,1,4
384,192,84551,5,4
256,192,84956,1,4
160,128,85361,2,4,B|112:80,2,50
160,240,86172,2,4,B|112:272,2,50
48,192,86983,1,4
48,64,87389,1,4
160,64,87794,6,2,B|192:80|192:80|224:48|224:48|288:64,1,99.9999999999999
368,64,88605,2,4,B|368:128,2,50
368,192,89416,2,4,B|368:144,2,50
272,128,90226,2,2,B|224:128|224:128|224:192,1,99.9999999999999
224,304,91037,5,4
336,304,91443,1,4
336,192,91848,2,4,B|336:144,2,50
464,192,92659,2,2,B|432:160|496:128|464:80,1,99.9999999999999
464,48,93470,2,2,B|432:16|384:64|352:48,1,99.9999999999999
240,48,94280,5,4
144,128,94686,1,4
240,208,95091,2,4,B|304:208,2,50
288,320,95902,2,4,B|240:320,2,50
160,320,96713,1,4
48,320,97118,1,4
48,192,97524,5,4
80,80,97929,1,4
112,192,98334,2,4,B|176:192,2,50
224,192,99145,2,4,B|288:192,2,50
336,192,99956,1,4
448,160,100361,6,2,B|432:128|432:128|464:96|464:96|448:48,1,99.9999999999999
336,48,101172,1,4
208,48,101578,2,4,B|208:112,2,50
80,48,102389,2,4,B|80:112,2,50
80,160,103199,1,4
144,256,103605,1,4
256,272,104010,5,4
256,144,104416,1,4
320,48,104821,2,4,B|368:48,2,50
192,48,105632,6,2,B|112:96|112:96|192:176|192:176|96:256,1,300
112,352,107253,5,4
192,256,107659,1,4
304,304,108064,2,4,B|368:304,4,50
416,240,109280,1,4
304,192,109686,2,8,B|272:176|272:176|240:208|240:208|192:192,1,99.9999999999999
96,192,110497,5,4
96,80,110902,1,4
208,80,111307,2,4,B|208:144,4,50
320,128,112524,2,4,B|320:64,4,50
448,128,113740,5,4
448,240,114145,1,4
320,240,114551,2,4,B|272:240,4,50
192,240,115767,1,4
80,240,116172,2,4,B|80:304,4,50
80,112,117389,1,4
192,112,117794,2,4,B|192:64,4,50
320,112,119010,1,4
448,112,119416,2,4,B|448:160,2,50
448,208,120226,6,8,B|400:240|336:208,1,99.9999999999999
416,288,121037,2,8,B|368:256|304:288,1,99.9999999999999
224,288,121848,2,8,B|272:256|336:288,1,99.9999999999999
272,192,122659,1,4
368,192,123064,2,2,B|400:192|400:192|400:112,1,99.9999999999999
384,32,123875,5,4
304,80,124280,1,4
224,32,124686,1,4
144,80,125091,1,4
192,160,125497,1,4
256,224,125902,2,2,B|288:208|288:208|320:240|320:240|384:224,2,99.9999999999999
160,224,127118,5,4
192,320,127524,1,4
272,256,127929,1,4
192,320,128334,1,4
272,256,128740,1,4
352,320,129145,2,2,B|464:320|464:320|464:208,1,200
464,128,130361,1,4
368,96,130767,1,4
384,192,131172,1,4
384,288,131578,2,2,B|320:288|320:288|320:192|320:192|224:192|224:192|224:272,1,300
256,80,159145,6,4,B|256:192,1,99.9999999999999
256,304,159956,2,4,B|256:192,1,99.9999999999999
144,192,160767,2,4,B|256:192,1,99.9999999999999
368,192,161578,2,4,B|256:192,1,99.9999999999999
176,112,162389,6,4,B|256:192,1,99.9999999999999
336,112,163199,2,4,B|256:192,1,99.9999999999999
336,272,164010,2,4,B|256:176,1,99.9999999999999
176,272,164821,2,4,B|272:176,1,99.9999999999999
256,80,165632,6,4,B|256:192,3,99.9999999999999
256,304,167253,2,4,B|256:192,3,99.9999999999999
144,192,168875,6,4,B|256:192,3,99.9999999999999
368,192,170497,2,4,B|256:192,3,99.9999999999999
256,96,172118,5,4
160,96,172524,1,4
64,96,172929,1,4
64,192,173334,1,4
64,288,173740,1,4
160,288,174145,1,4
256,288,174551,2,4,B|256:176,1,99.9999999999999
256,96,175361,5,4
352,96,175767,1,4
448,96,176172,1,4
448,192,176578,1,4
448,288,176983,1,4
352,288,177389,1,4
256,240,177794,2,4,B|256:352,2,99.9999999999999
256,144,179010,5,4
176,192,179416,1,4
256,256,179821,1,4
336,192,180226,1,4
256,256,180632,5,4
176,192,181037,1,4
256,144,181443,1,4
336,192,181848,2,4,B|384:224|448:192,1,99.9999999999999
432,288,182659,2,4,B|384:256|320:288,1,99.9999999999999
224,288,183470,2,4,B|240:240|240:240|224:160,1,99.9999999999999
128,192,184280,2,4,B|112:240|112:240|128:304,2,99.9999999999999
256,192,191578,12,4,198064
256,192,204551,6,4,B|144:192,1,99.9999999999999
256,192,205361,2,4,B|256:80,1,99.9999999999999
256,192,206172,2,4,B|384:192,1,99.9999999999999
256,192,206983,2,4,B|256:304,1,99.9999999999999
256,192,207794,6,4,B|176:112,1,99.9999999999999
256,192,208605,2,4,B|336:112,1,99.9999999999999
256,192,209416,2,4,B|336:272,1,99.9999999999999
256,192,210226,2,4,B|176:272,1,99.9999999999999
256,192,211037,5,4
192,96,211443,1,4
304,80,211848,1,4
384,176,212253,1,4
336,288,212659,1,4
224,288,213064,1,4
112,288,213470,2,2,B|96:256|96:256|128:208|128:208|112:176,1,99.9999999999999
128,80,214280,5,4
256,80,214686,1,4
368,32,215091,1,4
368,160,215497,1,4
256,192,215902,2,2,B|240:192|208:176|208:176|128:192,1,99.9999999999999
64,256,216713,2,2,B|112:272|112:272|176:256,1,99.9999999999999
256,336,217524,5,4
352,256,217929,1,4
448,336,218334,1,4
448,208,218740,1,4
448,96,219145,1,4
336,48,219551,1,4
288,160,219956,2,2,B|272:144|272:144|224:176|224:176|176:160,1,99.9999999999999
176,48,220767,5,4
80,128,221172,1,4
176,48,221578,1,4
256,128,221983,1,4
160,208,222389,1,4
160,320,222794,1,4
272,320,223199,2,2,B|240:304|304:256|272:208,1,99.9999999999999
400,192,224010,6,4,B|416:144|416:144|400:80,1,99.9999999999999
320,192,224821,2,4,B|304:144|304:144|320:80,1,99.9999999999999
240,192,225632,1,4
160,96,226037,2,4,B|144:144|144:144|160:208,1,99.9999999999999
240,96,226848,1,4
352,96,227253,6,2,B|400:96,3,50
352,272,228470,1,2
240,272,228875,2,2,B|240:224,3,50
240,48,230091,1,2
128,48,230497,6,4,B|80:64|80:64|16:48,1,99.9999999999999
32,160,231307,2,4,B|80:176|80:176|144:160,1,99.9999999999999
128,288,232118,2,4,B|80:304|80:304|16:288,1,99.9999999999999
272,240,233334,5,2
384,288,233740,2,4,B|432:304|432:304|496:288,1,99.9999999999999
480,176,234551,2,4,B|432:192|432:192|368:176,1,99.9999999999999
384,64,235361,2,4,B|432:80|432:80|512:64,1,99.9999999999999
240,128,236578,5,2
128,80,236983,2,4,B|144:128|144:128|128:192,1,99.9999999999999
64,80,237794,2,4,B|48:128|48:128|64:192,1,99.9999999999999
64,304,238605,2,4,B|48:256|48:256|64:192,1,99.9999999999999
128,304,239416,2,4,B|144:256|144:256|128:192,1,99.9999999999999
256,192,240226,5,2
448,48,241037,1,2
448,288,241848,2,2,B|400:272|400:272|352:208,1,99.9999999999999
256,272,242659,2,2,B|304:288|304:288|352:352,1,99.9999999999999
336,224,243470,5,4
336,112,243875,1,4
224,112,244280,1,4
96,112,244686,2,4,B|96:176,2,50
96,240,245497,1,4
192,320,245902,2,2,B|240:336|240:336|320:320,1,99.9999999999999
400,320,246713,5,4
464,224,247118,1,4
352,208,247524,1,4
416,112,247929,2,4,B|416:48,2,50
288,112,248740,1,4
176,112,249145,2,2,B|128:96|128:96|64:112,1,99.9999999999999
80,224,249956,5,4
80,336,250361,1,4
192,272,250767,1,4
304,208,251172,1,4
304,336,251578,1,4
416,272,251983,1,4
416,144,252389,2,2,B|416:80|416:80|368:80,1,99.9999999999999,2|2
256,96,253199,5,2
80,272,254010,2,2,B|128:336,2,50
192,320,254821,1,2
432,272,255632,2,2,B|384:320,2,50
112,64,259686,5,4
208,64,260091,1,4
304,64,260497,1,4
400,64,260902,1,4
352,144,261307,1,4
256,160,261713,1,4
160,144,262118,1,4
112,336,262929,5,4
208,336,263334,1,4
304,336,263740,1,4
400,336,264145,1,4
352,240,264551,1,4
256,224,264956,1,4
160,240,265361,1,4
256,224,265767,1,4
256,192,266172,12,4,271037
256,192,272659,6,4,B|240:144|240:144|256:80,1,99.9999999999999
256,192,273470,2,4,B|272:240|272:240|256:304,1,99.9999999999999
256,192,274280,2,4,B|208:176|208:176|144:192,1,99.9999999999999
256,192,275091,2,4,B|304:208|304:208|368:192,1,99.9999999999999
464,192,275902,5,4
464,80,276307,1,4
336,80,276713,2,4,B|336:144,4,50
224,96,277929,1,4
96,128,278334,2,2,B|96:64,2,50
128,240,279145,1,2
208,336,279551,5,4
320,336,279956,2,4,B|320:288,4,50
400,240,281172,2,4,B|400:304,4,50
384,128,282389,5,4
288,48,282794,1,4
208,128,283199,2,4,B|144:128,2,50
288,208,284010,6,2,B|288:304|288:304|192:304|192:304|192:240|192:240|112:240,1,300
32,240,285632,5,4
32,128,286037,1,4
128,48,286443,2,4,B|128:112,4,50
240,96,287659,2,4,B|240:32,4,50
368,96,288875,5,4
368,208,289280,1,4
240,208,289686,2,4,B|240:272,4,50
128,176,290902,2,4,B|128:112,4,50
128,48,292118,5,4
48,144,292524,1,4
80,256,292929,2,4,B|16:304,4,50
192,304,294145,2,4,B|240:352,4,50
256,192,295361,5,4
256,80,295767,1,4
368,144,296172,1,4
368,272,296578,1,4
256,336,296983,1,4
144,272,297389,1,4
144,160,297794,1,4
256,192,298199,1,4
256,192,298605,12,4,303470
