osu file format v12

[General]
AudioFilename: BW2BGM.mp3
AudioLeadIn: 2000
PreviewTime: 19504
Countdown: 0
SampleSet: Soft
StackLeniency: 0.7
Mode: 0
LetterboxInBreaks: 0
WidescreenStoryboard: 0

[Editor]
DistanceSpacing: 0.4
BeatDivisor: 4
GridSize: 8

[Metadata]
Title:Relic Song
TitleUnicode:いにしえのうた
Artist:Shouta Kageyama
ArtistUnicode:景山将太
Creator:Leader
Version:Nemis
Source:Pokemon: Black/White 2
Tags:メロエッタ Meroetta Meloetta's Event Nintendo Nemis Roxas Irreversibile Kurai Sey Deif
BeatmapID:282249
BeatmapSetID:107009

[Difficulty]
HPDrainRate:7
CircleSize:4
OverallDifficulty:7
ApproachRate:8
SliderMultiplier:1.2
SliderTickRate:1

[Events]
//Background and Video events
0,0,"Pokemon.full.1518318.jpg",0,0
//Break Periods
//Storyboard Layer 0 (Background)
//Storyboard Layer 1 (Fail)
//Storyboard Layer 2 (Pass)
//Storyboard Layer 3 (Foreground)
//Storyboard Sound Samples
//Background Colour Transformations
3,100,255,255,255

[TimingPoints]
347,394.736842105263,3,2,0,30,1,0
3899,444.444444444444,3,2,0,50,1,0
3899,-200,3,2,0,10,0,0
4343,-200,3,2,0,5,0,0
4454,-200,3,2,0,10,0,0
4787,402.684563758389,3,2,0,20,1,0
5189,394.736842105263,3,2,0,30,1,0
8840,-100,3,2,0,40,0,0
8938,-100,3,2,0,30,0,0
9531,-100,3,2,0,40,0,0
9925,-100,3,2,0,30,0,0
13478,444.444444444444,3,2,0,50,1,0
13589,-200,3,2,0,10,0,0
14033,-200,3,2,0,5,0,0
14144,-200,3,2,0,10,0,0
14366,402.684563758389,3,2,0,20,1,0
14768,394.736842105263,3,2,0,30,1,0
18320,-200,3,2,0,20,0,0
18912,-200,3,2,0,5,0,0
19110,-100,3,2,0,30,0,0
19504,389.61038961039,3,2,0,50,1,0
19504,-100,3,2,0,50,0,1
27685,-100,3,2,0,50,0,0
28854,-100,3,2,0,50,0,1
37426,-100,3,2,0,50,0,0

[Colours]
Combo1 : 225,225,225
Combo2 : 23,128,75
Combo3 : 26,219,107

[HitObjects]
48,84,347,1,2,0:0:0:0:
48,84,741,2,0,P|96:84|116:80,1,60,0|2,0:0|0:0,0:0:0:0:
196,44,1136,1,0,0:0:0:0:
308,148,1333,1,2,0:0:0:0:
308,148,1531,6,0,P|244:148|180:132,1,120,2|0,0:0|0:0,0:0:0:0:
408,96,2123,1,2,0:0:0:0:
400,208,2320,2,0,P|384:256|368:280,1,60,0|2,0:0|0:0,0:0:0:0:
228,308,2715,21,2,0:0:0:0:
224,312,3110,2,0,P|128:316|100:316,1,120,0|2,0:0|0:0,0:0:0:0:
92,332,3702,1,0,0:0:0:0:
136,200,3899,22,2,P|144:168|144:76,1,120,2|2,0:0|0:0,0:0:0:0:
48,56,4988,21,0,0:0:0:0:
168,104,5189,2,0,P|212:104|236:100,1,60,2|0,0:0|0:0,0:0:0:0:
316,40,5583,1,0,0:0:0:0:
428,140,5781,2,0,P|400:136|356:136,1,60,2|2,0:0|0:0,0:0:0:0:
280,204,6175,1,0,0:0:0:0:
316,316,6373,22,0,P|408:316|436:312,1,120,2|0,0:0|0:0,0:0:0:0:
448,296,7162,2,0,P|408:300|364:296,1,60,2|0,0:0|0:0,0:0:0:0:
136,248,7557,5,2,0:0:0:0:
136,248,7952,1,0,0:0:0:0:
160,128,8149,2,0,P|160:88|156:60,1,60,2|2,0:0|0:0,0:0:0:0:
60,40,8544,1,0,0:0:0:0:
264,92,8741,5,2,0:0:0:0:
276,91,8840,1,0,0:0:0:0:
287,90,8938,1,0,0:0:0:0:
299,89,9531,1,2,0:0:0:0:
311,89,9925,5,2,3:2:0:0:
416,56,10123,1,0,0:0:0:0:
456,160,10320,1,0,0:0:0:0:
351,193,10518,1,2,0:0:0:0:
468,176,10715,2,0,P|492:180|532:180,1,60,0|2,3:0|0:0,0:0:0:0:
336,216,11110,6,0,P|309:223|209:223,1,120,2|0,3:2|0:0,0:0:0:0:
72,280,11702,1,2,0:0:0:0:
72,280,11899,2,0,P|64:212|64:200,1,60,0|2,0:0|0:0,0:0:0:0:
148,152,12294,22,0,P|156:108|160:24,1,120,2|0,3:2|0:0,0:0:0:0:
64,80,12886,1,0,0:0:0:0:
172,48,13083,1,2,3:2:0:0:
280,88,13281,1,0,0:0:0:0:
400,48,13478,21,2,3:2:0:0:
416,52,13589,2,2,P|428:132|432:168,1,105,0|2,0:0|0:0,0:0:0:0:
444,168,14567,5,0,0:0:0:0:
360,264,14768,6,0,P|324:272|240:272,1,120,2|0,3:2|0:0,0:0:0:0:
88,220,15360,1,0,0:0:0:0:
88,220,15557,2,0,P|144:220|172:212,1,60,2|0,3:2|0:0,0:0:0:0:
240,164,15952,21,2,3:2:0:0:
240,164,16346,1,0,0:0:0:0:
252,72,16544,1,0,0:0:0:0:
344,88,16741,1,2,0:0:0:0:
332,180,16939,1,0,0:0:0:0:
236,56,17136,6,0,P|208:60|176:60,1,60,2|0,3:2|0:0,0:0:0:0:
344,88,17531,1,0,0:0:0:0:
436,52,17728,1,0,0:0:0:0:
424,148,17925,2,0,P|428:200|432:216,1,60
356,316,18320,6,2,P|292:312|256:312,1,90,2|0,3:2|0:0,0:0:0:0:
232,288,19110,6,0,P|260:292|296:292,1,60,2|0,0:0|0:0,0:0:0:0:
440,200,19504,6,0,P|396:196|304:196,1,120,6|0,3:2|0:0,0:0:0:0:
236,128,20088,1,0,0:0:0:0:
236,128,20283,2,0,L|232:64,1,60,2|0,3:2|0:0,0:0:0:0:
144,200,20672,22,0,P|140:268|124:332,1,120,2|0,3:2|0:0,0:0:0:0:
40,268,21257,1,0,0:0:0:0:
140,332,21452,2,0,P|179:329|215:329,1,60,2|0,3:2|0:0,0:0:0:0:
408,272,21841,6,0,P|348:276|272:272,1,120,2|0,3:2|0:0,0:0:0:0:
224,184,22426,1,2,0:0:0:0:
224,184,22620,2,0,P|220:140|220:96,1,60,2|0,3:2|0:0,0:0:0:0:
332,104,23010,22,0,L|392:97,1,60,2|0,3:2|0:0,0:0:0:0:
260,20,23400,2,0,L|200:12,1,60
68,72,23789,1,0,3:0:0:0:
68,72,24179,6,0,P|60:128|64:212,1,120,2|0,3:2|0:0,0:0:0:0:
120,292,24763,1,0,0:0:0:0:
120,292,24958,2,0,P|156:288|188:288,1,60,0|0,3:0|0:0,0:0:0:0:
296,312,25348,22,0,P|304:256|300:168,1,120,2|0,3:2|0:0,0:0:0:0:
212,80,25932,1,0,0:0:0:0:
212,80,26127,2,0,P|208:124|208:152,1,60,2|0,3:2|0:0,0:0:0:0:
308,92,26516,6,0,P|376:92|448:72,1,120,2|0,3:2|0:0,0:0:0:0:
264,0,27101,1,0,0:0:0:0:
204,96,27296,2,0,P|172:104|144:104,1,60,0|0,3:0|0:0,0:0:0:0:
56,32,27685,21,0,3:0:0:0:
140,88,27880,1,0,0:0:0:0:
48,136,28075,1,0,3:0:0:0:
81,85,28270,5,0,0:0:0:0:
192,160,28465,1,2,3:2:0:0:
82,218,28659,1,0,0:0:0:0:
118,152,28854,21,6,3:2:0:0:
388,256,29244,2,0,L|380:316,1,60
364,228,29633,1,2,3:2:0:0:
428,152,29828,1,0,0:0:0:0:
364,72,30023,6,0,P|336:76|220:76,1,120,2|0,3:2|0:0,0:0:0:0:
128,56,30607,1,2,0:0:0:0:
232,96,30802,2,0,P|264:92|304:92,1,60,2|0,3:2|0:0,0:0:0:0:
144,292,31192,22,0,P|136:240|144:172,1,120,2|0,3:2|0:0,0:0:0:0:
240,236,31776,1,2,0:0:0:0:
336,196,31971,2,0,L|276:200,1,60,2|0,3:2|0:0,0:0:0:0:
256,316,32361,6,0,P|320:308|400:304,1,120,2|0,3:2|0:0,0:0:0:0:
448,220,32945,1,0,0:0:0:0:
512,320,33140,1,0,3:0:0:0:
452,208,33335,1,2,0:0:0:0:
456,196,33432,1,2,0:0:0:0:
460,184,33529,22,0,P|456:136|456:48,1,120,2|0,3:2|3:0,0:0:0:0:
352,24,34114,1,0,0:0:0:0:
352,24,34309,2,0,P|352:60|348:100,1,60,0|0,3:0|0:0,0:0:0:0:
272,148,34698,6,0,P|232:144|136:144,1,120,2|0,3:2|0:0,0:0:0:0:
52,208,35283,1,2,0:0:0:0:
168,156,35478,2,0,L|164:88,1,60,2|0,3:2|0:0,0:0:0:0:
32,180,35867,22,0,P|36:304|40:320,1,120,2|0,3:2|0:0,0:0:0:0:
120,352,36452,1,0,0:0:0:0:
220,316,36646,1,0,3:0:0:0:
132,348,36841,1,0,0:0:0:0:
232,320,37036,5,4,3:0:0:0:
244,324,37426,1,4,3:0:0:0:
