osu file format v12

[General]
AudioFilename: BW2BGM.mp3
AudioLeadIn: 2000
PreviewTime: 19504
Countdown: 0
SampleSet: Soft
StackLeniency: 0.5
Mode: 0
LetterboxInBreaks: 0
WidescreenStoryboard: 0

[Editor]
DistanceSpacing: 1.3
BeatDivisor: 2
GridSize: 4

[Metadata]
Title:Relic Song
TitleUnicode:いにしえのうた
Artist:Shouta Kageyama
ArtistUnicode:景山将太
Creator:Leader
Version:Hard
Source:Pokemon: Black/White 2
Tags:メロエッタ Meroetta Meloetta's Event Nintendo Nemis Roxas Irreversibile Kurai Sey Deif
BeatmapID:280625
BeatmapSetID:107009

[Difficulty]
HPDrainRate:6
CircleSize:4
OverallDifficulty:6
ApproachRate:7
SliderMultiplier:1.2
SliderTickRate:1

[Events]
//Background and Video events
0,0,"Pokemon.full.1518318.jpg",0,0
//Break Periods
//Storyboard Layer 0 (Background)
//Storyboard Layer 1 (Fail)
//Storyboard Layer 2 (Pass)
//Storyboard Layer 3 (Foreground)
//Storyboard Sound Samples
//Background Colour Transformations
3,100,163,162,255

[TimingPoints]
347,394.736842105263,3,2,1,50,1,0
3899,444.444444444444,3,2,1,50,1,0
4787,402.684563758389,3,2,1,50,1,0
5189,394.736842105263,3,2,1,50,1,0
13478,444.444444444444,3,2,1,50,1,0
13811,-100,3,2,1,15,0,0
14366,402.684563758389,3,2,1,50,1,0
14768,394.736842105263,3,2,1,50,1,0
18320,-133.333333333333,3,2,1,50,0,0
19504,389.61038961039,3,2,1,50,1,0
19504,-100,3,2,1,50,0,1
27685,-133.333333333333,3,2,1,50,0,0
28854,-100,3,2,1,50,0,1
37426,-100,3,2,1,50,0,0

[Colours]
Combo1 : 225,225,225
Combo2 : 23,128,75
Combo3 : 26,219,107

[HitObjects]
152,132,347,2,0,P|200:148|244:224,1,120,2|0,0:0|0:0,0:0:0:0:
312,236,939,2,0,L|328:168,2,60,2|0|2,0:0|0:0|0:0,0:0:0:0:
364,292,1531,2,0,P|424:280|440:216,1,120,2|0,0:0|0:0,0:0:0:0:
400,164,2123,1,2,0:0:0:0:
372,92,2320,1,0,0:0:0:0:
408,24,2518,1,2,0:0:0:0:
372,92,2715,6,0,B|324:76|280:84|280:84|260:132,1,120,2|0,0:0|0:0,0:0:0:0:
256,232,3504,1,2,0:0:0:0:
184,352,3899,1,2,0:0:0:0:
184,352,4787,21,2,0:0:0:0:
148,284,4988,1,0,0:0:0:0:
132,208,5189,2,0,P|132:160|188:108,1,120,2|0,0:0|0:0,0:0:0:0:
208,184,5781,1,2,0:0:0:0:
284,164,5978,2,0,P|284:212|268:240,1,60,2|0,0:0|0:0,0:0:0:0:
264,300,6373,2,0,P|328:312|392:296,1,120,2|0,0:0|0:0,0:0:0:0:
436,156,7162,5,2,0:0:0:0:
436,156,7557,2,0,P|380:156|332:116,1,120,2|0,0:0|0:0,0:0:0:0:
260,84,8149,2,0,P|220:84|180:100,2,60,2|2|0,0:0|0:0|0:0,0:0:0:0:
236,160,8741,1,2,0:0:0:0:
236,160,8840,1,0,0:0:0:0:
236,160,8938,2,0,P|184:168|128:112,1,120,0|0,0:0|0:0,0:0:0:0:
56,116,9531,21,2,0:0:0:0:
56,116,9925,2,0,B|40:148|40:148|64:256,1,120,2|0,3:2|0:0,0:0:0:0:
108,292,10517,1,2,0:0:0:0:
216,328,10715,1,0,3:0:0:0:
188,224,10912,1,2,0:0:0:0:
188,224,11110,2,0,P|252:196|320:208,1,120,2|0,3:2|0:0,0:0:0:0:
344,136,11702,2,0,L|328:72,2,60,2|0|2,0:0|0:0|0:0,0:0:0:0:
376,208,12294,2,0,B|384:240|384:240|368:332,1,120,2|0,3:2|0:0,0:0:0:0:
216,360,13083,1,2,3:2:0:0:
216,360,13478,22,0,P|176:312|184:232,1,120,2|0,3:2|0:0,0:0:0:0:
220,96,14366,22,0,P|255:93|296:112,1,60,2|0,0:0|0:0,0:0:0:0:
344,144,14768,2,0,P|308:176|232:160,1,120,2|0,3:2|0:0,0:0:0:0:
84,160,15557,2,0,L|80:232,1,60,2|0,3:2|0:0,0:0:0:0:
84,296,15952,2,0,P|144:276|220:292,1,120,2|0,3:2|0:0,0:0:0:0:
348,332,16741,1,2,0:0:0:0:
420,196,17136,2,0,P|360:176|284:192,2,120,2|0|0,3:2|0:0|0:0,0:0:0:0:
232,212,18320,6,0,P|200:168|192:120,1,90.0000034332277,2|0,3:2|0:0,0:0:0:0:
224,296,19110,1,2,0:0:0:0:
224,296,19504,6,0,P|284:308|360:292,1,120,6|0,3:2|0:0,0:0:0:0:
384,232,20088,1,0,0:0:0:0:
496,176,20283,2,0,P|464:168|432:176,1,60,2|0,3:2|0:0,0:0:0:0:
384,232,20672,2,0,P|360:176|381:116,1,120,2|0,3:2|0:0,0:0:0:0:
284,116,21257,1,0,0:0:0:0:
284,116,21452,2,0,P|288:153|280:185,1,60,2|0,3:2|0:0,0:0:0:0:
256,248,21841,6,0,P|192:236|116:260,1,120,2|0,3:2|0:0,0:0:0:0:
64,272,22426,1,2,0:0:0:0:
64,272,22620,1,2,3:2:0:0:
256,344,23010,1,0,0:0:0:0:
448,272,23400,2,0,L|440:200,1,60,0|0,0:0|0:0,0:0:0:0:
356,128,23789,2,0,L|364:200,1,60,0|0,3:0|0:0,0:0:0:0:
292,220,24179,22,0,P|232:208|172:220,1,120,2|0,3:2|0:0,0:0:0:0:
100,236,24763,1,0,0:0:0:0:
88,312,24958,2,0,P|95:340|111:366,1,60,0|0,3:0|0:0,0:0:0:0:
116,156,25348,2,0,L|132:84,1,60,2|0,3:2|0:0,0:0:0:0:
248,100,25737,2,0,L|266:158,1,60,0|0,0:0|0:0,0:0:0:0:
384,96,26127,2,0,L|360:20,1,60,2|0,3:2|0:0,0:0:0:0:
296,108,26516,6,0,L|276:244,1,120,2|0,3:2|0:0,0:0:0:0:
264,304,27101,1,0,0:0:0:0:
192,268,27296,2,0,P|185:240|160:208,1,60,0|0,3:0|0:0,0:0:0:0:
128,324,27685,6,0,P|84:328|40:352,2,90.0000034332277,0|0|2,3:0|3:0|3:2,0:0:0:0:
160,144,28854,6,0,P|180:200|160:260,1,120,6|0,3:2|0:0,0:0:0:0:
128,324,29439,1,0,0:0:0:0:
252,256,29633,2,0,P|280:248|324:256,1,60,2|0,3:2|0:0,0:0:0:0:
388,268,30023,2,0,P|408:204|388:144,1,120,2|0,3:2|0:0,0:0:0:0:
344,96,30607,1,2,0:0:0:0:
284,148,30802,2,0,L|280:212,1,60,2|0,3:2|0:0,0:0:0:0:
244,80,31192,6,0,P|192:72|128:92,1,120,2|0,3:2|0:0,0:0:0:0:
60,128,31776,1,2,0:0:0:0:
60,128,31971,2,0,L|72:188,1,60,2|0,3:2|0:0,0:0:0:0:
128,288,32361,2,0,L|118:347,1,60,2|0,3:2|0:0,0:0:0:0:
303,327,32750,2,0,L|296:268,2,60,0|0|0,0:0|0:0|3:0,0:0:0:0:
284,192,33335,21,2,0:0:0:0:
284,192,33432,1,2,0:0:0:0:
284,192,33529,2,0,P|348:180|404:196,1,120,2|0,3:2|3:0,0:0:0:0:
464,148,34114,2,0,L|452:68,2,60,0|0|0,0:0|3:0|0:0,0:0:0:0:
476,224,34698,2,0,P|472:288|428:344,1,120,2|0,3:2|0:0,0:0:0:0:
364,348,35283,1,2,0:0:0:0:
288,328,35478,1,2,3:2:0:0:
288,328,35867,6,0,P|241:302|168:308,1,120,2|0,3:2|0:0,0:0:0:0:
128,244,36452,2,0,L|76:172,2,60,0|0|0,0:0|3:0|0:0,0:0:0:0:
176,305,37036,21,0,3:0:0:0:
396,244,37426,1,4,3:0:0:0:
