osu file format v12

[General]
AudioFilename: BW2BGM.mp3
AudioLeadIn: 2000
PreviewTime: 19504
Countdown: 0
SampleSet: Soft
StackLeniency: 0.7
Mode: 1
LetterboxInBreaks: 0
WidescreenStoryboard: 0

[Editor]
DistanceSpacing: 1.1
BeatDivisor: 4
GridSize: 4

[Metadata]
Title:Relic Song
TitleUnicode:いにしえのうた
Artist:Shouta Kageyama
ArtistUnicode:景山将太
Creator:Leader
Version:Futsuu
Source:Pokemon: Black/White 2
Tags:メロエッタ Meroetta Meloetta's Event Nintendo Nemis Roxas Irreversibile Kurai Sey Deif
BeatmapID:280624
BeatmapSetID:107009

[Difficulty]
HPDrainRate:4
CircleSize:4
OverallDifficulty:4
ApproachRate:4
SliderMultiplier:1.4
SliderTickRate:1

[Events]
//Background and Video events
0,0,"Pokemon.full.1518318.jpg",0,0
//Break Periods
//Storyboard Layer 0 (Background)
//Storyboard Layer 1 (Fail)
//Storyboard Layer 2 (Pass)
//Storyboard Layer 3 (Foreground)
//Storyboard Sound Samples
//Background Colour Transformations
3,100,163,162,255

[TimingPoints]
347,394.736842105263,3,2,0,50,1,0
3899,444.444444444444,3,2,0,50,1,0
3899,-87.719298245614,3,2,0,50,0,0
4787,402.684563758389,3,2,0,50,1,0
5189,394.736842105263,3,2,0,50,1,0
13478,444.444444444444,3,2,0,50,1,0
13478,-87.719298245614,3,2,0,50,0,0
14366,402.684563758389,3,2,0,50,1,0
14768,394.736842105263,3,2,0,50,1,0
19504,389.61038961039,3,2,0,50,1,0
19504,-100,3,2,0,50,0,1
37426,-100,3,2,0,50,0,0

[Colours]
Combo1 : 26,219,107
Combo2 : 23,128,75

[HitObjects]
256,192,347,1,0,0:0:0:0:
256,192,1136,1,0,0:0:0:0:
256,192,1531,1,2,0:0:0:0:
256,192,2320,1,0,0:0:0:0:
256,192,2715,1,2,0:0:0:0:
256,192,3504,1,2,0:0:0:0:
256,192,3899,1,2,0:0:0:0:
256,192,4787,1,0,0:0:0:0:
256,192,5189,1,2,0:0:0:0:
256,192,5978,1,2,0:0:0:0:
256,192,6373,1,2,0:0:0:0:
256,192,7162,1,0,0:0:0:0:
256,192,7557,1,2,0:0:0:0:
256,192,8346,1,2,0:0:0:0:
256,192,8741,1,2,0:0:0:0:
256,192,9531,1,2,0:0:0:0:
256,192,9925,1,0,0:0:0:0:
256,192,10715,1,0,0:0:0:0:
256,192,11110,1,2,0:0:0:0:
256,192,11899,1,0,0:0:0:0:
256,192,12294,1,2,0:0:0:0:
256,192,13083,1,2,0:0:0:0:
256,192,13478,1,2,0:0:0:0:
256,192,14366,1,0,0:0:0:0:
256,192,14768,1,2,0:0:0:0:
256,192,15557,1,2,0:0:0:0:
256,192,15952,1,2,0:0:0:0:
256,192,16741,1,0,0:0:0:0:
256,192,17136,1,2,0:0:0:0:
256,192,18320,1,6,0:0:0:0:
256,192,19110,1,0,0:0:0:0:
256,192,19504,1,2,0:0:0:0:
256,192,20283,1,0,0:0:0:0:
256,192,20672,1,2,0:0:0:0:
256,192,21452,1,2,0:0:0:0:
256,192,21841,1,2,0:0:0:0:
256,192,22620,1,0,0:0:0:0:
256,192,23010,1,0,0:0:0:0:
256,192,24179,1,2,0:0:0:0:
256,192,25348,1,0,0:0:0:0:
256,192,26127,1,2,0:0:0:0:
256,192,26516,1,2,0:0:0:0:
256,192,27685,1,0,0:0:0:0:
256,192,28075,1,2,0:0:0:0:
256,192,28465,1,0,0:0:0:0:
256,192,28854,1,2,0:0:0:0:
256,192,29633,1,0,0:0:0:0:
256,192,30023,1,2,0:0:0:0:
256,192,30802,1,0,0:0:0:0:
256,192,31192,1,2,0:0:0:0:
256,192,31971,1,2,0:0:0:0:
256,192,32361,1,0,0:0:0:0:
256,192,33529,1,0,0:0:0:0:
256,192,34698,1,2,0:0:0:0:
256,192,35867,1,0,0:0:0:0:
256,192,37036,1,4,0:0:0:0:
256,192,37426,1,4,0:0:0:0:
