osu file format v9

[General]
AudioFilename: neu HYPER.mp3
AudioLeadIn: 0
PreviewTime: 100562
Countdown: 0
SampleSet: Soft
StackLeniency: 0.4
Mode: 0
LetterboxInBreaks: 1

[Editor]
DistanceSpacing: 0.7
BeatDivisor: 4
GridSize: 8

[Metadata]
Title:neu
Artist:Shounen Radio
Creator:v2b
Version:Hyper
Source:Pop'n Music 15
Tags:wac niente

[Difficulty]
HPDrainRate:4
CircleSize:4
OverallDifficulty:7
ApproachRate:8
SliderMultiplier:1.5
SliderTickRate:0.5

[Events]
//Background and Video events
0,0,"neu HYPER-bg.png"
//Break Periods
//Storyboard Layer 0 (Background)
//Storyboard Layer 1 (Fail)
//Storyboard Layer 2 (Pass)
//Storyboard Layer 3 (Foreground)
//Storyboard Sound Samples
//Background Colour Transformations
3,100,163,162,255

[TimingPoints]
2619,302.29746070133,4,2,0,30,1,0
8211,-100,4,1,0,40,0,0
8589,-100,4,2,0,30,0,0
11839,-100,4,1,1,40,0,0
22570,-100,4,1,1,60,0,0
42522,302.29746070133,3,2,0,50,1,0
70106,-100,3,1,1,40,0,0
70333,302.29746070133,4,1,1,60,1,0
100562,-100,4,1,1,60,0,1
119909,-100,4,1,1,60,0,0

[Colours]
Combo1 : 196,136,255
Combo2 : 0,64,128
Combo3 : 6,255,255
Combo4 : 255,0,128

[HitObjects]
75,37,3828,1,4
75,37,4130,1,0
217,85,4432,1,0
217,85,4735,1,0
133,209,5037,1,0
133,209,5339,1,0
277,248,5641,1,0
277,248,5944,1,0
431,114,6246,5,0
431,114,6548,1,0
289,162,6851,1,0
289,162,7153,1,0
373,286,7455,1,0
373,286,7758,1,0
229,325,8060,1,0
229,325,8362,1,0
153,325,8513,1,0
87,288,8664,5,4
87,288,8967,1,0
142,148,9269,1,0
142,148,9571,1,0
274,218,9874,1,0
274,218,10176,1,0
329,78,10478,1,0
329,78,10781,1,0
400,316,11083,5,0
400,316,11385,1,0
253,284,11687,1,0
253,284,11990,1,0
179,266,12141,1,0
24,85,12443,5,0
96,104,12594,1,0
170,97,12745,1,0
245,100,12897,1,0
317,120,13048,1,0
389,102,13199,1,0
463,91,13350,1,0
424,168,13501,5,4
280,360,13804,1,4
88,216,14106,1,4
232,24,14408,1,4
425,206,14710,5,4
241,361,15013,1,4
86,177,15315,1,4
270,22,15617,1,4
417,244,15920,5,4
203,353,16222,1,4
94,139,16524,1,4
308,30,16826,1,4
401,279,17129,5,4
168,337,17431,1,4
110,104,17733,1,4
343,46,18036,1,4
408,82,18187,5,0
453,142,18338,2,0,B|482:216,1,75,4|0
405,217,18640,2,0,B|400:315,1,75,4|0
330,266,18943,2,0,B|296:341,1,75,4|0
235,294,19245,2,0,B|173:346,1,75,4|0
104,324,19547,5,4
44,277,19698,1,0
19,206,19849,1,4
30,131,20001,1,0
66,65,20152,1,4
132,29,20303,1,0
205,18,20454,1,4
279,27,20605,1,0
350,49,20756,6,0,B|386:86|385:120,1,75,4|0
316,145,21059,2,0,B|342:203|321:235,1,75,4|0
253,223,21361,2,0,B|257:270|229:317,1,75,4|0
165,282,21663,2,0,B|157:328|123:352,1,75,4|0
65,306,21966,2,0,B|36:344|-8:354,1,75
32,66,23175,5,4
102,92,23326,1,0
102,92,23401,1,0
102,92,23477,1,0
175,81,23628,2,0,B|255:69|328:95,1,150,8|0
393,120,24082,1,8
448,259,24384,5,0
378,285,24535,1,0
378,285,24611,1,0
378,285,24686,1,0
305,274,24837,2,0,B|225:262|152:288,1,150,8|0
87,313,25291,1,8
21,178,25593,5,0
93,157,25744,1,0
93,157,25820,1,0
93,157,25895,1,0
164,179,26047,1,8
236,199,26198,2,0,B|304:216|342:212,1,75,0|8
377,179,26500,2,0,B|420:173|471:181,1,75,0|8
506,229,26802,5,0
472,296,26953,1,8
398,313,27105,1,0
506,155,27407,5,0
472,88,27558,1,8
398,71,27709,1,0
137,33,28011,5,0
84,86,28163,1,0
51,153,28314,1,8
46,228,28465,2,0,B|-9:247,2,37.5
118,209,28767,1,0
189,187,28918,1,8
261,166,29070,2,0,B|304:187,2,37.5
191,136,29372,1,0
122,104,29523,1,8
183,60,29674,1,0
256,46,29825,1,8
330,53,29976,1,0
399,82,30128,1,0
459,126,30279,1,8
482,197,30430,5,8
482,197,30581,1,0
482,197,30732,1,0
467,270,30883,1,8
392,263,31034,1,8
392,263,31186,1,0
392,263,31337,1,0
377,336,31488,1,8
303,320,31639,5,0
284,316,31715,1,0
265,313,31790,1,8
246,311,31866,1,0
227,311,31941,1,8
152,319,32093,1,0
83,287,32244,2,0,B|32:209,1,75,0|8
91,167,32546,2,0,B|44:95,1,75,8|0
19,34,32848,5,8
93,22,32999,1,0
162,49,33151,1,8
235,62,33302,1,0
252,67,33377,1,0
270,68,33453,1,0
345,64,33604,1,8
419,54,33755,1,8
495,233,34057,5,0
476,237,34133,1,8
457,240,34209,1,0
382,245,34360,1,0
307,232,34511,1,8
235,253,34662,1,8
163,274,34813,1,0
88,282,34964,1,0
14,268,35115,1,8
32,169,35267,6,0,B|54:88,1,75
164,122,35569,2,0,B|144:35,1,75,8|0
292,75,35871,2,0,B|258:169,1,75,0|8
385,125,36174,2,0,B|419:208,1,75,8|0
256,326,36476,6,0,B|213:334,2,37.5,0|0|8
256,222,36778,2,0,B|301:230,2,37.5,8|0|0
257,113,37080,2,0,B|211:125,2,37.5,0|0|8
256,16,37383,2,0,B|308:28,2,37.5,8|0|0
162,26,37685,5,8
97,63,37836,1,0
57,126,37987,1,0
57,126,38063,1,0
57,126,38138,2,0,B|91:205|91:279,1,150,8|0
69,343,38592,1,0
69,343,38667,1,0
69,343,38743,1,8
143,331,38894,5,0
161,328,38970,1,0
179,326,39045,1,8
197,326,39121,1,0
215,326,39196,1,8
289,335,39348,1,0
363,325,39499,2,0,B|449:316,1,75,8|0
455,244,39801,2,0,B|355:254,1,75,8|0
304,246,40103,5,0
304,246,40179,1,8
304,246,40255,1,0
230,230,40406,1,8
230,230,40557,1,0
279,173,40708,1,0
279,173,40784,1,8
279,173,40859,1,0
353,157,41010,1,8
353,157,41161,1,0
304,99,41313,1,0
304,99,41388,1,8
304,99,41464,1,0
230,83,41615,1,8
230,83,41766,1,0
275,23,41917,2,0,B|346:14,6,37.5,8|0|8|0|8|0|8
396,37,42522,5,0
464,116,42824,1,0
461,220,43126,1,0
461,220,43428,1,0
405,309,43731,1,0
308,351,44033,1,0
308,351,44335,1,0
202,347,44638,1,0
101,317,44940,1,0
101,317,45242,2,0,B|41:265|45:179,2,150
160,216,46149,6,0,B|192:151|170:58,1,150
172,69,46754,1,0
265,20,47056,2,0,B|291:64|323:71,1,75
369,55,47358,2,0,B|412:70|428:112,1,75
404,151,47661,2,0,B|426:201|469:222,1,75
478,253,47963,5,0
478,253,48265,1,0
478,253,48567,1,0
34,131,48870,5,0
34,131,49172,1,0
34,131,49474,1,0
114,63,49777,6,0,B|176:26|271:41,1,150
259,39,50381,1,0
445,165,50684,2,0,B|383:128|288:143,1,150
300,141,51288,1,0
118,272,51590,2,0,B|180:235|275:250,2,150
461,348,52497,2,0,B|399:311|304:326,2,150
473,156,53404,5,0
372,186,53707,1,0
473,156,54009,1,0
46,254,54311,1,0
147,284,54613,1,0
46,254,54916,1,0
463,265,55218,1,0
362,235,55520,1,0
463,265,55823,1,0
36,167,56125,1,0
137,137,56427,1,0
36,167,56729,1,0
401,42,57032,6,0,B|465:70|452:135|399:153,1,150
91,94,57636,1,0
87,239,57939,2,0,B|23:267|36:332|89:350,1,150
397,291,58543,1,0
256,360,58846,5,0
167,304,59148,1,0
206,206,59450,1,0
274,189,59652,1,0
274,189,59752,1,0
344,110,60055,1,0
272,33,60357,1,0
203,18,60559,1,0
203,18,60659,1,0
115,77,60962,5,0
108,181,61264,1,0
176,260,61566,1,0
236,294,61768,1,0
236,294,61869,1,0
305,299,62070,1,0
305,299,62171,1,0
320,163,62473,6,0,B|266:137|220:191|161:156,2,150
320,163,63380,1,0
229,345,63582,2,0,B|248:272,1,50
286,31,63884,2,0,B|272:96,1,50
106,316,64287,5,0
207,289,64589,1,0
312,283,64892,1,0
414,258,65194,1,0
326,200,65496,1,0
222,180,65798,1,0
116,173,66101,1,0
201,111,66403,1,0
304,96,66705,1,0
408,88,67008,1,0
319,32,67310,1,0
214,20,67612,1,0
114,52,67914,6,0,B|89:108|96:152,1,100
130,149,68217,2,0,B|158:204|224:218,1,100
233,193,68519,2,0,B|320:208|368:284,2,150
212,259,69325,1,0
212,259,69426,2,0,B|164:326|71:335,2,150
277,297,70182,5,0
277,297,70333,1,0
426,172,70635,1,0
377,114,70786,1,0
311,78,70937,1,0
236,67,71088,1,0
161,76,71239,1,4
95,111,71391,1,4
57,175,71542,5,4
57,175,71844,1,0
35,285,71995,1,0
35,285,72297,1,0
133,340,72449,1,0
133,340,72751,1,0
221,271,72902,1,0
221,271,73204,1,0
178,166,73355,1,0
126,247,73658,5,0
446,80,73960,5,4
446,80,74262,1,0
443,192,74414,1,0
443,192,74716,1,0
335,224,74867,1,0
335,224,75169,1,0
265,137,75320,1,0
265,137,75623,1,0
330,44,75774,1,0
363,135,76076,5,0
72,280,76378,5,4
72,280,76681,1,0
181,304,76832,1,0
181,304,77134,1,0
291,285,77285,1,0
291,285,77588,1,0
400,257,77739,1,0
400,257,78041,1,0
509,282,78192,1,0
72,280,78495,5,0
440,128,78797,5,4
440,128,79099,1,0
331,152,79250,1,0
331,152,79553,1,0
221,133,79704,1,0
221,133,80006,1,0
112,105,80157,1,0
112,105,80459,1,0
3,130,80611,1,0
440,128,80913,5,0
265,340,81215,5,4
265,340,81518,1,0
375,322,81669,1,0
375,322,81971,1,0
305,233,82122,1,0
305,233,82424,1,0
416,213,82576,1,0
416,213,82878,1,0
340,129,83029,1,0
340,129,83180,1,0
448,99,83331,1,0
195,39,83634,5,4
195,39,83937,1,0
85,57,84088,1,0
85,57,84390,1,0
155,146,84541,1,0
155,146,84843,1,0
44,166,84995,1,0
44,166,85297,1,0
120,250,85448,1,0
120,250,85599,1,0
12,280,85750,1,0
312,192,86052,5,4
312,192,86354,1,0
200,192,86505,1,0
200,192,86808,1,0
312,192,86959,1,0
312,192,87261,1,0
200,192,87412,1,0
200,192,87715,1,0
256,256,87866,5,0
256,120,88017,1,0
256,256,88168,1,0
32,48,88470,6,0,B|176:104,1,150,4|0
480,48,88924,2,0,B|336:104,1,150
256,352,89377,2,0,B|256:200,1,150
256,128,89831,1,0
256,192,89982,12,4,90889
256,192,91191,5,0
96,32,91493,2,0,B|40:96|40:192,1,150
256,192,92098,5,0
256,192,92400,1,0
416,352,92703,2,0,B|472:288|472:192,1,150
200,72,93307,6,0,B|120:104|24:104,1,150
452,106,93912,2,0,B|388:70|296:70|295:70,1,150
312,312,94516,6,0,B|392:280|488:280,1,150
60,278,95121,2,0,B|124:314|216:314|217:314,1,150
400,46,95725,5,4
447,104,95877,1,0
373,118,96028,1,0
112,338,96330,5,0
65,280,96482,1,0
139,266,96633,1,0
400,338,96935,5,0
447,280,97087,1,0
373,266,97238,1,0
112,46,97539,5,0
65,104,97690,1,0
139,118,97842,1,0
386,39,98144,5,0
424,103,98295,1,0
341,108,98446,1,0
368,193,98597,1,0
278,155,98748,1,0
290,259,98900,1,0
204,185,99051,1,0
192,304,99202,1,0
81,282,99353,6,0,B|51:234|46:183,1,75
37,101,99655,2,0,B|66:66|98:40,1,75
200,26,99958,1,0
221,40,100033,1,0
246,48,100109,1,0
271,53,100184,1,0
297,57,100260,1,0
323,60,100336,1,0
348,62,100411,1,0
374,61,100487,1,0
400,59,100562,6,0,B|458:45|483:49,1,75,4|0
493,121,100865,2,0,B|460:150|441:195,1,75,8|0
437,204,101091,1,0
422,226,101167,2,0,B|396:260|352:269,1,75
286,274,101469,1,8
211,268,101620,1,0
184,264,101696,1,0
157,263,101771,2,0,B|110:263|75:274,1,75
9,289,102074,1,8
9,289,102225,1,0
14,214,102376,2,0,B|26:163,1,37.5,8|0
46,148,102527,2,0,B|70:112,1,37.5
99,97,102678,2,0,B|136:77|163:44,1,75,8|0
231,36,102981,6,0,B|279:29,2,37.5,0|0|8
247,109,103283,1,0
235,182,103434,1,8
268,248,103585,1,8
268,248,103661,1,0
268,248,103736,1,0
305,313,103888,2,0,B|346:340|396:344,1,75,0|8
443,313,104190,6,0,B|489:303,1,37.5
455,276,104341,2,0,B|501:266,1,37.5,8|0
467,239,104492,2,0,B|376:206,1,75,0|8
306,188,104794,2,0,B|260:178,1,37.5
294,151,104945,2,0,B|248:141,1,37.5,8|0
282,114,105096,2,0,B|373:81,1,75,0|8
424,64,105399,6,0,B|503:36,2,75,0|8|0
353,90,105852,1,0
353,90,105928,1,0
353,90,106004,1,8
278,82,106155,1,0
204,95,106306,1,0
133,121,106457,1,8
133,121,106533,1,0
133,121,106608,1,0
72,165,106759,1,8
40,233,106910,2,0,B|28:281|46:328,1,75,0|8
106,342,107213,1,8
180,331,107364,1,0
254,332,107515,1,0
328,321,107666,1,8
394,286,107817,6,0,B|422:193,1,75,8|0
425,177,108044,1,0
434,140,108120,1,0
443,103,108195,1,0
452,66,108271,1,8
371,22,108422,2,0,B|343:115,1,75,8|0
340,131,108649,1,0
331,168,108725,1,0
322,205,108800,1,0
313,242,108876,1,8
232,288,109027,2,0,B|212:204,1,75,8|0
198,141,109329,1,0
181,67,109480,1,8
83,47,109631,1,8
88,84,109707,1,0
98,119,109782,1,8
105,155,109858,1,0
114,191,109933,1,8
123,227,110009,1,0
132,263,110085,1,8
145,336,110236,6,0,B|98:350|46:354,1,75,8|0
220,328,110538,1,0
246,331,110614,1,0
272,329,110689,1,8
331,259,110840,2,0,B|378:273|430:277,1,75,8|0
256,251,111142,1,0
230,254,111218,1,0
204,252,111293,1,8
147,180,111445,2,0,B|100:194|48:198,1,75,8|0
222,172,111747,1,0
248,175,111823,1,0
274,173,111898,1,8
345,149,112050,2,0,B|384:130|438:128,1,75,8|0
500,32,112352,2,0,B|462:52|408:57,1,75,8|0
354,60,112654,6,0,B|311:47|259:56,1,75,8|0
205,63,112956,1,0
133,87,113108,1,8
70,128,113259,1,0
49,143,113334,1,0
30,162,113410,1,8
15,183,113485,1,0
5,207,113561,1,8
0,281,113712,1,0
50,336,113863,2,0,B|97:322,1,37.5
121,336,114014,2,0,B|177:320,1,37.5,8|0
194,333,114166,2,0,B|250:317,3,37.5,0|8|0|0
267,330,114468,2,0,B|314:316,1,37.5
338,330,114619,2,0,B|394:314,1,37.5,8|0
411,327,114771,2,0,B|467:311,2,37.5,8|0|0
476,106,115073,5,0
424,160,115224,1,0
364,114,115375,1,8
338,141,115450,1,0
312,168,115526,1,8
254,119,115677,1,0
202,173,115828,1,0
142,127,115979,1,8
116,154,116054,1,0
90,181,116130,1,8
36,269,116282,5,0
61,295,116357,1,0
88,323,116433,1,0
148,277,116584,1,8
200,331,116735,1,8
258,282,116886,1,0
282,310,116962,1,0
310,336,117037,1,0
370,290,117188,1,8
422,344,117339,1,8
453,183,117491,6,0,B|466:143|464:96,1,75,8|0
390,121,117793,2,0,B|360:93|344:51,1,75,8|0
276,36,118095,2,0,B|234:71|218:103,1,75,8|0
172,144,118398,2,0,B|131:173|87:168,1,75,8|0
40,259,118700,5,0
68,268,118776,1,0
97,274,118851,1,0
127,276,118927,1,0
156,274,119002,1,0
186,271,119078,1,0
215,267,119154,1,0
244,266,119229,1,0
274,266,119305,1,0
303,268,119380,1,0
332,271,119456,1,0
360,278,119531,1,0
388,287,119607,1,0
416,298,119683,1,0
444,307,119758,1,0
470,321,119834,1,0
493,338,119909,1,4
