osu file format v9

[General]
AudioFilename: neu EX.mp3
AudioLeadIn: 0
PreviewTime: 100682
Countdown: 0
SampleSet: Soft
StackLeniency: 0.4
Mode: 0
LetterboxInBreaks: 1

[Editor]
Bookmarks: 32978,42652,71662,110356,111112,111263,111414,111565,112170,112321,112472,112623,113530,113681,113832,114588,114739,114890,115041,115193,115797,115948,116099,116251,116402,117006,117157,117309,117460,117611,118367,118518,118669,129703,139376
DistanceSpacing: 0.5
BeatDivisor: 4
GridSize: 16

[Metadata]
Title:neu
Artist:Shounen Radio
Creator:v2b
Version:EX
Source:Pop'n Music 15
Tags:wac niente

[Difficulty]
HPDrainRate:6
CircleSize:4
OverallDifficulty:8
ApproachRate:9
SliderMultiplier:1.8
SliderTickRate:0.5

[Events]
//Background and Video events
0,0,"neu EX-bg.png"
//Break Periods
//Storyboard Layer 0 (Background)
//Storyboard Layer 1 (Fail)
//Storyboard Layer 2 (Pass)
//Storyboard Layer 3 (Foreground)
//Storyboard Sound Samples
//Background Colour Transformations
3,100,163,162,255

[TimingPoints]
3948,302.29746070133,4,2,0,30,1,0
8406,-100,4,1,0,40,0,0
8709,-100,4,2,0,30,0,0
12034,-100,4,1,0,40,0,0
23219,-100,4,1,0,0,0,0
23257,-100,4,1,1,60,0,0
42642,302.29746070133,3,2,0,50,1,0
70226,-100,3,1,1,40,0,0
70453,302.29746070133,4,1,1,60,1,0
90933,-100,4,1,1,0,0,0
90971,-100,4,1,1,60,0,0
100682,-100,4,1,1,60,0,1
110280,-100,4,1,1,60,0,0
110356,-100,4,1,1,60,0,1
119954,-100,4,1,1,60,0,0
120029,-66.6666666666667,4,1,1,60,0,1
129627,-66.6666666666667,4,1,1,60,0,0
129703,-55.5555555555556,4,1,1,60,0,1
139376,-55.5555555555556,4,1,1,60,0,0

[Colours]
Combo1 : 196,136,255
Combo2 : 0,64,128
Combo3 : 6,255,255
Combo4 : 255,0,128

[HitObjects]
18,195,3947,1,4
53,261,4250,1,2
53,261,4401,1,0
112,217,4703,1,2
112,217,4854,1,0
146,282,5157,1,2
146,282,5308,1,0
205,238,5610,1,2
205,238,5761,1,0
240,304,6064,1,2
240,304,6215,1,0
299,260,6517,1,2
299,260,6668,1,0
333,325,6970,1,0
392,282,7273,1,0
392,282,7424,1,2
392,282,7575,1,0
427,347,7877,1,2
427,347,8029,1,0
486,303,8331,1,2
501,165,8482,5,0
501,165,8633,1,0
475,38,8784,5,6
475,38,8935,1,0
440,104,9238,1,2
440,104,9389,1,0
381,60,9691,1,2
381,60,9842,1,0
347,125,10145,1,2
347,125,10296,1,0
288,81,10598,1,2
288,81,10749,1,0
253,147,11051,1,2
253,147,11203,1,0
194,103,11505,1,2
194,103,11656,1,0
160,168,11958,1,2
160,168,12110,2,0,B|80:111,1,90
146,339,12563,6,0,B|236:316,1,90
233,316,12865,1,0
387,224,13016,2,0,B|290:199,1,90
147,104,13319,2,0,B|259:79,1,90
432,36,13621,5,4
491,103,13923,1,4
403,123,14226,1,4
461,190,14528,1,4
374,214,14830,1,4
439,276,15133,1,4
353,304,15435,1,4
418,366,15737,1,4
252,344,16039,5,4
193,277,16342,1,4
281,257,16644,1,4
223,190,16946,1,4
310,166,17249,1,4
245,104,17551,1,4
331,76,17853,1,4
266,14,18155,1,4
266,14,18307,1,0
92,20,18458,6,0,B|0:62,1,90,4|0
173,114,18760,2,0,B|81:156,1,90,4|0
262,204,19062,2,0,B|170:246,1,90,4|0
356,293,19365,2,0,B|264:335,1,90,4|0
389,68,19667,6,0,B|473:123,1,90,4|0
294,148,19969,2,0,B|378:203,1,90,4|0
192,223,20272,2,0,B|276:278,1,90,4|0
85,296,20574,2,0,B|169:351,1,90,4|0
256,364,20876,5,4
262,346,20952,1,0
269,329,21027,1,0
274,311,21103,1,0
276,293,21178,1,4
276,274,21254,1,0
271,256,21330,1,0
266,238,21405,1,0
258,221,21481,1,4
249,205,21556,1,0
242,187,21632,1,0
238,169,21707,1,0
238,150,21783,1,4
240,132,21859,1,0
245,114,21934,1,0
252,97,22010,1,0
258,80,22085,1,0
289,9,22236,1,0
256,192,22388,12,0,23219
49,42,23295,5,8
64,48,23370,1,0
78,53,23446,1,0
161,85,23597,1,8
87,142,23748,1,0
102,148,23824,1,0
117,154,23899,1,0
199,185,24050,1,8
126,243,24201,1,0
141,248,24277,1,0
156,254,24353,1,8
240,280,24504,5,8
255,274,24579,1,0
269,269,24655,1,0
352,237,24806,1,8
278,180,24957,1,0
293,174,25033,1,0
308,168,25108,1,0
390,137,25259,1,8
317,79,25411,1,0
332,74,25486,1,0
347,68,25562,1,8
432,48,25713,6,0,B|488:56,2,45,8|0|0
492,155,26015,2,0,B|511:116|494:67,1,90,0|8
404,178,26318,2,0,B|348:186,2,45,8|0|0
343,285,26620,2,0,B|325:246|342:197,1,90,0|8
269,336,26922,6,0,B|174:297,1,90,8|0
168,295,27149,1,8
151,287,27224,1,0
134,280,27300,1,0
117,273,27376,1,8
150,189,27527,1,8
137,182,27602,1,0
120,175,27678,1,0
103,167,27754,1,8
85,160,27829,2,0,B|1:125,1,90,0|8
35,17,28131,6,0,B|88:13|122:59,1,90,8|8
124,64,28358,1,0
141,67,28434,2,0,B|194:63|228:109,1,90,0|8
232,114,28660,1,0
249,117,28736,2,0,B|302:113|336:159,1,90,8|8
340,165,28963,1,0
357,168,29038,2,0,B|410:164|444:210,1,90,0|8
452,318,29340,6,0,B|398:321|364:275,1,90,8|8
363,271,29567,1,0
346,268,29643,2,0,B|292:271|258:225,1,90,0|8
255,221,29870,1,0
238,218,29945,2,0,B|184:221|150:175,1,90,8|8
147,170,30172,1,0
130,167,30247,2,0,B|76:170|42:124,1,90,0|8
36,44,30550,5,8
53,39,30625,1,0
71,37,30701,1,0
88,35,30776,1,8
106,36,30852,1,8
123,38,30928,1,0
140,42,31003,1,8
156,48,31079,1,0
198,61,31154,5,8
214,67,31230,1,0
231,71,31305,1,0
248,73,31381,1,8
266,74,31457,1,8
283,72,31532,1,0
301,70,31608,1,8
318,65,31683,1,0
362,55,31759,5,8
379,50,31834,1,0
397,48,31910,1,0
414,46,31986,1,8
432,47,32061,1,8
449,49,32137,1,0
466,53,32212,1,8
482,59,32288,1,0
495,101,32363,5,8
368,150,32515,1,8
240,194,32666,1,8
113,239,32817,1,8
113,239,32892,1,0
113,239,32968,6,0,B|56:256,1,45,8|0
104,312,33119,2,0,B|48:328,2,45,0|0|8
256,296,33422,2,0,B|199:279,1,45
247,223,33573,2,0,B|191:207,2,45,0|0|8
400,248,33875,2,0,B|343:265,2,45,0|0|8
392,112,34177,6,0,B|449:95,1,45,8|0
401,39,34328,2,0,B|457:23,2,45,0|0|8
249,55,34631,2,0,B|306:72,1,45
258,128,34782,2,0,B|314:144,2,45,0|0|8
105,103,35084,2,0,B|162:86,2,45,0|0|8
56,216,35386,5,8
56,232,35462,1,0
56,248,35538,1,0
56,264,35613,1,0
56,280,35689,1,0
160,248,35840,1,8
160,264,35916,1,0
160,280,35992,1,8
160,296,36067,1,0
160,312,36143,1,0
264,288,36293,1,0
264,304,36368,1,0
264,320,36444,1,8
368,336,36596,6,0,B|424:328|456:280,1,90,8|0
458,282,36822,1,8
468,267,36898,1,0
474,250,36973,1,0
476,232,37049,2,0,B|481:183|461:130,1,90,8|8
455,128,37276,1,0
442,114,37351,1,0
429,101,37427,1,8
414,90,37503,1,0
398,81,37578,1,0
381,73,37654,1,8
293,54,37805,6,0,B|273:45|243:49,1,45,8|0
237,62,37956,2,0,B|215:57|187:67,1,45,8|0
184,81,38107,2,0,B|162:80|135:95,1,45,0|0
135,109,38258,2,0,B|113:111|89:131,1,45,8|0
91,145,38409,2,0,B|70:151|50:174,1,45,8|0
49,187,38561,2,0,B|29:197|14:223,2,45,8|0|0
9,304,38863,1,8
121,345,39014,6,0,B|141:354|171:350,1,45,8|0
177,337,39165,2,0,B|198:341|226:331,1,45,8|0
230,318,39316,2,0,B|251:318|278:303,1,45,0|0
279,290,39467,2,0,B|300:287|324:267,1,45,8|0
323,254,39618,2,0,B|343:247|363:224,1,45,8|0
365,212,39770,2,0,B|384:201|399:175,2,45,8|0|0
405,95,40072,1,8
304,32,40223,5,8
312,50,40299,1,0
320,66,40374,1,0
312,82,40450,1,0
304,98,40525,1,8
208,96,40677,1,8
200,114,40753,1,0
192,130,40828,1,0
200,146,40904,1,0
208,162,40979,1,8
304,160,41130,1,8
312,178,41206,1,0
320,194,41281,1,0
312,210,41357,1,0
304,226,41432,1,8
208,224,41584,1,8
200,242,41660,1,0
192,258,41735,1,0
200,274,41811,1,0
208,290,41886,1,8
256,368,42037,5,8
256,352,42113,1,0
256,336,42188,1,8
256,320,42264,1,0
256,304,42339,1,8
256,288,42415,1,0
256,272,42490,1,8
202,151,42642,6,0,B|158:71|30:69,2,180
310,151,43548,2,0,B|354:71|482:69,2,180
355,268,44455,1,0
256,344,44758,1,0
157,268,45060,1,0
90,217,45261,5,0
90,217,45362,2,0,B|48:134|100:32,1,180
175,22,45866,1,0
175,22,45967,1,0
257,37,46168,1,0
257,37,46269,6,0,B|306:88|396:109,1,120
391,71,46571,2,0,B|335:128|339:200,1,120
337,219,46874,1,0
411,320,47176,6,0,B|325:341|268:329,1,120
267,298,47478,2,0,B|184:321|120:321,1,120
106,322,47781,1,0
16,194,48083,6,0,B|7:117|40:63,1,120
108,43,48385,2,0,B|122:112|87:178,1,120
198,207,48687,2,0,B|191:143|215:85,1,120
338,45,48990,2,0,B|349:111|310:196,1,120
473,231,49292,2,0,B|460:144|491:85,1,120
479,112,49594,1,0
384,263,49897,5,0
305,293,50098,1,0
305,293,50199,1,0
227,324,50400,1,0
227,324,50501,1,0
128,121,50804,5,0
207,91,51005,1,0
207,91,51106,1,0
285,60,51307,1,0
285,60,51408,1,0
462,111,51710,5,0
383,141,51911,1,0
383,141,52012,1,0
305,172,52213,1,0
305,172,52314,1,0
225,202,52517,1,0
225,202,52618,1,0
147,233,52819,1,0
147,233,52920,1,0
68,263,53121,1,0
68,263,53222,1,0
37,178,53373,5,0
111,146,53524,2,0,B|115:78|172:32,1,120
200,23,53827,1,0
297,197,54028,1,0
336,180,54130,2,0,B|399:147|423:16,1,180
489,156,54633,1,0
464,189,54733,2,0,B|414:240|405:307,1,120
404,335,55036,1,0
228,341,55338,6,0,B|158:339|88:352,1,120
287,288,55640,2,0,B|356:279|433:292,1,120
228,228,55943,2,0,B|158:221|82:236,1,120
287,171,56245,2,0,B|358:165|410:167,1,120
228,120,56547,2,0,B|161:118|84:125,1,120
292,67,56849,2,0,B|372:59|443:70,1,120
454,68,57152,5,0
384,256,57353,1,0
415,284,57454,1,0
275,89,57656,1,0
244,61,57757,1,0
58,316,58059,5,0
128,128,58260,1,0
97,100,58361,1,0
237,295,58563,1,0
268,323,58664,1,0
428,219,58966,6,0,B|473:164|464:92|368:84,2,180
84,219,59772,1,0
84,219,59872,2,0,B|39:164|48:92|144:84,2,180
256,48,60679,1,0
256,48,60779,2,0,B|256:248,1,180
256,312,61283,1,0
256,312,61384,1,0
336,71,61686,6,0,B|407:121|412:183,1,120
176,313,61989,2,0,B|105:263|100:201,1,120
103,220,62291,1,0
256,192,62593,5,0
256,192,62895,1,0
256,192,63198,1,0
176,71,63500,6,0,B|105:121|100:183,1,120
336,313,63803,2,0,B|407:263|412:201,1,120
408,220,64105,1,0
21,92,64407,6,0,B|85:81|159:81,1,120
77,283,64709,2,0,B|144:298|230:301,1,120
195,299,65012,1,0
491,92,65314,6,0,B|427:81|353:81,1,120
435,283,65616,2,0,B|368:298|282:301,1,120
317,299,65919,1,0
256,64,66221,5,0
256,192,66523,1,0
256,320,66825,1,0
184,56,67128,6,0,B|152:136|240:168,1,120
328,328,67430,2,0,B|360:248|272:216,1,120
256,192,67732,1,0
384,56,68034,5,0
416,176,68236,1,0
416,176,68337,1,0
456,296,68538,1,0
456,296,68639,1,0
128,56,68941,5,0
96,176,69143,1,0
96,176,69244,1,0
56,296,69445,1,0
56,296,69546,1,0
256,352,69848,5,0
256,224,70151,1,0
256,136,70302,1,0
256,136,70453,1,0
96,48,70755,6,0,B|224:64,1,90
432,144,71057,2,0,B|312:152,1,90
80,224,71359,2,0,B|208:240,1,90,4|4
304,256,71662,5,4
304,256,71737,1,0
304,256,71813,1,0
304,256,71964,1,0
344,112,72115,1,0
344,112,72190,1,0
344,112,72266,1,0
344,112,72417,1,0
192,72,72569,1,0
192,72,72644,1,0
192,72,72720,1,0
192,72,72871,1,0
152,216,73022,1,0
152,216,73097,1,0
152,216,73173,1,0
152,216,73324,1,0
40,320,73475,6,0,B|152:344,1,90
304,256,73778,2,0,B|432:280,1,90
160,152,74080,5,4
160,152,74155,1,0
160,152,74231,1,0
160,152,74382,1,0
120,296,74533,1,0
120,296,74608,1,0
120,296,74684,1,0
120,296,74835,1,0
272,336,74987,1,0
272,336,75062,1,0
272,336,75138,1,0
272,336,75289,1,0
312,192,75440,1,0
312,192,75515,1,0
312,192,75591,1,0
312,192,75742,1,0
424,88,75893,6,0,B|312:64,1,90
160,152,76196,2,0,B|32:128,1,90
200,56,76498,5,4
200,56,76574,1,0
200,56,76650,1,0
200,56,76801,1,0
348,25,76952,1,0
348,25,77027,1,0
348,25,77103,1,0
348,25,77254,1,0
251,146,77405,1,0
251,146,77481,1,0
251,146,77556,1,0
251,146,77708,1,0
400,115,77859,1,0
400,115,77934,1,0
400,115,78010,1,0
400,115,78161,1,0
392,264,78312,6,0,B|448:376,1,90
196,222,78615,2,0,B|152:144,1,90
312,328,78917,5,4
312,328,78993,1,0
312,328,79069,1,0
312,328,79220,1,0
164,359,79371,1,0
164,359,79446,1,0
164,359,79522,1,0
164,359,79673,1,0
261,238,79824,1,0
261,238,79900,1,0
261,238,79975,1,0
261,238,80127,1,0
112,269,80278,1,0
112,269,80353,1,0
112,269,80429,1,0
112,269,80580,1,0
120,120,80731,6,0,B|64:8,1,90
315,161,81034,2,0,B|360:240,1,90
400,32,81335,6,0,B|344:40,1,45,4|0
337,41,81486,1,0
212,63,81638,1,0
91,98,81789,2,0,B|147:106,1,45
154,107,81940,1,0
275,144,82092,1,0
394,180,82242,2,0,B|338:188,1,45
331,189,82393,1,0
206,214,82545,1,0
85,250,82696,2,0,B|141:258,1,45
148,259,82847,1,0
271,286,82999,1,0
403,343,83149,6,0,B|440:307|456:237,1,90
256,64,83451,2,0,B|219:100|203:170,1,90
112,352,83754,6,0,B|168:344,1,45,4|0
175,343,83905,1,0
299,318,84057,1,0
421,289,84208,2,0,B|365:281,1,45
358,280,84359,1,0
235,255,84509,1,0
116,211,84661,2,0,B|172:203,1,45
179,202,84812,1,0
303,177,84964,1,0
424,143,85115,2,0,B|368:135,1,45
361,134,85266,1,0
237,113,85416,1,0
109,41,85568,6,0,B|72:77|56:147,1,90
256,320,85870,2,0,B|293:284|309:214,1,90
490,55,86172,5,4
480,69,86248,2,0,B|440:111,1,45
365,196,86474,1,0
379,70,86625,1,0
368,83,86701,2,0,B|328:125,1,45
253,210,86927,1,0
269,83,87079,1,0
258,97,87155,2,0,B|218:139,1,45
143,225,87381,1,0
158,98,87532,1,0
147,112,87608,2,0,B|107:154,1,45
32,240,87834,1,0
104,338,87986,6,0,B|209:343,1,90
475,346,88288,2,0,B|363:343,1,90
242,266,88590,6,0,B|188:251,2,45,4|0|0
388,220,88893,1,0
243,168,89044,2,0,B|301:152,2,45
96,123,89346,1,0
242,78,89497,2,0,B|193:56,2,45
391,41,89800,1,0
391,41,89951,1,0
256,192,90102,12,0,90933
64,32,91009,6,0,B|64:224,1,180,4|0
448,352,91613,2,0,B|448:160,1,180
256,128,92218,2,0,B|232:192|232:192|280:192|280:192|256:256,3,180
160,32,93427,6,0,B|80:80|80:80|176:128,1,180
352,32,94032,2,0,B|432:80|432:80|336:128,1,180
256,368,94636,2,0,B|256:176,3,180
176,32,95845,6,0,B|80:64,3,90,4|0|0|0
336,112,96450,2,0,B|432:144,3,90,0|0|0|0
176,208,97055,2,0,B|80:240,3,90,0|0|0|0
336,304,97659,2,0,B|432:336,3,90,0|0|0|0
481,232,98264,5,0
425,161,98415,1,0
364,239,98566,1,0
289,160,98717,1,0
222,255,98868,1,0
148,151,99020,1,0
93,274,99171,1,0
10,156,99322,1,0
101,67,99473,6,0,B|137:17,1,45
149,70,99624,2,0,B|185:20,1,45
197,75,99775,2,0,B|233:25,1,45
244,79,99927,2,0,B|280:29,1,45
292,83,100078,2,0,B|328:33,1,45
340,87,100229,2,0,B|376:37,1,45
388,92,100381,2,0,B|424:42,1,45
436,95,100532,2,0,B|472:45,1,45
496,133,100682,6,0,B|460:185,1,45,8|0
480,240,100833,2,0,B|444:292,2,45,0|0|8
360,176,101136,2,0,B|324:228,1,45
344,283,101287,2,0,B|308:335,2,45,0|0|8
224,224,101589,2,0,B|188:276,2,45,0|0|8
88,208,101891,6,0,B|124:156,1,45,8|0
104,101,102042,2,0,B|140:49,2,45,0|0|8
224,165,102345,2,0,B|260:113,1,45
240,58,102496,2,0,B|276:6,2,45,0|0|8
360,117,102798,2,0,B|396:65,2,45,0|0|8
440,224,103101,6,0,B|440:288,1,45,8|0
376,296,103252,2,0,B|376:344,2,45
256,360,103554,2,0,B|256:315,2,45,8|0|8
192,288,103781,2,0,B|192:243,1,45
64,200,104008,2,0,B|64:272,2,45,0|0|8
96,72,104310,5,8
229,91,104461,2,0,B|294:97,1,45,0|8
308,106,104612,2,0,B|373:111,1,45,0|0
387,119,104763,1,8
458,282,104914,1,8
424,268,104990,2,0,B|379:264,1,45,0|0
345,250,105141,2,0,B|300:245,1,45,8|0
266,232,105292,2,0,B|221:227,1,45,0|8
79,293,105519,5,8
226,331,105670,2,0,B|289:311,2,45,8|0|0
386,310,105972,2,0,B|464:327,2,45,8|0|8
493,187,106275,2,0,B|440:199,2,45,8|0|0
346,225,106577,2,0,B|283:205,2,45,8|0|8
186,204,106879,2,0,B|108:221,2,45,8|0|0
85,71,107182,2,0,B|140:80,1,45,8|0
168,66,107333,2,0,B|223:75,1,45,8|0
251,62,107484,2,0,B|306:71,1,45,8|0
334,59,107635,2,0,B|440:76,1,90,0|8
473,155,107937,6,0,B|491:225,3,45,8|0|0|8
491,234,108240,1,8
491,269,108315,1,0
484,304,108391,1,8
462,332,108466,1,0
430,350,108542,2,0,B|382:360,3,45,8|0|0|8
350,364,108844,1,8
313,366,108920,1,0
277,362,108995,1,8
241,353,109071,1,0
207,338,109147,2,0,B|173:305,3,45,8|0|0|8
152,277,109449,1,8
133,246,109524,1,0
122,211,109600,1,8
117,175,109676,1,0
120,139,109751,1,8
155,37,109902,1,8
262,24,110053,1,8
386,34,110205,1,8
386,34,110280,1,0
386,34,110356,6,0,B|430:86,1,45,8|0
415,68,110507,2,0,B|448:109,1,45
443,103,110658,2,0,B|476:145,1,45
471,138,110809,2,0,B|503:177,1,45
500,172,110960,2,0,B|468:232,1,45
478,211,111111,2,0,B|454:257,1,45,8|0
459,252,111262,2,0,B|436:299,1,45,8|0
439,292,111413,2,0,B|416:336,1,45,8|0
384,351,111565,6,0,B|328:373,1,45,8|0
342,367,111716,2,0,B|289:350,1,45
299,353,111867,2,0,B|251:373,1,45
257,370,112018,2,0,B|207:352,1,45
215,356,112170,2,0,B|159:378,1,45,8|0
173,372,112321,2,0,B|120:355,1,45,8|0
130,358,112472,2,0,B|82:378,1,45,8|0
88,375,112623,2,0,B|38:357,1,45,8|0
45,294,112774,6,0,B|-13:257,1,45
44,231,112925,2,0,B|14:183,1,45
72,177,113076,2,0,B|65:121,1,45
121,138,113228,2,0,B|132:85,1,45
177,121,113379,2,0,B|226:68,1,45
242,130,113530,2,0,B|303:100,1,45,8|0
288,165,113681,2,0,B|352:158,1,45,8|0
315,212,113832,2,0,B|382:230,1,45,8|0
456,197,113983,6,0,B|414:215,1,45
440,262,114134,2,0,B|394:265,1,45
399,320,114285,2,0,B|355:307,1,45
330,356,114436,2,0,B|293:328,1,45
253,363,114587,2,0,B|235:320,1,45,8|0
183,337,114739,2,0,B|179:291,1,45,8|0
126,285,114890,2,0,B|142:242,1,45,8|0
100,212,115041,2,0,B|132:181,1,45,8|0
191,127,115193,6,0,B|159:76,3,45,8|0|0|0
266,139,115495,2,0,B|298:190,3,45
299,70,115797,2,0,B|267:19,3,45,8|0|8|0
374,82,116099,2,0,B|406:133,3,45,8|0|8|0
463,205,116402,6,0,B|495:154,3,45,8|0|0|0
388,217,116704,2,0,B|356:268,3,45
355,148,117006,2,0,B|387:97,3,45,8|0|8|0
280,160,117308,2,0,B|248:211,3,45,8|0|8|0
186,292,117611,6,0,B|208:351,1,45,8|0
186,292,117762,2,0,B|227:310,1,45
186,292,117913,2,0,B|245:269,1,45
186,292,118064,2,0,B|204:250,1,45
186,292,118215,2,0,B|163:232,1,45
186,292,118367,2,0,B|144:273,1,45,8|0
186,292,118518,2,0,B|126:314,1,45,8|0
186,292,118669,2,0,B|167:333,1,45,8|0
76,345,118820,5,0
69,313,118896,1,0
68,281,118971,1,0
80,251,119047,1,0
98,225,119122,1,0
115,198,119198,1,0
126,168,119274,1,0
230,219,119425,5,0
237,187,119501,1,0
238,155,119576,1,0
226,125,119652,1,0
208,99,119727,1,0
191,72,119803,1,0
180,42,119879,1,0
352,32,120029,6,0,B|448:48,1,67.4999979883433,0|0
360,72,120180,2,0,B|456:88,1,67.4999979883433
368,120,120332,2,0,B|464:136,1,67.4999979883433,8|0
376,160,120483,2,0,B|472:176,1,67.4999979883433
384,200,120634,2,0,B|288:216,1,67.4999979883433,8|0
376,240,120785,2,0,B|280:256,1,67.4999979883433
368,288,120937,2,0,B|272:304,1,67.4999979883433,8|0
360,328,121088,2,0,B|264:344,1,67.4999979883433
224,344,121238,6,0,B|128:328,1,67.4999979883433,8|0
216,304,121389,2,0,B|120:288,1,67.4999979883433
208,256,121541,2,0,B|112:240,1,67.4999979883433,8|0
200,216,121692,2,0,B|104:200,1,67.4999979883433
192,176,121843,2,0,B|288:160,1,67.4999979883433,8|0
200,136,121994,2,0,B|296:120,1,67.4999979883433
208,88,122146,2,0,B|304:72,1,67.4999979883433
216,48,122297,2,0,B|312:32,1,67.4999979883433
136,32,122448,6,0,B|96:40|64:72,1,67.4999979883433
44,96,122599,2,0,B|24:128|26:167,1,67.4999979883433
21,207,122750,2,0,B|18:250|60:298,1,67.4999979883433,8|0
66,310,122901,2,0,B|98:335|160:340,1,67.4999979883433
175,335,123052,2,0,B|215:327|247:295,1,67.4999979883433,8|0
267,271,123203,2,0,B|287:239|285:200,1,67.4999979883433
290,160,123354,2,0,B|293:117|251:69,1,67.4999979883433,8|0
245,57,123505,2,0,B|213:32|151:27,1,67.4999979883433
139,109,123657,6,0,B|113:189,3,67.4999979883433,8|0|0|0
196,194,123959,2,0,B|170:274,3,67.4999979883433,8|0|0|0
297,135,124261,2,0,B|271:215,3,67.4999979883433,8|0|0|0
354,220,124563,2,0,B|328:300,3,67.4999979883433,8|0|0|0
484,124,124866,6,0,B|513:168|489:231,2,67.4999979883433,8|0|0
442,102,125093,2,0,B|417:54|349:46,2,67.4999979883433
411,138,125319,2,0,B|440:182|416:245,2,67.4999979883433,8|0|0
363,125,125546,2,0,B|338:77|270:69,2,67.4999979883433
346,169,125773,2,0,B|375:213|351:276,3,67.4999979883433,8|0|0|0
330,315,126075,6,0,B|303:289|265:284,2,67.4999979883433,8|0|0
246,352,126302,2,0,B|219:326|181:321,2,67.4999979883433,0|8|0
217,261,126529,2,0,B|190:235|152:230,2,67.4999979883433,0|0|8
127,294,126755,2,0,B|100:268|62:263,2,67.4999979883433,0|0|0
95,202,126982,2,0,B|68:176|30:171,3,67.4999979883433,8|0|8|0
19,92,127284,6,0,B|90:64,1,67.4999979883433,8|0
113,54,127436,1,0
144,43,127511,1,0
175,55,127587,2,0,B|246:83,1,67.4999979883433,8|0
268,95,127739,1,0
299,107,127814,1,0
331,98,127889,2,0,B|402:70,3,67.4999979883433,8|0|0|0
426,63,128191,2,0,B|497:91,3,67.4999979883433,8|0|0|0
488,192,128494,6,0,B|392:192,3,67.4999979883433,8|0|0|0
360,232,128796,2,0,B|272:232,3,67.4999979883433,8|0|0|0
232,272,129098,2,0,B|120:272,3,67.4999979883433,8|0|0|0
136,272,129401,1,0
109,266,129476,1,0
85,252,129552,1,0
65,234,129627,1,0
47,206,129703,6,0,B|29:163|50:115,3,80.9999961376192
124,154,130005,2,0,B|139:110|116:63,3,80.9999961376192,8|0|0|0
210,180,130307,2,0,B|192:137|213:89,3,80.9999961376192,8|0|0|0
286,129,130609,2,0,B|301:85|278:38,3,80.9999961376192,8|0|0|0
389,76,130912,6,0,B|435:78|469:118,3,80.9999961376192,8|0|0|0
402,168,131214,2,0,B|434:200|487:200,3,80.9999961376192,8|0|0|0
341,234,131516,2,0,B|387:236|421:276,3,80.9999961376192,8|0|0|0
353,324,131818,2,0,B|385:356|438:356,3,80.9999961376192
256,360,132121,6,0,B|216:360|216:360|176:320,3,80.9999961376192
256,272,132423,2,0,B|296:272|296:272|336:232,3,80.9999961376192,8|0|0|0
256,184,132726,2,0,B|216:184|216:184|176:144,3,80.9999961376192,8|0|0|0
256,96,133028,2,0,B|296:96|296:96|336:56,3,80.9999961376192,8|0|0|0
192,40,133330,6,0,B|113:19,3,80.9999961376192,8|0|0|0
89,115,133633,2,0,B|167:134,3,80.9999961376192,8|0|0|0
141,230,133935,2,0,B|62:209,3,80.9999961376192,8|0|0|0
37,306,134238,2,0,B|115:326,3,80.9999961376192,8|0|0|0
256,288,134540,6,0,B|300:285|344:229,1,80.9999961376192,8|0
256,288,134691,2,0,B|285:254|277:183,1,80.9999961376192
256,288,134842,2,0,B|253:243|197:199,1,80.9999961376192
256,288,134993,2,0,B|222:258|151:266,1,80.9999961376192,8|0
256,288,135144,2,0,B|211:282|158:330,1,80.9999961376192
256,288,135295,2,0,B|220:315|216:386,1,80.9999961376192
256,288,135446,2,0,B|250:332|298:385,1,80.9999961376192,8|0
256,288,135597,2,0,B|283:323|354:327,1,80.9999961376192
422,184,135749,6,0,B|433:226|394:286,1,80.9999961376192,8|0
422,184,135900,2,0,B|399:222|329:238,1,80.9999961376192
422,184,136051,2,0,B|378:195|318:157,1,80.9999961376192,8|0
422,184,136202,2,0,B|382:161|367:91,1,80.9999961376192
422,184,136353,2,0,B|401:143|429:77,1,80.9999961376192,8|0
422,184,136504,2,0,B|435:141|501:114,1,80.9999961376192
422,184,136655,2,0,B|461:164|527:192,1,80.9999961376192,8|0
422,184,136806,2,0,B|463:198|490:263,1,80.9999961376192,8|0
486,262,136958,5,8
487,286,137034,1,0
478,308,137109,1,8
463,327,137185,1,0
444,342,137260,1,8
420,349,137336,1,0
395,350,137411,1,8
371,344,137487,1,0
348,334,137563,1,8
333,314,137638,1,0
324,291,137714,1,8
308,272,137789,1,0
286,260,137865,1,8
262,253,137940,1,0
237,256,138016,1,8
214,266,138092,1,0
196,282,138167,5,0
162,304,138243,1,0
123,315,138318,1,0
82,310,138394,1,0
48,288,138469,1,0
29,251,138545,1,0
28,210,138621,1,0
37,171,138696,1,0
59,136,138772,1,0
91,112,138847,1,0
131,104,138923,1,0
169,115,138998,1,0
204,134,139074,1,0
237,157,139150,1,0
276,165,139225,1,0
315,157,139301,1,0
350,138,139376,1,4
