osu file format v9

[General]
AudioFilename: neu.mp3
AudioLeadIn: 0
PreviewTime: 86239
Countdown: 0
SampleSet: Soft
StackLeniency: 0.4
Mode: 0
LetterboxInBreaks: 1

[Editor]
DistanceSpacing: 0.8
BeatDivisor: 4
GridSize: 8

[Metadata]
Title:neu
Artist:Shounen Radio
Creator:v2b
Version:5 Button
Source:Pop'n Music 15
Tags:wac niente

[Difficulty]
HPDrainRate:2
CircleSize:4
OverallDifficulty:4
ApproachRate:4
SliderMultiplier:1.3
SliderTickRate:0.5

[Events]
//Background and Video events
0,0,"neu-bg.png"
//Break Periods
//Storyboard Layer 0 (Background)
//Storyboard Layer 1 (Fail)
//Storyboard Layer 2 (Pass)
//Storyboard Layer 3 (Foreground)
//Storyboard Sound Samples
//Background Colour Transformations
3,100,163,162,255

[TimingPoints]
7924,631.578947368421,4,2,0,20,1,0
84976,-100,4,1,0,40,0,0
86239,-100,4,1,0,40,0,1
106292,-100,4,2,0,20,0,0

[Colours]
Combo1 : 196,136,255
Combo2 : 0,64,128
Combo3 : 6,255,255
Combo4 : 255,0,128

[HitObjects]
256,192,9818,12,2,12345
43,79,12976,5,0
129,136,13608,1,2
129,136,13923,1,0
129,136,14239,1,0
232,125,14871,1,2
232,125,15187,1,0
232,125,15502,1,0
319,182,16134,1,2
319,182,16450,1,0
319,182,16766,1,0
421,165,17397,1,2
477,252,18029,6,0,B|407:301|335:301,1,130,0|2
357,300,18976,1,0
322,261,19292,2,0,B|252:310|180:310,1,130,0|2
203,309,20239,1,0
170,268,20555,2,0,B|100:317|28:317,3,130,0|2|0|2
36,149,23081,5,0
99,66,23713,1,2
187,121,24345,1,0
258,45,24976,1,2
258,45,25292,1,0
258,45,25608,2,0,B|341:32|409:55,1,130,0|2
467,114,26871,1,0
487,161,27187,1,0
492,212,27502,1,2
467,257,27818,1,0
426,289,28134,2,0,B|352:293|292:331,1,130,0|2
256,349,29081,1,0
205,338,29397,2,0,B|142:311|60:323,1,130,0|2
73,216,30660,5,0
73,216,30976,1,0
73,216,31292,1,2
135,133,31924,1,0
135,133,32239,1,0
135,133,32555,1,2
256,192,33187,5,2
256,192,34450,5,0
256,192,35713,5,0
256,192,36976,5,0
416,64,38239,5,0
416,64,38871,1,2
317,95,39502,1,0
317,95,40134,1,2
293,196,40766,1,0
293,196,41397,1,2
195,231,42029,1,0
195,231,42660,1,2
90,231,43292,5,0
62,187,43608,1,0
63,134,43924,2,0,B|88:68|161:28,1,130,2|0
196,24,44871,1,0
248,25,45187,2,0,B|320:43|375:105,1,130,2|0
379,136,46134,1,0
382,187,46450,2,0,B|378:271|320:316,1,130,2|0
290,332,47397,1,0
238,341,47713,1,2
144,294,48345,5,0
184,261,48660,1,0
214,218,48976,2,0,B|231:178|228:141,1,65,2|0
221,103,49608,1,0
239,54,49924,1,0
283,26,50239,2,0,B|335:19|369:19,1,65,2|0
398,31,50871,1,0
444,55,51187,1,0
473,97,51502,2,0,B|472:140|492:176,1,65,2|0
494,211,52134,1,0
478,260,52450,1,0
438,293,52766,2,0,B|398:316|361:315,1,65,2|0
325,320,53397,5,0
256,192,53713,12,0,58450
256,192,58766,12,0,63502
378,69,64134,5,2
327,82,64450,1,0
296,124,64766,1,0
377,188,65397,1,2
348,231,65713,1,0
297,245,66029,1,0
193,255,66660,1,2
94,222,67292,1,0
38,133,67924,1,2
32,29,68555,6,0,B|102:6|180:30,1,130,0|2
160,25,69502,1,0
168,76,69818,2,0,B|238:53|316:77,1,130,0|2
296,72,70765,1,0
304,123,71081,2,0,B|374:100|452:124,1,130,0|2
480,139,72029,5,0
511,180,72345,1,0
496,282,72976,1,2
455,314,73292,1,0
406,333,73608,1,0
301,342,74239,1,2
281,293,74555,5,0
286,241,74871,1,0
267,192,75187,1,0
280,141,75502,1,2
256,94,75818,1,0
217,58,76134,2,0,B|142:43|72:75,1,130,0|2
23,149,77397,2,0,B|-3:214|23:279,1,130,0|2
107,334,78660,2,0,B|182:352|252:333,1,130,0|2
336,307,79924,1,0
336,307,80239,1,0
336,307,80555,1,2
256,192,81187,12,0,83713
255,34,85292,5,0
240,84,85608,1,0
260,131,85924,1,0
250,182,86239,1,4
178,257,86871,5,0
178,257,87187,1,0
332,307,87818,1,0
332,307,88134,1,0
332,307,88450,1,0
334,127,89397,5,0
334,127,89713,1,0
180,77,90344,1,0
180,77,90660,1,0
180,77,90976,1,0
109,65,91292,6,0,B|76:97|63:132,1,65
49,185,91924,1,0
59,255,92239,1,0
189,196,92871,1,0
213,263,93187,2,0,B|217:306|210:340,1,65
280,347,93818,6,0,B|327:335|369:344,1,65
416,340,94450,1,0
486,354,94766,1,0
483,211,95397,2,0,B|448:201|404:200,1,65
347,200,96029,1,0
276,210,96345,6,0,B|232:228|156:228,1,97.5,4|0
180,227,96976,2,0,B|92:219,1,65
19,115,97924,2,0,B|43:88|73:72,1,65
136,48,98555,1,0
204,29,98871,6,0,B|255:19|325:24,1,97.5,0|0
301,22,99502,2,0,B|377:27,1,65
469,125,100450,2,0,B|445:152|415:168,1,65
352,192,101081,1,0
280,197,101397,6,0,B|232:186|158:193,2,97.5
293,267,102660,2,0,B|340:264,1,32.5
322,336,103134,2,0,B|276:340,1,32.5
218,345,103608,1,0
147,335,103924,6,0,B|97:296|84:238,1,97.5
89,257,104555,2,0,B|73:217|82:166,1,65
79,158,105029,1,0
83,122,105187,2,0,B|102:76,1,32.5
166,96,105660,2,0,B|192:51,1,32.5
249,42,106134,1,0
320,44,106450,1,0
402,107,107081,5,2
402,107,107397,1,0
373,260,108345,1,2
373,260,108660,1,0
252,160,109608,1,2
252,160,109923,1,0
217,312,110871,1,2
217,312,111186,1,0
109,132,112134,5,2
109,132,112450,1,0
138,285,113398,1,2
138,285,113713,1,0
259,185,114661,1,2
259,185,114976,1,0
294,337,115924,1,2
294,337,116239,1,0
