osu file format v12

[General]
AudioFilename: neu.mp3
AudioLeadIn: 0
PreviewTime: 110356
Countdown: 0
SampleSet: Soft
StackLeniency: 0.3
Mode: 0
LetterboxInBreaks: 1

[Editor]
DistanceSpacing: 1.1
BeatDivisor: 4
GridSize: 4

[Metadata]
Title:neu
TitleUnicode:neu
Artist:Shounen Radio
ArtistUnicode:少年ラジオ
Creator:Philippines
Version:Silver
Source:pop'n Music 15 ADVENTURE
Tags:wac jun wakita niente LKs OnosakiHito Kokatsu
BeatmapID:179037
BeatmapSetID:58422

[Difficulty]
HPDrainRate:5
CircleSize:4
OverallDifficulty:6
ApproachRate:7
SliderMultiplier:1.4
SliderTickRate:1

[Events]
//Background and Video events
0,0,"BG.jpg",0,0
//Break Periods
2,91209,94945
//Storyboard Layer 0 (Background)
//Storyboard Layer 1 (Fail)
//Storyboard Layer 2 (Pass)
//Storyboard Layer 3 (Foreground)
//Storyboard Sound Samples
//Background Colour Transformations
3,100,212,208,200
Sprite,Foreground,Centre,"Storyboard\Light2.png",320,240 M,0,3947,,320,240 F,0,3947,5157,0,0.3481601 R,0,3947,149050,0,4.54656 F,0,5157,139376,0.3481601 F,0,139376,149050,0.3481601,0
Sprite,Foreground,Centre,"Storyboard\Light.png",320,240 F,0,3947,5157,0,0.2559999 R,0,3947,149050,2.23232,10.89536 F,0,5157,139376,0.2559999 F,0,139376,149050,0.2559999,0
Sprite,Foreground,Centre,"BG.jpg",320,240 M,0,95845,,320,240 S,0,95845,,0.63136 F,0,95845,100682,0,0.9859504 C,0,95845,101891,0,128,255,255,128,128 F,0,100682,139376,0.9859504,1 F,0,139376,149050,1,0
Sprite,Foreground,Centre,"Storyboard\B1.png",320,440 M,0,32968,,320,440 F,0,32968,33119,0,1 F,0,33119,35386,1,0.8940398 F,0,35386,35689,0.8940398,0
Sprite,Foreground,Centre,"Storyboard\B2.png",320,440 F,0,35689,35840,0,1 F,0,35840,37503,1 F,0,37503,37805,1,0
Sprite,Foreground,Centre,"Storyboard\B3.png",320,440 F,0,37805,37956,0,1 F,0,37956,39619,1,0.9536424 F,0,39619,39921,0.9536424,0
Sprite,Foreground,Centre,"Storyboard\B4.png",320,440 F,0,39921,40072,0,1 F,0,40072,40374,1 F,0,40374,40677,1,0
Sprite,Foreground,Centre,"Storyboard\B5.png",320,440 F,0,40525,40677,0,1 F,0,40677,41130,1 F,0,41130,41432,1,0
Sprite,Foreground,Centre,"Storyboard\B6.png",320,440 F,0,41432,41584,0,1 F,0,41584,42037,1 F,0,42037,42339,1,0
Sprite,Foreground,Centre,"Storyboard\B7.png",320,440 F,0,90404,90555,0,1 F,0,90555,92823,1,0.9735099 F,0,92823,93125,0.9735099,0
Sprite,Foreground,Centre,"Storyboard\B5.png",320,440 F,0,93427,93578,0,1 F,0,93578,95241,1,0.7218543 F,0,95241,95543,0.7218543,0
Sprite,Foreground,Centre,"Storyboard\B6.png",320,440 F,0,95845,95997,0,1 F,0,95997,97659,1,0.8552632 F,0,97659,97962,0.8552632,0
Sprite,Foreground,Centre,"Storyboard\B8.png",320,440 F,0,98264,98415,0,1 F,0,98415,100078,1 F,0,100078,100380,1,0
Sprite,Foreground,Centre,"Storyboard\R1.png",320,440 M,0,120332,,320,440 F,0,120332,120483,0,1 F,0,120483,122448,1 F,0,122448,122750,1,0
Sprite,Foreground,Centre,"Storyboard\R2.png",320,440 F,0,122750,122901,0,1 F,0,122901,124564,1 F,0,124564,124866,1,0
Sprite,Foreground,Centre,"Storyboard\R3.png",320,440 F,0,124866,125017,0,1 F,0,125017,126680,1 F,0,126680,126982,1,0
Sprite,Foreground,Centre,"Storyboard\R4.png",320,440 F,0,126982,127133,0,1 F,0,127133,127284,1 F,0,127284,127587,1,0
Sprite,Foreground,Centre,"Storyboard\R5.png",320,440 F,0,127587,127738,0,1 F,0,127738,128191,1 F,0,128191,128494,1,0
Sprite,Foreground,Centre,"Storyboard\R6.png",320,440 F,0,128494,128645,0,1 F,0,128645,129098,1 F,0,129098,129401,1,0
Sprite,Foreground,Centre,"Storyboard\R1.png",320,440 F,0,130005,130156,0,1 F,0,130156,132121,1 F,0,132121,132423,1,0
Sprite,Foreground,Centre,"Storyboard\R2.png",320,440 F,0,132423,132575,0,1 F,0,132575,134237,1 F,0,134237,134540,1,0
Sprite,Foreground,Centre,"Storyboard\R3.png",320,440 F,0,134540,134691,0,1 F,0,134691,136353,1 F,0,136353,136656,1,0
Sprite,Foreground,Centre,"Storyboard\R4.png",320,440 F,0,136656,136807,0,1 F,0,136807,136958,1 F,0,136958,137260,1,0
Sprite,Foreground,Centre,"Storyboard\R5.png",320,440 F,0,137260,137411,0,1 F,0,137411,137865,1 F,0,137865,138167,1,0
Sprite,Foreground,Centre,"Storyboard\R6.png",320,440 F,0,138167,138318,0,1 F,0,138318,139376,1 F,0,139376,139679,1,0

[TimingPoints]
3948,302.29746070133,4,2,0,60,1,0
23295,-100,4,1,0,60,0,1
42642,302.29746070133,3,2,0,60,1,0
70453,302.29746070133,4,1,0,60,1,0
70755,-100,4,1,0,30,0,0
71057,-100,4,1,0,40,0,0
71359,-100,4,1,0,50,0,0
71662,-100,4,1,0,60,0,0
100682,-100,4,1,0,60,0,1
139376,-100,4,1,0,60,0,0

[Colours]
Combo1 : 255,128,64
Combo2 : 0,255,255
Combo3 : 0,128,192
Combo4 : 255,128,128

[HitObjects]
36,100,3947,2,0,B|56:60|140:48|160:104|160:104,1,140,4|0,0:0|0:0,0:0:0:0:
240,48,4552,2,0,B|236:41|256:97|340:85|360:45,1,140
456,64,5157,1,2,0:0:0:0:
388,132,5459,1,0,0:0:0:0:
472,184,5761,1,0,0:0:0:0:
412,260,6064,1,0,0:0:0:0:
360,340,6366,6,0,B|328:368|240:356|252:288|252:288,1,140
184,368,6970,2,0,B|183:376|195:308|107:296|75:324,1,140
24,240,7575,2,0,B|-8:200|20:128|76:140|76:140,1,140,2|0,0:0|0:0,0:0:0:0:
172,128,8180,1,0,0:0:0:0:
260,84,8482,2,0,B|320:28,2,70,0|0|6,0:0|0:0|0:0,0:0:0:0:
340,140,9087,37,0,0:0:0:0:
412,72,9389,2,0,B|364:96|364:180|428:200|428:200,1,140
472,268,9993,2,0,B|467:249|498:309|438:368|387:351,1,140,2|0,0:0|0:0,0:0:0:0:
324,284,10598,2,0,B|300:236|208:236|204:304|204:304,1,140
128,344,11203,1,0,0:0:0:0:
52,284,11505,1,0,0:0:0:0:
140,240,11807,1,0,0:0:0:0:
60,184,12110,6,0,B|48:112,1,70,0|2,0:0|0:0,0:0:0:0:
180,36,12563,2,0,B|192:108,1,70,0|2,0:0|0:0,0:0:0:0:
268,116,12865,2,0,B|256:44,1,70,0|2,0:0|0:0,0:0:0:0:
332,60,13168,2,0,B|344:132,1,70,0|2,0:0|0:0,0:0:0:0:
420,140,13470,2,0,B|408:68,1,70,0|4,0:0|0:0,0:0:0:0:
408,70,14226,37,0,0:0:0:0:
432,208,14831,1,0,0:0:0:0:
292,224,15435,1,2,0:0:0:0:
268,86,16039,2,0,B|252:40|164:24|140:88|140:88,1,140
88,108,16644,2,0,B|104:154|192:170|216:106|216:106,1,140
268,87,17249,5,0,0:0:0:0:
420,84,17551,1,0,0:0:0:0:
428,236,17853,1,2,0:0:0:0:
276,239,18155,2,0,B|252:320,1,70
184,276,18458,38,0,B|208:195,1,70
128,196,18760,2,0,B|104:277,1,70
36,233,19062,1,2,0:0:0:0:
132,112,19365,2,0,B|156:31,1,70
224,75,19668,6,0,B|200:156,1,70
280,155,19970,2,0,B|304:74,1,70
372,118,20272,1,2,0:0:0:0:
452,252,20574,2,0,B|376:264,1,70
382,339,20876,38,0,B|306:351,1,70,0|0,0:0|0:0,0:0:0:0:
300,276,21178,2,0,B|224:288,1,70
192,356,21481,2,0,B|116:368,1,70
84,300,21783,2,0,B|8:312,2,70,0|0|2,0:0|0:0|0:0,0:0:0:0:
160,288,22236,1,2,0:0:0:0:
160,288,23295,6,0,B|104:264|112:152|184:152,1,140,4|0,0:0|0:0,0:0:0:0:
212,144,23748,2,0,B|260:116|260:52|216:20,2,140
212,216,24504,1,0,0:0:0:0:
344,172,24806,1,0,0:0:0:0:
392,304,25108,1,0,0:0:0:0:
260,348,25410,1,0,0:0:0:0:
120,348,25713,38,0,B|72:360|28:304|56:252,1,140
96,200,26166,1,0,0:0:0:0:
36,164,26318,2,0,B|16:80,1,70
124,78,26620,2,0,B|144:162,1,70
177,296,26922,6,0,B|157:212,2,70
316,307,27527,2,0,B|336:391,2,70
427,223,28131,38,0,B|472:191|459:105|392:101,1,140
286,51,28736,2,0,B|241:83|254:169|321:173,1,140
226,288,29340,2,0,B|228:329|251:361,2,70
159,263,29794,1,0,0:0:0:0:
93,237,29945,2,0,B|91:196|68:164,2,70
0,336,30550,6,0,B|36:376|112:360|132:308,1,140
159,263,31003,1,0,0:0:0:0:
192,200,31154,2,0,B|203:164|279:148|315:188,1,140
360,320,31759,38,0,B|320:336|284:324,1,70
428,312,32061,2,0,B|461:338|467:368,1,70
388,256,32363,2,0,B|394:213|416:193,2,70
401,126,32968,6,0,B|423:106|429:63,1,70,4|0,0:0|0:0,0:0:0:0:
338,95,33270,2,0,B|331:65|297:39,1,70
343,164,33573,2,0,B|323:201|251:212|213:182,1,140
134,72,34177,37,0,0:0:0:0:
101,208,34480,1,0,0:0:0:0:
64,343,34782,2,0,B|25:332|-3:304,2,70
133,331,35235,1,0,0:0:0:0:
201,315,35386,6,0,B|223:359|288:368|324:336,1,140
438,259,35991,2,0,B|435:297|445:347,2,70
439,189,36444,1,0,0:0:0:0:
378,152,36596,2,0,B|390:120|436:105|472:123|472:123|500:91,1,140
365,39,37200,2,0,B|353:71|307:87|271:68|271:68|243:100,1,140
60,24,37805,38,0,B|26:52|48:127|102:129,1,140
160,168,38259,2,0,B|215:166|235:244|202:273,1,140,0|0,0:0|0:0,0:0:0:0:
192,340,38712,1,0,0:0:0:0:
390,344,39014,2,0,B|358:344|358:344|332:367|276:365|258:329,2,140
259,238,39921,1,0,0:0:0:0:
314,286,40072,1,0,0:0:0:0:
378,258,40223,6,0,B|372:175|434:215|418:105,1,140
201,72,40828,2,0,B|169:72|169:72|141:49|89:52|69:86,1,140
125,130,41281,1,0,0:0:0:0:
189,158,41432,2,0,B|183:241|245:201|229:311,1,140
261,170,42037,1,0,0:0:0:0:
160,273,42339,1,0,0:0:0:0:
300,275,42642,38,0,B|297:332|369:377|420:324|420:324,1,140
370,272,43095,1,0,0:0:0:0:
439,281,43246,2,0,B|447:236|413:195|376:214|377:168|385:132,1,140,2|0,0:0|0:0,0:0:0:0:
406,22,43851,2,0,B|411:72|337:116|289:72,1,140
132,78,44455,6,0,B|45:56,1,70
111,146,44758,2,0,B|17:140,1,70
107,217,45060,2,0,B|28:229,1,70
125,286,45362,2,0,B|56:313,1,70,0|0,0:0|0:0,0:0:0:0:
153,352,45664,2,0,B|184:387|271:385|295:337,1,140,2|0,0:0|0:0,0:0:0:0:
420,333,46269,37,0,0:0:0:0:
299,261,46571,2,0,B|333:284|374:296,2,70,0|0|2,0:0|0:0|0:0,0:0:0:0:
417,185,47176,2,0,B|470:176|516:238|490:290,1,140
337,176,47781,1,0,0:0:0:0:
203,132,48083,6,0,B|215:94|185:61,1,70
137,113,48385,2,0,B|100:100|66:131,1,70
117,179,48687,2,0,B|105:217|135:250,1,70
183,198,48989,2,0,B|220:211|254:180,1,70
285,124,49292,2,0,B|308:152|365:141|384:108|384:108|420:104,1,140,2|0,0:0|0:0,0:0:0:0:
389,39,49745,1,0,0:0:0:0:
325,69,49897,38,0,B|314:123|338:181|326:245,1,140
467,184,50501,1,2,0:0:0:0:
377,291,50804,2,0,B|329:323|252:295|248:252,1,140
130,334,51408,1,0,0:0:0:0:
13,256,51710,6,0,B|45:259|89:245,1,70
80,176,52013,2,0,B|112:173|156:187,1,70
193,239,52315,2,0,B|225:242|269:228,1,70
269,160,52617,2,0,B|301:157|345:171,1,70
350,238,52920,2,0,B|366:280|448:279|473:236,1,140,2|0,0:0|0:0,0:0:0:0:
464,171,53373,1,2,0:0:0:0:
401,139,53524,38,0,B|416:104|462:89|497:108|497:108|528:80,1,140,2|0,0:0|0:0,0:0:0:0:
388,33,54129,2,0,B|373:68|327:83|292:64|292:64|261:92,1,140
133,106,54733,6,0,B|44:115,1,70
121,180,55036,2,0,B|34:203,2,70,2|2|2,0:0|0:0|0:0,0:0:0:0:
155,315,55640,1,2,0:0:0:0:
292,341,55943,38,0,B|381:332,1,70
304,267,56246,2,0,B|391:244,2,70,2|2|2,0:0|0:0|0:0,0:0:0:0:
270,132,56850,1,2,0:0:0:0:
379,44,57152,6,0,B|384:125|400:205,1,140
449,227,57605,2,0,B|456:267|464:309,1,70,0|2,0:0|0:0,0:0:0:0:
337,361,58059,2,0,B|325:307|253:289|214:323,1,140
85,334,58663,1,0,0:0:0:0:
77,193,58966,38,0,B|65:231|95:264,1,70
143,212,59268,2,0,B|180:225|214:194,1,70
163,146,59570,2,0,B|175:108|145:75,1,70
97,127,59872,2,0,B|60:114|26:145,1,70
77,193,60175,2,0,B|61:235|104:301|168:289,1,140,2|0,0:0|0:0,0:0:0:0:
199,340,60628,1,2,0:0:0:0:
131,356,60779,6,0,B|117:296|181:252|229:276,1,140,2|0,0:0|0:0,0:0:0:0:
351,248,61384,2,0,B|390:264|448:221|432:162,2,140
361,178,62140,1,2,0:0:0:0:
361,178,62291,2,0,B|418:185|452:257|393:305,1,140,2|2,0:0|0:0,0:0:0:0:
285,341,62895,1,2,0:0:0:0:
182,245,63198,38,0,B|143:229|85:272|100:330,1,140
172,315,63651,1,2,0:0:0:0:
172,315,63802,2,0,B|115:308|81:236|140:188,1,140,2|2,0:0|0:0,0:0:0:0:
13,119,64407,6,0,B|56:129|94:108,1,70,2|0,0:0|0:0,0:0:0:0:
81,44,64709,2,0,B|124:45|142:80,1,70
145,145,65012,1,0,0:0:0:0:
236,39,65314,38,0,B|226:82|247:120,1,70,2|0,0:0|0:0,0:0:0:0:
311,107,65616,2,0,B|310:150|275:168,1,70
210,171,65919,1,0,0:0:0:0:
315,262,66221,6,0,B|272:252|234:273,1,70,2|0,0:0|0:0,0:0:0:0:
247,337,66523,2,0,B|204:336|186:301,1,70
183,236,66826,1,0,0:0:0:0:
92,342,67128,38,0,B|102:299|81:261,1,70,2|0,0:0|0:0,0:0:0:0:
16,273,67430,2,0,B|17:230|52:212,1,70
116,209,67733,1,0,0:0:0:0:
136,72,68034,6,0,B|175:119|283:123|361:95|389:35,1,280,2|0,0:0|0:0,0:0:0:0:
422,160,68941,1,2,0:0:0:0:
256,192,69093,12,0,70453,0:0:0:0:
86,184,70755,38,0,B|166:165,1,70
130,250,71057,2,0,B|210:231,1,70,0|0,0:0|0:0,0:0:0:0:
174,316,71359,2,0,B|254:297,1,70,0|0,0:0|0:0,0:0:0:0:
309,320,71662,6,0,B|314:267|394:233|434:288,1,140,4|0,0:0|0:0,0:0:0:0:
381,334,72115,1,0,0:0:0:0:
430,198,72417,1,0,0:0:0:0:
416,270,72569,38,0,B|363:265|329:185|384:145,1,140,4|0,0:0|0:0,0:0:0:0:
430,198,73022,1,0,0:0:0:0:
294,149,73323,1,0,0:0:0:0:
366,163,73475,6,0,B|361:216|281:250|241:195,1,140,4|4,0:0|0:0,0:0:0:0:
184,92,74080,38,0,B|179:145|99:179|59:124,1,140,4|0,0:0|0:0,0:0:0:0:
112,78,74533,1,0,0:0:0:0:
63,214,74835,1,0,0:0:0:0:
77,142,74987,6,0,B|130:147|164:227|109:267,1,140,4|0,0:0|0:0,0:0:0:0:
63,214,75440,1,0,0:0:0:0:
199,263,75743,1,0,0:0:0:0:
127,249,75893,38,0,B|132:196|212:162|252:217,1,140,4|4,0:0|0:0,0:0:0:0:
296,74,76498,6,0,B|334:215,1,140,4|0,0:0|0:0,0:0:0:0:
389,251,76952,1,0,0:0:0:0:
389,251,77254,37,0,0:0:0:0:
332,209,77405,2,0,B|296:74,1,140,4|0,0:0|0:0,0:0:0:0:
237,35,77859,1,0,0:0:0:0:
237,35,78161,5,0,0:0:0:0:
296,74,78312,2,0,B|334:215,1,140,4|4,0:0|0:0,0:0:0:0:
442,295,78917,38,0,B|434:357|340:373|311:309,1,140,4|0,0:0|0:0,0:0:0:0:
267,309,79370,2,0,B|238:359|156:337|154:291,1,140
86,279,79824,2,0,B|113:219|57:153|14:173,1,140,4|0,0:0|0:0,0:0:0:0:
40,96,80277,2,0,B|86:119|144:85|146:33,1,140
215,47,80731,2,0,B|218:121,1,70,4|0,0:0|0:0,0:0:0:0:
303,170,81033,2,0,B|300:96,1,70,4|0,0:0|0:0,0:0:0:0:
378,120,81335,6,0,B|510:163,1,140,4|0,0:0|0:0,0:0:0:0:
502,233,81789,2,0,B|370:190,1,140
360,259,82242,38,0,B|492:302,1,140,4|0,0:0|0:0,0:0:0:0:
484,372,82696,2,0,B|352:329,1,140
281,336,83149,6,0,B|191:303,1,70,4|0,0:0|0:0,0:0:0:0:
217,214,83451,2,0,B|307:247,1,70,4|0,0:0|0:0,0:0:0:0:
136,195,83754,38,0,B|85:208|25:147|64:91,1,140,4|0,0:0|0:0,0:0:0:0:
127,122,84207,2,0,B|114:71|175:11|235:51,1,140
200,113,84660,6,0,B|251:100|311:161|272:217,1,140,4|0,0:0|0:0,0:0:0:0:
209,186,85113,2,0,B|222:237|161:297|101:257,1,140
46,329,85567,38,0,B|120:345,1,70,4|0,0:0|0:0,0:0:0:0:
254,349,85870,2,0,B|180:333,1,70,4|0,0:0|0:0,0:0:0:0:
332,333,86172,6,0,B|326:276|378:237|434:261,1,140,4|0,0:0|0:0,0:0:0:0:
401,323,86625,2,0,B|332:299|338:211|400:187,1,140
422,256,87079,38,0,B|365:262|326:210|350:154,1,140,4|0,0:0|0:0,0:0:0:0:
412,187,87532,2,0,B|388:256|300:250|276:188,1,140
345,166,87986,6,0,B|334:93,1,70,4|0,0:0|0:0,0:0:0:0:
236,42,88288,2,0,B|247:115,1,70,4|0,0:0|0:0,0:0:0:0:
242,189,88590,38,0,B|212:227|142:225|118:177,1,140,4|0,0:0|0:0,0:0:0:0:
118,112,89044,2,0,B|140:161|104:223|46:215,1,140
53,145,89497,1,4,0:0:0:0:
43,285,89800,2,0,B|82:345,1,70,0|4,0:0|0:0,0:0:0:0:
256,192,90102,12,4,91009,0:0:0:0:
84,100,95845,5,0,0:0:0:0:
182,98,96148,1,0,0:0:0:0:
266,146,96450,1,0,0:0:0:0:
296,239,96752,1,0,0:0:0:0:
279,335,97055,37,0,0:0:0:0:
296,239,97357,1,0,0:0:0:0:
375,181,97659,1,0,0:0:0:0:
473,182,97962,1,0,0:0:0:0:
460,315,98264,6,0,B|425:324|386:315,1,70
296,239,98566,2,0,B|331:230|370:239,1,70
512,237,98868,2,0,B|477:246|438:237,1,70
359,156,99170,2,0,B|394:147|433:156,1,70
419,57,99473,38,0,B|449:25,15,35
404,75,100682,38,0,B|352:97|290:49|306:0,1,140,4|0,0:0|0:0,0:0:0:0:
233,43,101136,2,0,B|224:104|150:115|112:77,1,140
52,114,101589,1,0,0:0:0:0:
89,181,101740,1,0,0:0:0:0:
45,244,101891,38,0,B|21:297|68:361|132:337,1,140
166,290,102345,2,0,B|189:340|265:336|293:291,1,140
349,343,102798,2,0,B|396:280,1,70
461,317,103101,6,0,B|480:271|444:227,3,70
409,190,103705,2,0,B|390:144|426:100,3,70,0|0|0|0,0:0|0:0|0:0|0:0,0:0:0:0:
418,45,104310,38,0,B|336:40,1,70
284,83,104612,1,0,0:0:0:0:
159,167,104914,6,0,B|241:162,1,70
293,205,105216,1,0,0:0:0:0:
170,43,105519,38,0,B|134:5|61:23|45:67,1,140
18,130,105972,2,0,B|78:133|105:207|68:257,1,140
28,291,106426,2,0,B|109:333,1,70
161,294,106728,6,0,B|180:332|152:375,1,70
161,294,107030,2,0,B|191:323|180:373,1,70
161,294,107333,38,0,B|199:310|206:361,1,70
161,294,107635,2,0,B|203:296|226:342,1,70
290,301,107937,6,0,B|306:355|384:356|404:313,1,140
478,309,108391,1,0,0:0:0:0:
432,247,108542,2,0,B|456:225|498:231|498:231|508:155,1,140
476,91,108995,1,0,0:0:0:0:
426,150,109147,38,0,B|393:124|398:77,1,70
342,34,109449,2,0,B|316:67|269:62,1,70
213,99,109751,2,0,B|192:61|213:24,3,70
131,28,110356,6,0,B|125:99|128:192,1,140
92,236,110809,1,0,0:0:0:0:
48,300,110960,2,0,B|54:229|51:136,1,140
53,82,111414,1,0,0:0:0:0:
128,98,111565,2,0,B|174:124|250:92|246:36,1,140
397,34,112170,2,0,B|340:87,1,70
411,120,112472,2,0,B|361:185,1,70
425,227,112774,38,0,B|460:265|424:343|369:329,1,140
227,358,113379,2,0,B|192:320|228:242|283:256,1,140
332,112,113983,1,0,0:0:0:0:
206,22,114286,1,0,0:0:0:0:
147,164,114588,1,0,0:0:0:0:
273,254,114891,1,0,0:0:0:0:
140,332,115193,6,0,B|90:345|33:291|63:227,1,140
130,259,115646,2,0,B|177:244|237:299|207:364,1,140
290,358,116099,1,0,0:0:0:0:
443,345,116402,2,0,B|484:277,1,70
404,267,116704,2,0,B|420:195,1,70
342,195,117006,2,0,B|317:245|242:245|212:195,1,140
153,175,117460,1,0,0:0:0:0:
79,196,117611,38,0,B|36:168|40:95|94:75,1,140
226,17,118215,2,0,B|269:45|265:118|211:138,1,140
343,42,118820,6,0,B|376:79,15,35
390,98,120029,38,0,B|369:239,1,140,4|0,0:0|0:0,0:0:0:0:
461,359,120634,2,0,B|482:218,1,140
366,322,121238,6,0,B|352:353|304:361,1,70
300,283,121541,2,0,B|264:267|258:221,1,70
335,218,121843,2,0,B|374:229|432:192|424:128,1,140
312,29,122448,37,0,0:0:0:0:
158,36,122750,2,0,B|142:76|164:109,1,70
232,130,123052,2,0,B|218:171|176:176,1,70
108,153,123355,2,0,B|94:183|117:221,1,70
180,261,123657,6,0,B|156:297|116:293,1,70
45,304,123959,2,0,B|48:345|89:361,1,70
159,362,124261,2,0,B|210:386|273:357|284:295,1,140
429,342,124866,38,0,B|374:343|340:256|400:211,1,140
437,187,125319,2,0,B|462:155|437:80|380:83,1,140
372,154,125773,1,0,0:0:0:0:
265,42,126075,2,0,B|258:77|258:77|218:93|202:139|222:176,3,140
290,145,127133,1,0,0:0:0:0:
266,218,127284,6,0,B|234:251|165:243|147:191,1,140
28,289,127889,2,0,B|60:322|129:314|147:262,1,140
268,359,128494,2,0,B|236:392|167:384|149:332,2,140
401,339,129401,2,0,B|368:311,3,35
356,300,129703,38,0,B|413:287|421:209|374:173,1,140,4|0,0:0|0:0,0:0:0:0:
352,36,130307,2,0,B|295:49|287:127|334:163,1,140
201,50,130912,1,0,0:0:0:0:
64,120,131214,2,0,B|98:105|128:69,2,70
10,264,131819,1,0,0:0:0:0:
124,366,132121,6,0,B|81:340|87:264|142:246,1,140
226,128,132726,2,0,B|269:154|263:230|208:248,1,140
348,325,133330,38,0,B|376:303|376:303|384:256|428:229|464:244,1,140
452,315,133784,1,0,0:0:0:0:
316,243,133935,2,0,B|344:192|388:164|438:164,1,140
316,52,134540,6,0,B|272:33|200:64|196:127,1,140
133,142,134993,2,0,B|78:161|20:111|38:56,1,140
109,70,135446,1,0,0:0:0:0:
86,220,135749,2,0,B|140:223|166:299|124:343,3,140
67,291,136807,1,0,0:0:0:0:
170,178,136958,38,0,B|206:203|228:257|219:311,1,140
371,333,137563,2,0,B|333:310|311:252|322:200,1,140
443,302,138167,6,0,B|421:244,3,35
441,233,138469,2,0,B|452:187,3,35
432,163,138772,2,0,B|420:126,3,35
449,103,139074,2,0,B|462:53,3,35
437,36,139376,37,4,0:0:0:0:
