osu file format v12

[General]
AudioFilename: neu.mp3
AudioLeadIn: 0
PreviewTime: 110356
Countdown: 0
SampleSet: Normal
StackLeniency: 0.4
Mode: 1
LetterboxInBreaks: 0

[Editor]
DistanceSpacing: 1.2
BeatDivisor: 4
GridSize: 4

[Metadata]
Title:neu
TitleUnicode:neu
Artist:Shounen Radio
ArtistUnicode:少年ラジオ
Creator:Philippines
Version:Ono's Taiko Inner Oni
Source:pop'n Music 15 ADVENTURE
Tags:wac jun wakita niente LKs OnosakiHito Kokatsu
BeatmapID:224171
BeatmapSetID:58422

[Difficulty]
HPDrainRate:6
CircleSize:4
OverallDifficulty:6
ApproachRate:5
SliderMultiplier:1.4
SliderTickRate:1

[Events]
//Background and Video events
0,0,"Taiko_BG.jpg",1,1
//Break Periods
//Storyboard Layer 0 (Background)
//Storyboard Layer 1 (Fail)
//Storyboard Layer 2 (Pass)
//Storyboard Layer 3 (Foreground)
//Storyboard Sound Samples
//Background Colour Transformations
3,100,163,162,255

[TimingPoints]
3948,302.29746070133,4,1,0,100,1,0
42642,302.29746070133,3,1,0,100,1,0
42642,-133.333333333333,3,1,0,100,0,0
70453,302.29746070133,4,1,0,100,1,0
70453,-133.333333333333,4,1,0,100,0,0
71662,-100,4,1,0,100,0,0
100682,-100,4,1,0,100,0,1
139376,-100,4,1,0,100,0,0

[HitObjects]
256,192,3947,1,4,0:0:0:0:
256,192,4552,5,8,0:0:0:0:
256,192,4854,1,8,0:0:0:0:
256,192,6366,5,0,0:0:0:0:
256,192,6970,5,8,0:0:0:0:
256,192,7273,1,8,0:0:0:0:
256,192,8482,5,0,0:0:0:0:
256,192,8633,1,0,0:0:0:0:
256,192,8784,1,4,0:0:0:0:
256,192,9389,5,8,0:0:0:0:
256,192,9691,1,8,0:0:0:0:
256,192,11203,1,0,0:0:0:0:
256,192,11807,5,8,0:0:0:0:
256,192,12110,5,0,0:0:0:0:
256,192,12261,1,0,0:0:0:0:
256,192,12563,1,0,0:0:0:0:
256,192,12714,5,8,0:0:0:0:
256,192,13016,1,8,0:0:0:0:
256,192,13168,1,8,0:0:0:0:
256,192,13319,5,0,0:0:0:0:
256,192,13621,1,0,0:0:0:0:
256,192,13923,1,0,0:0:0:0:
256,192,14226,1,0,0:0:0:0:
256,192,14528,1,0,0:0:0:0:
256,192,14830,1,0,0:0:0:0:
256,192,15133,1,0,0:0:0:0:
256,192,15435,1,0,0:0:0:0:
256,192,15737,1,0,0:0:0:0:
256,192,16039,1,0,0:0:0:0:
256,192,16342,1,0,0:0:0:0:
256,192,16644,1,0,0:0:0:0:
256,192,16946,1,0,0:0:0:0:
256,192,17249,1,0,0:0:0:0:
256,192,17551,1,0,0:0:0:0:
256,192,17853,1,0,0:0:0:0:
256,192,18155,5,8,0:0:0:0:
256,192,18458,5,0,0:0:0:0:
256,192,18609,1,0,0:0:0:0:
256,192,18760,1,0,0:0:0:0:
256,192,18911,1,0,0:0:0:0:
256,192,19062,1,0,0:0:0:0:
256,192,19214,1,0,0:0:0:0:
256,192,19365,1,0,0:0:0:0:
256,192,19516,1,0,0:0:0:0:
256,192,19667,1,0,0:0:0:0:
256,192,19818,1,0,0:0:0:0:
256,192,19969,1,0,0:0:0:0:
256,192,20120,1,0,0:0:0:0:
256,192,20272,1,0,0:0:0:0:
256,192,20423,1,0,0:0:0:0:
256,192,20574,5,8,0:0:0:0:
256,192,20876,5,0,0:0:0:0:
256,192,21027,1,0,0:0:0:0:
256,192,21103,1,0,0:0:0:0:
256,192,21178,1,0,0:0:0:0:
256,192,21330,1,0,0:0:0:0:
256,192,21481,1,0,0:0:0:0:
256,192,21556,1,0,0:0:0:0:
256,192,21632,1,0,0:0:0:0:
256,192,21707,1,0,0:0:0:0:
256,192,21783,1,0,0:0:0:0:
256,192,21934,1,0,0:0:0:0:
256,192,22085,5,12,0:0:0:0:
256,192,22236,5,4,0:0:0:0:
256,192,22690,1,0,0:0:0:0:
256,192,22841,1,0,0:0:0:0:
256,192,22992,5,8,0:0:0:0:
256,192,23143,1,8,0:0:0:0:
256,192,23295,5,0,0:0:0:0:
256,192,23446,1,0,0:0:0:0:
256,192,23521,1,0,0:0:0:0:
256,192,23597,5,8,0:0:0:0:
256,192,23748,1,8,0:0:0:0:
256,192,23824,1,8,0:0:0:0:
256,192,23899,5,0,0:0:0:0:
256,192,24050,1,0,0:0:0:0:
256,192,24126,1,0,0:0:0:0:
256,192,24201,5,8,0:0:0:0:
256,192,24353,1,8,0:0:0:0:
256,192,24504,5,0,0:0:0:0:
256,192,24579,1,0,0:0:0:0:
256,192,24655,5,8,0:0:0:0:
256,192,24730,1,8,0:0:0:0:
256,192,24806,5,0,0:0:0:0:
256,192,24957,1,0,0:0:0:0:
256,192,25108,5,8,0:0:0:0:
256,192,25184,1,8,0:0:0:0:
256,192,25259,5,0,0:0:0:0:
256,192,25335,1,0,0:0:0:0:
256,192,25411,5,8,0:0:0:0:
256,192,25562,1,8,0:0:0:0:
256,192,25713,5,0,0:0:0:0:
256,192,25864,5,8,0:0:0:0:
256,192,25940,1,8,0:0:0:0:
256,192,26015,5,0,0:0:0:0:
256,192,26166,5,8,0:0:0:0:
256,192,26318,5,0,0:0:0:0:
256,192,26393,1,0,0:0:0:0:
256,192,26469,5,8,0:0:0:0:
256,192,26544,5,0,0:0:0:0:
256,192,26620,5,8,0:0:0:0:
256,192,26695,1,8,0:0:0:0:
256,192,26771,5,0,0:0:0:0:
256,192,26922,5,8,0:0:0:0:
256,192,27073,1,8,0:0:0:0:
256,192,27149,5,0,0:0:0:0:
256,192,27300,1,0,0:0:0:0:
256,192,27376,5,8,0:0:0:0:
256,192,27527,1,8,0:0:0:0:
256,192,27602,1,8,0:0:0:0:
256,192,27678,5,0,0:0:0:0:
256,192,27753,1,0,0:0:0:0:
256,192,27829,5,8,0:0:0:0:
256,192,27980,1,8,0:0:0:0:
256,192,28131,5,0,0:0:0:0:
256,192,28207,1,0,0:0:0:0:
256,192,28282,5,8,0:0:0:0:
256,192,28358,1,8,0:0:0:0:
256,192,28434,5,0,0:0:0:0:
256,192,28509,5,8,0:0:0:0:
256,192,28585,5,0,0:0:0:0:
256,192,28660,1,0,0:0:0:0:
256,192,28736,5,8,0:0:0:0:
256,192,28887,1,8,0:0:0:0:
256,192,29038,5,0,0:0:0:0:
256,192,29189,5,8,0:0:0:0:
256,192,29265,1,8,0:0:0:0:
256,192,29340,5,0,0:0:0:0:
256,192,29492,1,0,0:0:0:0:
256,192,29567,1,0,0:0:0:0:
256,192,29643,5,8,0:0:0:0:
256,192,29718,5,0,0:0:0:0:
256,192,29794,5,8,0:0:0:0:
256,192,29870,1,8,0:0:0:0:
256,192,29945,5,0,0:0:0:0:
256,192,30096,5,8,0:0:0:0:
256,192,30247,5,0,0:0:0:0:
256,192,30399,5,8,0:0:0:0:
256,192,30474,1,8,0:0:0:0:
256,192,30550,5,0,0:0:0:0:
256,192,30701,5,8,0:0:0:0:
256,192,30852,5,0,0:0:0:0:
256,192,30928,5,8,0:0:0:0:
256,192,31003,5,0,0:0:0:0:
256,192,31079,5,8,0:0:0:0:
256,192,31154,5,0,0:0:0:0:
256,192,31305,5,8,0:0:0:0:
256,192,31457,5,0,0:0:0:0:
256,192,31532,5,8,0:0:0:0:
256,192,31608,5,0,0:0:0:0:
256,192,31683,5,8,0:0:0:0:
256,192,31759,5,0,0:0:0:0:
256,192,31834,1,0,0:0:0:0:
256,192,31910,5,8,0:0:0:0:
256,192,31986,1,8,0:0:0:0:
256,192,32061,1,8,0:0:0:0:
256,192,32212,1,8,0:0:0:0:
256,192,32288,1,8,0:0:0:0:
256,192,32363,1,8,0:0:0:0:
256,192,32515,1,8,0:0:0:0:
256,192,32666,1,8,0:0:0:0:
256,192,32817,1,8,0:0:0:0:
256,192,32968,5,0,0:0:0:0:
256,192,33044,1,0,0:0:0:0:
256,192,33119,1,0,0:0:0:0:
256,192,33195,1,0,0:0:0:0:
256,192,33270,5,8,0:0:0:0:
256,192,33422,5,0,0:0:0:0:
256,192,33497,1,0,0:0:0:0:
256,192,33573,5,8,0:0:0:0:
256,192,33724,5,0,0:0:0:0:
256,192,33799,1,0,0:0:0:0:
256,192,33875,5,8,0:0:0:0:
256,192,34026,1,8,0:0:0:0:
256,192,34177,5,0,0:0:0:0:
256,192,34253,1,0,0:0:0:0:
256,192,34328,1,0,0:0:0:0:
256,192,34404,1,0,0:0:0:0:
256,192,34480,5,8,0:0:0:0:
256,192,34555,1,8,0:0:0:0:
256,192,34631,1,8,0:0:0:0:
256,192,34706,1,8,0:0:0:0:
256,192,34782,5,0,0:0:0:0:
256,192,34933,1,0,0:0:0:0:
256,192,35084,5,8,0:0:0:0:
256,192,35386,5,0,0:0:0:0:
256,192,35613,1,0,0:0:0:0:
256,192,35689,5,8,0:0:0:0:
256,192,35840,5,0,0:0:0:0:
256,192,35915,1,0,0:0:0:0:
256,192,35991,5,8,0:0:0:0:
256,192,36142,5,0,0:0:0:0:
256,192,36218,1,0,0:0:0:0:
256,192,36293,5,8,0:0:0:0:
256,192,36444,1,8,0:0:0:0:
256,192,36596,5,0,0:0:0:0:
256,192,36671,1,0,0:0:0:0:
256,192,36747,1,0,0:0:0:0:
256,192,36822,1,0,0:0:0:0:
256,192,36898,5,8,0:0:0:0:
256,192,36973,1,8,0:0:0:0:
256,192,37049,1,8,0:0:0:0:
256,192,37125,1,8,0:0:0:0:
256,192,37200,5,0,0:0:0:0:
256,192,37351,1,0,0:0:0:0:
256,192,37427,1,0,0:0:0:0:
256,192,37503,5,8,0:0:0:0:
256,192,37654,1,8,0:0:0:0:
256,192,37805,5,0,0:0:0:0:
256,192,37880,1,0,0:0:0:0:
256,192,37956,5,8,0:0:0:0:
256,192,38032,5,0,0:0:0:0:
256,192,38107,1,0,0:0:0:0:
256,192,38258,5,8,0:0:0:0:
256,192,38334,1,8,0:0:0:0:
256,192,38409,5,0,0:0:0:0:
256,192,38485,5,8,0:0:0:0:
256,192,38561,1,8,0:0:0:0:
256,192,38712,5,0,0:0:0:0:
256,192,38863,1,0,0:0:0:0:
256,192,39014,5,8,0:0:0:0:
256,192,39090,1,8,0:0:0:0:
256,192,39165,1,8,0:0:0:0:
256,192,39241,5,0,0:0:0:0:
256,192,39316,5,8,0:0:0:0:
256,192,39467,1,8,0:0:0:0:
256,192,39619,5,0,0:0:0:0:
256,192,39694,5,8,0:0:0:0:
256,192,39770,5,0,0:0:0:0:
256,192,39845,1,0,0:0:0:0:
256,192,39921,1,0,0:0:0:0:
256,192,40072,5,8,0:0:0:0:
256,192,40223,5,0,0:0:0:0:
256,192,40299,1,0,0:0:0:0:
256,192,40374,1,0,0:0:0:0:
256,192,40450,1,0,0:0:0:0:
256,192,40525,5,8,0:0:0:0:
256,192,40601,1,8,0:0:0:0:
256,192,40677,1,8,0:0:0:0:
256,192,40752,1,8,0:0:0:0:
256,192,40828,5,0,0:0:0:0:
256,192,40979,1,0,0:0:0:0:
256,192,41130,5,8,0:0:0:0:
256,192,41281,1,8,0:0:0:0:
256,192,41432,5,0,0:0:0:0:
256,192,41508,5,8,0:0:0:0:
256,192,41584,5,0,0:0:0:0:
256,192,41659,1,0,0:0:0:0:
256,192,41735,5,8,0:0:0:0:
256,192,41810,5,0,0:0:0:0:
256,192,41886,5,8,0:0:0:0:
256,192,41961,1,8,0:0:0:0:
256,192,42037,5,0,0:0:0:0:
256,192,42188,1,0,0:0:0:0:
256,192,42339,5,8,0:0:0:0:
256,192,42490,1,8,0:0:0:0:
256,192,42944,5,0,0:0:0:0:
256,192,43397,5,8,0:0:0:0:
256,192,43548,1,8,0:0:0:0:
256,192,44455,5,0,0:0:0:0:
256,192,44606,1,0,0:0:0:0:
256,192,44758,5,8,0:0:0:0:
256,192,44909,5,0,0:0:0:0:
256,192,45060,5,8,0:0:0:0:
256,192,45211,5,0,0:0:0:0:
256,192,45362,5,8,0:0:0:0:
256,192,45513,1,8,0:0:0:0:
256,192,45664,5,0,0:0:0:0:
256,192,45816,5,8,0:0:0:0:
256,192,45967,5,0,0:0:0:0:
256,192,46118,5,8,0:0:0:0:
256,192,46269,5,0,0:0:0:0:
256,192,46874,5,8,0:0:0:0:
256,192,47176,5,0,0:0:0:0:
256,192,48083,1,0,0:0:0:0:
256,192,48234,5,8,0:0:0:0:
256,192,48385,5,0,0:0:0:0:
256,192,48536,1,0,0:0:0:0:
256,192,48687,5,8,0:0:0:0:
256,192,48839,5,0,0:0:0:0:
256,192,48990,5,8,0:0:0:0:
256,192,49141,1,8,0:0:0:0:
256,192,49292,5,0,0:0:0:0:
256,192,49443,5,8,0:0:0:0:
256,192,49594,5,0,0:0:0:0:
256,192,49745,5,8,0:0:0:0:
256,192,49897,5,0,0:0:0:0:
256,192,50501,5,8,0:0:0:0:
256,192,50804,5,0,0:0:0:0:
256,192,51710,1,0,0:0:0:0:
256,192,51862,5,8,0:0:0:0:
256,192,52013,5,0,0:0:0:0:
256,192,52164,5,8,0:0:0:0:
256,192,52315,5,0,0:0:0:0:
256,192,52466,1,0,0:0:0:0:
256,192,52617,5,8,0:0:0:0:
256,192,52768,5,0,0:0:0:0:
256,192,52920,5,8,0:0:0:0:
256,192,53373,5,0,0:0:0:0:
256,192,53524,1,0,0:0:0:0:
256,192,54129,5,8,0:0:0:0:
256,192,54431,1,8,0:0:0:0:
256,192,55036,5,0,0:0:0:0:
256,192,55338,1,0,0:0:0:0:
256,192,55943,5,8,0:0:0:0:
256,192,56245,1,8,0:0:0:0:
256,192,57152,5,0,0:0:0:0:
256,192,57756,5,8,0:0:0:0:
256,192,58059,5,0,0:0:0:0:
256,192,58966,1,0,0:0:0:0:
256,192,59117,5,8,0:0:0:0:
256,192,59268,5,0,0:0:0:0:
256,192,59419,1,0,0:0:0:0:
256,192,59570,5,8,0:0:0:0:
256,192,59721,1,8,0:0:0:0:
256,192,59872,5,0,0:0:0:0:
256,192,60024,5,8,0:0:0:0:
256,192,60175,5,0,0:0:0:0:
256,192,60326,1,0,0:0:0:0:
256,192,60477,5,8,0:0:0:0:
256,192,60628,1,8,0:0:0:0:
256,192,60779,5,0,0:0:0:0:
256,192,61384,5,8,0:0:0:0:
256,192,61686,5,0,0:0:0:0:
256,192,62291,1,0,0:0:0:0:
256,192,62593,1,0,0:0:0:0:
256,192,64105,5,8,0:0:0:0:
256,192,64407,5,0,0:0:0:0:
256,192,65012,1,0,0:0:0:0:
256,192,65314,5,8,0:0:0:0:
256,192,66221,5,0,0:0:0:0:
256,192,67128,1,0,0:0:0:0:
256,192,68034,1,0,0:0:0:0:
256,192,68941,5,8,0:0:0:0:
256,192,69848,5,0,0:0:0:0:
256,192,70453,1,0,0:0:0:0:
256,192,70906,1,0,0:0:0:0:
256,192,71057,1,0,0:0:0:0:
256,192,71208,1,0,0:0:0:0:
256,192,71359,1,0,0:0:0:0:
256,192,71511,1,0,0:0:0:0:
256,192,71662,1,4,0:0:0:0:
256,192,71964,5,8,0:0:0:0:
256,192,72115,5,0,0:0:0:0:
256,192,72417,5,8,0:0:0:0:
256,192,72569,5,0,0:0:0:0:
256,192,72871,5,8,0:0:0:0:
256,192,73022,5,0,0:0:0:0:
256,192,73324,1,0,0:0:0:0:
256,192,73475,5,8,0:0:0:0:
256,192,73778,1,8,0:0:0:0:
256,192,74080,5,0,0:0:0:0:
256,192,74382,5,8,0:0:0:0:
256,192,74534,5,0,0:0:0:0:
256,192,74836,5,8,0:0:0:0:
256,192,74987,5,0,0:0:0:0:
256,192,75289,5,8,0:0:0:0:
256,192,75440,5,0,0:0:0:0:
256,192,75743,1,0,0:0:0:0:
256,192,75894,5,8,0:0:0:0:
256,192,76196,1,8,0:0:0:0:
256,192,76498,5,0,0:0:0:0:
256,192,76650,5,8,0:0:0:0:
256,192,76801,1,8,0:0:0:0:
256,192,76952,5,0,0:0:0:0:
256,192,77254,5,8,0:0:0:0:
256,192,77405,5,0,0:0:0:0:
256,192,77556,1,0,0:0:0:0:
256,192,77708,5,8,0:0:0:0:
256,192,77859,5,0,0:0:0:0:
256,192,78161,1,0,0:0:0:0:
256,192,78312,5,8,0:0:0:0:
256,192,78615,5,0,0:0:0:0:
256,192,78917,5,8,0:0:0:0:
256,192,79068,5,0,0:0:0:0:
256,192,79219,1,0,0:0:0:0:
256,192,79370,5,8,0:0:0:0:
256,192,79673,5,0,0:0:0:0:
256,192,79824,5,8,0:0:0:0:
256,192,79975,1,8,0:0:0:0:
256,192,80126,5,0,0:0:0:0:
256,192,80277,5,8,0:0:0:0:
256,192,80579,1,8,0:0:0:0:
256,192,80731,5,0,0:0:0:0:
256,192,81033,5,8,0:0:0:0:
256,192,81335,5,0,0:0:0:0:
256,192,81486,1,0,0:0:0:0:
256,192,81638,5,8,0:0:0:0:
256,192,81789,5,0,0:0:0:0:
256,192,81864,1,0,0:0:0:0:
256,192,81940,1,0,0:0:0:0:
256,192,82091,5,8,0:0:0:0:
256,192,82242,5,0,0:0:0:0:
256,192,82393,1,0,0:0:0:0:
256,192,82544,5,8,0:0:0:0:
256,192,82696,5,0,0:0:0:0:
256,192,82771,1,0,0:0:0:0:
256,192,82847,1,0,0:0:0:0:
256,192,82998,5,8,0:0:0:0:
256,192,83149,5,0,0:0:0:0:
256,192,83300,5,8,0:0:0:0:
256,192,83451,5,0,0:0:0:0:
256,192,83754,5,8,0:0:0:0:
256,192,83905,1,8,0:0:0:0:
256,192,84056,5,0,0:0:0:0:
256,192,84207,5,8,0:0:0:0:
256,192,84283,1,8,0:0:0:0:
256,192,84358,1,8,0:0:0:0:
256,192,84509,5,0,0:0:0:0:
256,192,84660,5,8,0:0:0:0:
256,192,84812,1,8,0:0:0:0:
256,192,84963,5,0,0:0:0:0:
256,192,85114,5,8,0:0:0:0:
256,192,85190,1,8,0:0:0:0:
256,192,85265,1,8,0:0:0:0:
256,192,85416,5,0,0:0:0:0:
256,192,85567,5,8,0:0:0:0:
256,192,85719,5,0,0:0:0:0:
256,192,85870,5,8,0:0:0:0:
256,192,86172,5,0,0:0:0:0:
256,192,86248,1,0,0:0:0:0:
256,192,86323,1,0,0:0:0:0:
256,192,86474,5,8,0:0:0:0:
256,192,86625,5,0,0:0:0:0:
256,192,86701,1,0,0:0:0:0:
256,192,86777,1,0,0:0:0:0:
256,192,86928,5,8,0:0:0:0:
256,192,87079,5,0,0:0:0:0:
256,192,87230,1,0,0:0:0:0:
256,192,87381,5,8,0:0:0:0:
256,192,87532,5,0,0:0:0:0:
256,192,87608,1,0,0:0:0:0:
256,192,87683,1,0,0:0:0:0:
256,192,87835,5,8,0:0:0:0:
256,192,87986,1,12,0:0:0:0:
256,192,88288,5,4,0:0:0:0:
256,192,88590,5,8,0:0:0:0:
256,192,88666,1,8,0:0:0:0:
256,192,88741,1,8,0:0:0:0:
256,192,88893,5,0,0:0:0:0:
256,192,89044,5,8,0:0:0:0:
256,192,89119,1,8,0:0:0:0:
256,192,89195,1,8,0:0:0:0:
256,192,89346,5,0,0:0:0:0:
256,192,89497,5,8,0:0:0:0:
256,192,89648,1,8,0:0:0:0:
256,192,89800,5,0,0:0:0:0:
256,192,89951,5,8,0:0:0:0:
256,192,90026,1,8,0:0:0:0:
256,192,90102,1,8,0:0:0:0:
256,192,90253,5,0,0:0:0:0:
256,192,90404,5,12,0:0:0:0:
256,192,90706,1,12,0:0:0:0:
256,192,91009,5,0,0:0:0:0:
256,192,91311,1,0,0:0:0:0:
256,192,91613,1,0,0:0:0:0:
256,192,91916,1,0,0:0:0:0:
256,192,92218,1,0,0:0:0:0:
256,192,92520,1,0,0:0:0:0:
256,192,92823,1,0,0:0:0:0:
256,192,93125,5,8,0:0:0:0:
256,192,93276,1,8,0:0:0:0:
256,192,93427,5,0,0:0:0:0:
256,192,93729,1,0,0:0:0:0:
256,192,94032,1,0,0:0:0:0:
256,192,94334,1,0,0:0:0:0:
256,192,94636,1,0,0:0:0:0:
256,192,94939,5,8,0:0:0:0:
256,192,95090,1,8,0:0:0:0:
256,192,95241,5,0,0:0:0:0:
256,192,95543,5,8,0:0:0:0:
256,192,95694,1,8,0:0:0:0:
256,192,95845,5,0,0:0:0:0:
256,192,95997,1,0,0:0:0:0:
256,192,96148,1,0,0:0:0:0:
256,192,96299,1,0,0:0:0:0:
256,192,96450,1,0,0:0:0:0:
256,192,96601,1,0,0:0:0:0:
256,192,96752,1,0,0:0:0:0:
256,192,96904,1,0,0:0:0:0:
256,192,97055,1,0,0:0:0:0:
256,192,97206,1,0,0:0:0:0:
256,192,97357,1,0,0:0:0:0:
256,192,97508,1,0,0:0:0:0:
256,192,97659,1,0,0:0:0:0:
256,192,97810,1,0,0:0:0:0:
256,192,97962,5,8,0:0:0:0:
256,192,98113,1,8,0:0:0:0:
256,192,98264,5,0,0:0:0:0:
256,192,98339,1,0,0:0:0:0:
256,192,98415,1,0,0:0:0:0:
256,192,98491,1,0,0:0:0:0:
256,192,98566,5,8,0:0:0:0:
256,192,98717,1,8,0:0:0:0:
256,192,98868,5,0,0:0:0:0:
256,192,99020,1,0,0:0:0:0:
256,192,99171,5,8,0:0:0:0:
256,192,99322,1,8,0:0:0:0:
256,192,99473,5,0,0:0:0:0:
256,192,99624,5,8,0:0:0:0:
256,192,99700,5,0,0:0:0:0:
256,192,99775,5,8,0:0:0:0:
256,192,99927,5,0,0:0:0:0:
256,192,100078,5,8,0:0:0:0:
256,192,100153,1,8,0:0:0:0:
256,192,100229,1,8,0:0:0:0:
256,192,100304,1,8,0:0:0:0:
256,192,100380,5,0,0:0:0:0:
256,192,100456,1,0,0:0:0:0:
256,192,100531,5,8,0:0:0:0:
256,192,100607,1,8,0:0:0:0:
256,192,100682,5,0,0:0:0:0:
256,192,100833,5,8,0:0:0:0:
256,192,100909,1,8,0:0:0:0:
256,192,100985,5,0,0:0:0:0:
256,192,101136,5,8,0:0:0:0:
256,192,101287,1,8,0:0:0:0:
256,192,101438,5,0,0:0:0:0:
256,192,101514,1,0,0:0:0:0:
256,192,101589,5,8,0:0:0:0:
256,192,101665,1,8,0:0:0:0:
256,192,101740,5,0,0:0:0:0:
256,192,101816,1,0,0:0:0:0:
256,192,101891,1,0,0:0:0:0:
256,192,102043,5,8,0:0:0:0:
256,192,102118,1,8,0:0:0:0:
256,192,102194,1,8,0:0:0:0:
256,192,102345,1,8,0:0:0:0:
256,192,102496,5,0,0:0:0:0:
256,192,102572,5,8,0:0:0:0:
256,192,102647,5,0,0:0:0:0:
256,192,102723,5,8,0:0:0:0:
256,192,102798,5,0,0:0:0:0:
256,192,102874,1,0,0:0:0:0:
256,192,102949,5,8,0:0:0:0:
256,192,103101,5,0,0:0:0:0:
256,192,103252,5,8,0:0:0:0:
256,192,103327,1,8,0:0:0:0:
256,192,103403,5,0,0:0:0:0:
256,192,103554,5,8,0:0:0:0:
256,192,103705,5,0,0:0:0:0:
256,192,103781,1,0,0:0:0:0:
256,192,103856,5,8,0:0:0:0:
256,192,103932,1,8,0:0:0:0:
256,192,104008,5,0,0:0:0:0:
256,192,104159,1,0,0:0:0:0:
256,192,104310,5,8,0:0:0:0:
256,192,104461,1,8,0:0:0:0:
256,192,104537,5,0,0:0:0:0:
256,192,104612,5,8,0:0:0:0:
256,192,104688,1,8,0:0:0:0:
256,192,104763,1,8,0:0:0:0:
256,192,104914,5,0,0:0:0:0:
256,192,104990,1,0,0:0:0:0:
256,192,105066,1,0,0:0:0:0:
256,192,105141,1,0,0:0:0:0:
256,192,105217,5,8,0:0:0:0:
256,192,105292,1,8,0:0:0:0:
256,192,105368,1,8,0:0:0:0:
256,192,105519,5,0,0:0:0:0:
256,192,105670,5,8,0:0:0:0:
256,192,105746,5,0,0:0:0:0:
256,192,105821,5,8,0:0:0:0:
256,192,105897,1,8,0:0:0:0:
256,192,105972,5,0,0:0:0:0:
256,192,106124,1,0,0:0:0:0:
256,192,106275,5,8,0:0:0:0:
256,192,106426,1,8,0:0:0:0:
256,192,106501,1,8,0:0:0:0:
256,192,106577,1,8,0:0:0:0:
256,192,106653,1,8,0:0:0:0:
256,192,106728,5,0,0:0:0:0:
256,192,106879,1,0,0:0:0:0:
256,192,106955,1,0,0:0:0:0:
256,192,107030,5,8,0:0:0:0:
256,192,107106,5,0,0:0:0:0:
256,192,107182,5,8,0:0:0:0:
256,192,107257,1,8,0:0:0:0:
256,192,107333,5,0,0:0:0:0:
256,192,107484,1,0,0:0:0:0:
256,192,107635,1,0,0:0:0:0:
256,192,107711,1,8,0:0:0:0:
256,192,107786,5,8,0:0:0:0:
256,192,107862,1,8,0:0:0:0:
256,192,107937,5,0,0:0:0:0:
256,192,108089,5,8,0:0:0:0:
256,192,108164,5,0,0:0:0:0:
256,192,108240,5,8,0:0:0:0:
256,192,108315,1,8,0:0:0:0:
256,192,108391,5,0,0:0:0:0:
256,192,108542,1,0,0:0:0:0:
256,192,108693,1,0,0:0:0:0:
256,192,108844,5,8,0:0:0:0:
256,192,108920,5,0,0:0:0:0:
256,192,108995,5,8,0:0:0:0:
256,192,109147,5,0,0:0:0:0:
256,192,109298,5,8,0:0:0:0:
256,192,109373,1,8,0:0:0:0:
256,192,109449,5,0,0:0:0:0:
256,192,109600,1,0,0:0:0:0:
256,192,109751,5,12,0:0:0:0:
256,192,109902,1,12,0:0:0:0:
256,192,110053,1,12,0:0:0:0:
256,192,110205,1,12,0:0:0:0:
256,192,110356,5,0,0:0:0:0:
256,192,110431,1,0,0:0:0:0:
256,192,110507,1,0,0:0:0:0:
256,192,110582,1,0,0:0:0:0:
256,192,110658,5,8,0:0:0:0:
256,192,110734,1,8,0:0:0:0:
256,192,110809,1,8,0:0:0:0:
256,192,110885,1,8,0:0:0:0:
256,192,110960,5,0,0:0:0:0:
256,192,111036,1,0,0:0:0:0:
256,192,111112,5,8,0:0:0:0:
256,192,111187,5,0,0:0:0:0:
256,192,111263,5,8,0:0:0:0:
256,192,111338,5,0,0:0:0:0:
256,192,111414,5,8,0:0:0:0:
256,192,111489,1,8,0:0:0:0:
256,192,111565,5,0,0:0:0:0:
256,192,111641,1,0,0:0:0:0:
256,192,111716,1,0,0:0:0:0:
256,192,111792,1,0,0:0:0:0:
256,192,111867,5,8,0:0:0:0:
256,192,111943,1,8,0:0:0:0:
256,192,112018,1,8,0:0:0:0:
256,192,112094,1,8,0:0:0:0:
256,192,112170,5,0,0:0:0:0:
256,192,112245,1,0,0:0:0:0:
256,192,112321,5,8,0:0:0:0:
256,192,112396,5,0,0:0:0:0:
256,192,112472,5,8,0:0:0:0:
256,192,112547,5,0,0:0:0:0:
256,192,112623,5,8,0:0:0:0:
256,192,112699,1,8,0:0:0:0:
256,192,112774,5,0,0:0:0:0:
256,192,112850,1,0,0:0:0:0:
256,192,112925,1,0,0:0:0:0:
256,192,113001,1,0,0:0:0:0:
256,192,113076,5,8,0:0:0:0:
256,192,113152,1,8,0:0:0:0:
256,192,113228,1,8,0:0:0:0:
256,192,113303,1,8,0:0:0:0:
256,192,113379,5,0,0:0:0:0:
256,192,113454,1,0,0:0:0:0:
256,192,113530,5,8,0:0:0:0:
256,192,113605,5,0,0:0:0:0:
256,192,113681,5,8,0:0:0:0:
256,192,113757,1,8,0:0:0:0:
256,192,113832,5,0,0:0:0:0:
256,192,113908,1,0,0:0:0:0:
256,192,113983,5,8,0:0:0:0:
256,192,114134,5,0,0:0:0:0:
256,192,114210,1,0,0:0:0:0:
256,192,114286,5,8,0:0:0:0:
256,192,114437,5,0,0:0:0:0:
256,192,114588,5,8,0:0:0:0:
256,192,114664,5,0,0:0:0:0:
256,192,114739,5,8,0:0:0:0:
256,192,114815,5,0,0:0:0:0:
256,192,114890,5,8,0:0:0:0:
256,192,114966,5,0,0:0:0:0:
256,192,115041,5,8,0:0:0:0:
256,192,115117,1,8,0:0:0:0:
256,192,115193,5,0,0:0:0:0:
256,192,115268,1,0,0:0:0:0:
256,192,115344,1,0,0:0:0:0:
256,192,115419,1,0,0:0:0:0:
256,192,115495,5,8,0:0:0:0:
256,192,115646,1,8,0:0:0:0:
256,192,115722,1,8,0:0:0:0:
256,192,115797,1,8,0:0:0:0:
256,192,115873,1,8,0:0:0:0:
256,192,115948,5,0,0:0:0:0:
256,192,116099,1,0,0:0:0:0:
256,192,116251,5,8,0:0:0:0:
256,192,116402,5,0,0:0:0:0:
256,192,116477,1,0,0:0:0:0:
256,192,116553,1,0,0:0:0:0:
256,192,116628,1,0,0:0:0:0:
256,192,116704,5,8,0:0:0:0:
256,192,116780,1,8,0:0:0:0:
256,192,116855,1,8,0:0:0:0:
256,192,116931,1,8,0:0:0:0:
256,192,117006,5,0,0:0:0:0:
256,192,117157,1,0,0:0:0:0:
256,192,117309,5,8,0:0:0:0:
256,192,117460,5,0,0:0:0:0:
256,192,117611,5,8,0:0:0:0:
256,192,117686,1,8,0:0:0:0:
256,192,117762,1,8,0:0:0:0:
256,192,117913,5,0,0:0:0:0:
256,192,117989,1,0,0:0:0:0:
256,192,118064,1,0,0:0:0:0:
256,192,118215,5,8,0:0:0:0:
256,192,118291,5,0,0:0:0:0:
256,192,118367,5,8,0:0:0:0:
256,192,118442,5,0,0:0:0:0:
256,192,118518,5,8,0:0:0:0:
256,192,118669,1,8,0:0:0:0:
256,192,118820,5,0,0:0:0:0:
256,192,118896,1,0,0:0:0:0:
256,192,118971,1,0,0:0:0:0:
256,192,119047,1,0,0:0:0:0:
256,192,119122,5,8,0:0:0:0:
256,192,119198,1,8,0:0:0:0:
256,192,119274,1,8,0:0:0:0:
256,192,119349,1,8,0:0:0:0:
256,192,119425,5,0,0:0:0:0:
256,192,119500,1,0,0:0:0:0:
256,192,119576,5,8,0:0:0:0:
256,192,119651,5,0,0:0:0:0:
256,192,119727,5,8,0:0:0:0:
256,192,119803,5,0,0:0:0:0:
256,192,119878,5,8,0:0:0:0:
256,192,119954,1,8,0:0:0:0:
256,192,120029,5,0,0:0:0:0:
256,192,120332,5,8,0:0:0:0:
256,192,120407,1,8,0:0:0:0:
256,192,120483,1,8,0:0:0:0:
256,192,120558,1,8,0:0:0:0:
256,192,120634,5,0,0:0:0:0:
256,192,120709,1,0,0:0:0:0:
256,192,120785,1,0,0:0:0:0:
256,192,120861,1,0,0:0:0:0:
256,192,120936,5,8,0:0:0:0:
256,192,121012,1,8,0:0:0:0:
256,192,121087,5,0,0:0:0:0:
256,192,121163,1,0,0:0:0:0:
256,192,121238,5,8,0:0:0:0:
256,192,121314,1,8,0:0:0:0:
256,192,121390,1,8,0:0:0:0:
256,192,121465,1,8,0:0:0:0:
256,192,121541,5,0,0:0:0:0:
256,192,121616,1,0,0:0:0:0:
256,192,121692,1,0,0:0:0:0:
256,192,121767,1,0,0:0:0:0:
256,192,121843,5,8,0:0:0:0:
256,192,121994,1,8,0:0:0:0:
256,192,122070,1,8,0:0:0:0:
256,192,122145,1,8,0:0:0:0:
256,192,122297,1,8,0:0:0:0:
256,192,122448,5,0,0:0:0:0:
256,192,122599,1,0,0:0:0:0:
256,192,122674,1,0,0:0:0:0:
256,192,122750,5,8,0:0:0:0:
256,192,122826,1,8,0:0:0:0:
256,192,122901,1,8,0:0:0:0:
256,192,122977,1,8,0:0:0:0:
256,192,123052,5,0,0:0:0:0:
256,192,123128,1,0,0:0:0:0:
256,192,123203,1,0,0:0:0:0:
256,192,123279,1,0,0:0:0:0:
256,192,123355,5,8,0:0:0:0:
256,192,123430,1,8,0:0:0:0:
256,192,123506,1,8,0:0:0:0:
256,192,123581,1,8,0:0:0:0:
256,192,123657,5,0,0:0:0:0:
256,192,123808,1,0,0:0:0:0:
256,192,123884,1,0,0:0:0:0:
256,192,123959,5,8,0:0:0:0:
256,192,124110,1,8,0:0:0:0:
256,192,124186,1,8,0:0:0:0:
256,192,124261,5,0,0:0:0:0:
256,192,124413,1,0,0:0:0:0:
256,192,124488,1,0,0:0:0:0:
256,192,124564,5,8,0:0:0:0:
256,192,124715,1,8,0:0:0:0:
256,192,124866,5,0,0:0:0:0:
256,192,124942,1,0,0:0:0:0:
256,192,125017,5,8,0:0:0:0:
256,192,125093,1,8,0:0:0:0:
256,192,125168,1,8,0:0:0:0:
256,192,125244,1,8,0:0:0:0:
256,192,125319,5,0,0:0:0:0:
256,192,125395,1,0,0:0:0:0:
256,192,125471,1,0,0:0:0:0:
256,192,125546,1,0,0:0:0:0:
256,192,125622,5,8,0:0:0:0:
256,192,125697,1,8,0:0:0:0:
256,192,125773,5,0,0:0:0:0:
256,192,125849,1,0,0:0:0:0:
256,192,125924,5,8,0:0:0:0:
256,192,126000,1,8,0:0:0:0:
256,192,126075,5,0,0:0:0:0:
256,192,126226,5,8,0:0:0:0:
256,192,126302,1,8,0:0:0:0:
256,192,126378,5,0,0:0:0:0:
256,192,126529,5,8,0:0:0:0:
256,192,126680,5,0,0:0:0:0:
256,192,126755,1,0,0:0:0:0:
256,192,126831,1,0,0:0:0:0:
256,192,126907,1,0,0:0:0:0:
256,192,126982,5,8,0:0:0:0:
256,192,127058,1,8,0:0:0:0:
256,192,127133,1,8,0:0:0:0:
256,192,127284,5,4,0:0:0:0:
256,192,127587,1,4,0:0:0:0:
256,192,127889,5,12,0:0:0:0:
256,192,128191,1,12,0:0:0:0:
256,192,128494,5,0,0:0:0:0:
256,192,128645,1,0,0:0:0:0:
256,192,128796,5,8,0:0:0:0:
256,192,128947,1,8,0:0:0:0:
256,192,129098,5,0,0:0:0:0:
256,192,129174,1,0,0:0:0:0:
256,192,129249,1,0,0:0:0:0:
256,192,129325,1,0,0:0:0:0:
256,192,129401,5,8,0:0:0:0:
256,192,129703,5,4,0:0:0:0:
256,192,130005,1,0,0:0:0:0:
256,192,130081,1,0,0:0:0:0:
256,192,130156,5,8,0:0:0:0:
256,192,130232,1,8,0:0:0:0:
256,192,130307,5,0,0:0:0:0:
256,192,130383,5,8,0:0:0:0:
256,192,130459,5,0,0:0:0:0:
256,192,130534,1,0,0:0:0:0:
256,192,130610,5,8,0:0:0:0:
256,192,130685,1,8,0:0:0:0:
256,192,130761,1,8,0:0:0:0:
256,192,130836,1,8,0:0:0:0:
256,192,130912,5,0,0:0:0:0:
256,192,130988,1,0,0:0:0:0:
256,192,131063,5,8,0:0:0:0:
256,192,131139,1,8,0:0:0:0:
256,192,131214,5,0,0:0:0:0:
256,192,131290,1,0,0:0:0:0:
256,192,131365,5,8,0:0:0:0:
256,192,131441,1,8,0:0:0:0:
256,192,131517,5,0,0:0:0:0:
256,192,131592,1,0,0:0:0:0:
256,192,131668,1,0,0:0:0:0:
256,192,131743,1,0,0:0:0:0:
256,192,131819,5,8,0:0:0:0:
256,192,131894,5,0,0:0:0:0:
256,192,131970,5,8,0:0:0:0:
256,192,132046,1,8,0:0:0:0:
256,192,132121,5,0,0:0:0:0:
256,192,132272,1,0,0:0:0:0:
256,192,132348,1,0,0:0:0:0:
256,192,132423,5,8,0:0:0:0:
256,192,132499,1,8,0:0:0:0:
256,192,132575,5,0,0:0:0:0:
256,192,132650,1,0,0:0:0:0:
256,192,132726,5,8,0:0:0:0:
256,192,132801,5,0,0:0:0:0:
256,192,132877,5,8,0:0:0:0:
256,192,132952,1,8,0:0:0:0:
256,192,133028,5,0,0:0:0:0:
256,192,133104,1,0,0:0:0:0:
256,192,133179,5,8,0:0:0:0:
256,192,133255,1,8,0:0:0:0:
256,192,133330,5,0,0:0:0:0:
256,192,133406,1,0,0:0:0:0:
256,192,133482,1,0,0:0:0:0:
256,192,133557,1,0,0:0:0:0:
256,192,133633,5,8,0:0:0:0:
256,192,133708,1,8,0:0:0:0:
256,192,133784,1,8,0:0:0:0:
256,192,133859,1,8,0:0:0:0:
256,192,133935,5,0,0:0:0:0:
256,192,134086,1,0,0:0:0:0:
256,192,134162,1,0,0:0:0:0:
256,192,134237,5,8,0:0:0:0:
256,192,134388,1,8,0:0:0:0:
256,192,134540,5,0,0:0:0:0:
256,192,134615,1,0,0:0:0:0:
256,192,134691,5,8,0:0:0:0:
256,192,134766,1,8,0:0:0:0:
256,192,134842,1,8,0:0:0:0:
256,192,134917,1,8,0:0:0:0:
256,192,134993,5,0,0:0:0:0:
256,192,135069,5,8,0:0:0:0:
256,192,135144,5,0,0:0:0:0:
256,192,135220,1,0,0:0:0:0:
256,192,135295,1,0,0:0:0:0:
256,192,135371,1,0,0:0:0:0:
256,192,135446,5,8,0:0:0:0:
256,192,135522,1,8,0:0:0:0:
256,192,135598,5,0,0:0:0:0:
256,192,135673,1,0,0:0:0:0:
256,192,135749,5,8,0:0:0:0:
256,192,135900,5,0,0:0:0:0:
256,192,135975,1,0,0:0:0:0:
256,192,136051,5,8,0:0:0:0:
256,192,136127,5,0,0:0:0:0:
256,192,136202,5,8,0:0:0:0:
256,192,136278,1,8,0:0:0:0:
256,192,136353,5,0,0:0:0:0:
256,192,136504,5,8,0:0:0:0:
256,192,136656,5,0,0:0:0:0:
256,192,136731,5,8,0:0:0:0:
256,192,136807,5,0,0:0:0:0:
256,192,136958,5,8,0:0:0:0:
256,192,137034,1,8,0:0:0:0:
256,192,137185,1,8,0:0:0:0:
256,192,137260,5,0,0:0:0:0:
256,192,137411,5,8,0:0:0:0:
256,192,137563,5,0,0:0:0:0:
256,192,137638,1,0,0:0:0:0:
256,192,137714,1,0,0:0:0:0:
256,192,137789,1,0,0:0:0:0:
256,192,137865,5,8,0:0:0:0:
256,192,137940,1,8,0:0:0:0:
256,192,138016,1,8,0:0:0:0:
256,192,138092,1,8,0:0:0:0:
256,192,138167,5,0,0:0:0:0:
256,192,138243,5,8,0:0:0:0:
256,192,138318,5,0,0:0:0:0:
256,192,138394,5,8,0:0:0:0:
256,192,138469,5,0,0:0:0:0:
256,192,138545,1,0,0:0:0:0:
256,192,138621,1,0,0:0:0:0:
256,192,138696,1,0,0:0:0:0:
256,192,138772,5,8,0:0:0:0:
256,192,138847,1,8,0:0:0:0:
256,192,138923,5,0,0:0:0:0:
256,192,138998,1,0,0:0:0:0:
256,192,139074,5,8,0:0:0:0:
256,192,139150,1,8,0:0:0:0:
256,192,139225,1,8,0:0:0:0:
256,192,139376,5,4,0:0:0:0:
