osu file format v12

[General]
AudioFilename: neu.mp3
AudioLeadIn: 0
PreviewTime: 110356
Countdown: 0
SampleSet: Normal
StackLeniency: 0.3
Mode: 0
LetterboxInBreaks: 1

[Editor]
DistanceSpacing: 1
BeatDivisor: 4
GridSize: 4

[Metadata]
Title:neu
TitleUnicode:neu
Artist:Shounen Radio
ArtistUnicode:少年ラジオ
Creator:Philippines
Version:Chrome
Source:pop'n Music 15 ADVENTURE
Tags:wac jun wakita niente LKs OnosakiHito Kokatsu
BeatmapID:180103
BeatmapSetID:58422

[Difficulty]
HPDrainRate:5
CircleSize:4
OverallDifficulty:6
ApproachRate:8
SliderMultiplier:1.5
SliderTickRate:1

[Events]
//Background and Video events
0,0,"BG.jpg",0,0
//Break Periods
2,91209,95095
//Storyboard Layer 0 (Background)
//Storyboard Layer 1 (Fail)
//Storyboard Layer 2 (Pass)
//Storyboard Layer 3 (Foreground)
//Storyboard Sound Samples
//Background Colour Transformations
3,100,212,208,200
Sprite,Foreground,Centre,"Storyboard\Light2.png",320,240 M,0,3947,,320,240 F,0,3947,5157,0,0.3481601 R,0,3947,149050,0,4.54656 F,0,5157,139376,0.3481601 F,0,139376,149050,0.3481601,0
Sprite,Foreground,Centre,"Storyboard\Light.png",320,240 F,0,3947,5157,0,0.2559999 R,0,3947,149050,2.23232,10.89536 F,0,5157,139376,0.2559999 F,0,139376,149050,0.2559999,0
Sprite,Foreground,Centre,"BG.jpg",320,240 M,0,95845,,320,240 S,0,95845,,0.63136 F,0,95845,100682,0,0.9859504 C,0,95845,101891,0,128,255,255,128,128 F,0,100682,139376,0.9859504,1 F,0,139376,149050,1,0
Sprite,Foreground,Centre,"Storyboard\B1.png",320,440 M,0,32968,,320,440 F,0,32968,33119,0,1 F,0,33119,35386,1,0.8940398 F,0,35386,35689,0.8940398,0
Sprite,Foreground,Centre,"Storyboard\B2.png",320,440 F,0,35689,35840,0,1 F,0,35840,37503,1 F,0,37503,37805,1,0
Sprite,Foreground,Centre,"Storyboard\B3.png",320,440 F,0,37805,37956,0,1 F,0,37956,39619,1,0.9536424 F,0,39619,39921,0.9536424,0
Sprite,Foreground,Centre,"Storyboard\B4.png",320,440 F,0,39921,40072,0,1 F,0,40072,40374,1 F,0,40374,40677,1,0
Sprite,Foreground,Centre,"Storyboard\B5.png",320,440 F,0,40525,40677,0,1 F,0,40677,41130,1 F,0,41130,41432,1,0
Sprite,Foreground,Centre,"Storyboard\B6.png",320,440 F,0,41432,41584,0,1 F,0,41584,42037,1 F,0,42037,42339,1,0
Sprite,Foreground,Centre,"Storyboard\B7.png",320,440 F,0,90404,90555,0,1 F,0,90555,92823,1,0.9735099 F,0,92823,93125,0.9735099,0
Sprite,Foreground,Centre,"Storyboard\B5.png",320,440 F,0,93427,93578,0,1 F,0,93578,95241,1,0.7218543 F,0,95241,95543,0.7218543,0
Sprite,Foreground,Centre,"Storyboard\B6.png",320,440 F,0,95845,95997,0,1 F,0,95997,97659,1,0.8552632 F,0,97659,97962,0.8552632,0
Sprite,Foreground,Centre,"Storyboard\B8.png",320,440 F,0,98264,98415,0,1 F,0,98415,100078,1 F,0,100078,100380,1,0
Sprite,Foreground,Centre,"Storyboard\R1.png",320,440 M,0,120332,,320,440 F,0,120332,120483,0,1 F,0,120483,122448,1 F,0,122448,122750,1,0
Sprite,Foreground,Centre,"Storyboard\R2.png",320,440 F,0,122750,122901,0,1 F,0,122901,124564,1 F,0,124564,124866,1,0
Sprite,Foreground,Centre,"Storyboard\R3.png",320,440 F,0,124866,125017,0,1 F,0,125017,126680,1 F,0,126680,126982,1,0
Sprite,Foreground,Centre,"Storyboard\R4.png",320,440 F,0,126982,127133,0,1 F,0,127133,127284,1 F,0,127284,127587,1,0
Sprite,Foreground,Centre,"Storyboard\R5.png",320,440 F,0,127587,127738,0,1 F,0,127738,128191,1 F,0,128191,128494,1,0
Sprite,Foreground,Centre,"Storyboard\R6.png",320,440 F,0,128494,128645,0,1 F,0,128645,129098,1 F,0,129098,129401,1,0
Sprite,Foreground,Centre,"Storyboard\R1.png",320,440 F,0,130005,130156,0,1 F,0,130156,132121,1 F,0,132121,132423,1,0
Sprite,Foreground,Centre,"Storyboard\R2.png",320,440 F,0,132423,132575,0,1 F,0,132575,134237,1 F,0,134237,134540,1,0
Sprite,Foreground,Centre,"Storyboard\R3.png",320,440 F,0,134540,134691,0,1 F,0,134691,136353,1 F,0,136353,136656,1,0
Sprite,Foreground,Centre,"Storyboard\R4.png",320,440 F,0,136656,136807,0,1 F,0,136807,136958,1 F,0,136958,137260,1,0
Sprite,Foreground,Centre,"Storyboard\R5.png",320,440 F,0,137260,137411,0,1 F,0,137411,137865,1 F,0,137865,138167,1,0
Sprite,Foreground,Centre,"Storyboard\R6.png",320,440 F,0,138167,138318,0,1 F,0,138318,139376,1 F,0,139376,139679,1,0

[TimingPoints]
3948,302.29746070133,4,2,0,60,1,0
23295,-100,4,1,0,60,0,1
42642,302.29746070133,3,2,0,60,1,0
70453,302.29746070133,4,1,0,60,1,0
70755,-100,4,1,0,30,0,0
71057,-100,4,1,0,40,0,0
71359,-100,4,1,0,50,0,0
71662,-100,4,1,0,60,0,0
100682,-100,4,1,0,60,0,1
139376,-100,4,1,0,60,0,0

[Colours]
Combo1 : 255,128,64
Combo2 : 0,255,255
Combo3 : 0,128,192
Combo4 : 255,128,128

[HitObjects]
72,324,3947,1,4,0:0:0:0:
146,334,4250,1,0,0:0:0:0:
219,321,4552,1,2,0:0:0:0:
283,283,4854,1,0,0:0:0:0:
457,319,5157,1,0,0:0:0:0:
396,274,5459,1,0,0:0:0:0:
378,201,5761,1,0,0:0:0:0:
412,133,6064,1,0,0:0:0:0:
312,37,6366,5,0,0:0:0:0:
268,97,6668,1,0,0:0:0:0:
194,112,6970,1,2,0:0:0:0:
134,65,7273,1,0,0:0:0:0:
41,169,7575,1,0,0:0:0:0:
97,218,7877,1,0,0:0:0:0:
113,291,8180,1,0,0:0:0:0:
89,361,8482,2,0,B|124:372|157:359|168:337,2,75,0|0|6,0:0|0:0|0:0,0:0:0:0:
262,305,9087,37,0,0:0:0:0:
331,334,9389,1,2,0:0:0:0:
405,325,9691,1,0,0:0:0:0:
473,221,9993,1,0,0:0:0:0:
403,191,10296,1,0,0:0:0:0:
372,122,10598,1,0,0:0:0:0:
400,52,10900,1,0,0:0:0:0:
244,41,11203,5,0,0:0:0:0:
210,108,11505,1,0,0:0:0:0:
135,116,11807,1,2,0:0:0:0:
75,70,12110,2,0,B|56:93|56:129|68:147,1,75
64,140,12563,1,0,0:0:0:0:
200,179,12714,38,0,B|219:156|219:120|207:102,1,75
49,225,13016,2,0,B|30:248|30:284|42:302,1,75
195,355,13319,2,0,B|214:332|214:296|202:278,1,75
136,309,13621,5,4,0:0:0:0:
131,219,13923,1,0,0:0:0:0:
139,129,14226,1,0,0:0:0:0:
179,48,14528,1,0,0:0:0:0:
333,48,14830,1,2,0:0:0:0:
373,129,15132,1,0,0:0:0:0:
381,219,15435,1,0,0:0:0:0:
376,309,15737,1,0,0:0:0:0:
188,364,16039,37,0,0:0:0:0:
324,364,16342,1,0,0:0:0:0:
188,260,16644,1,0,0:0:0:0:
324,260,16947,1,0,0:0:0:0:
188,156,17249,5,2,0:0:0:0:
324,156,17552,1,0,0:0:0:0:
188,52,17854,1,0,0:0:0:0:
324,52,18155,1,0,0:0:0:0:
256,104,18307,1,0,0:0:0:0:
324,156,18458,38,0,B|368:156|400:132,1,75
256,204,18760,2,0,B|256:280,1,75
188,156,19062,2,0,B|144:156|112:132,1,75
68,192,19365,1,0,0:0:0:0:
136,228,19516,1,0,0:0:0:0:
180,288,19667,6,0,B|184:320|176:364,1,75,2|0,0:0|0:0,0:0:0:0:
256,204,19969,2,0,B|256:284,1,75
332,288,20272,2,0,B|328:320|336:364,1,75
376,228,20574,1,0,0:0:0:0:
444,192,20725,1,0,0:0:0:0:
484,128,20876,37,0,0:0:0:0:
464,116,20952,1,0,0:0:0:0:
444,108,21027,1,0,0:0:0:0:
420,104,21103,1,0,0:0:0:0:
393,104,21178,2,0,P|369:104|347:109,3,37.5
329,113,21481,1,0,0:0:0:0:
254,92,21632,6,0,L|260:45,1,37.5
207,85,21783,2,0,L|208:42,1,37.5
157,89,21934,2,0,L|154:49,1,37.5
120,104,22085,2,0,B|80:116|68:160,1,75,2|0,0:0|0:0,0:0:0:0:
69,155,22690,38,0,B|56:196|76:236,1,75
160,336,22992,2,0,B|173:295|153:255,1,75
260,244,23295,6,0,B|224:208,3,37.5,12|0|0|0,0:0|0:0|0:0|0:0,0:0:0:0:
284,268,23597,1,8,0:0:0:0:
344,336,23748,2,0,B|308:372,3,37.5,8|0|0|0,0:0|0:0|0:0|0:0,0:0:0:0:
368,312,24050,1,8,0:0:0:0:
448,264,24201,2,0,B|476:232|468:180,1,75
444,88,24504,38,0,B|480:52,3,37.5,8|0|0|0,0:0|0:0|0:0|0:0,0:0:0:0:
420,112,24806,1,8,0:0:0:0:
360,180,24957,2,0,B|396:216,3,37.5,8|0|0|0,0:0|0:0|0:0|0:0,0:0:0:0:
336,156,25259,1,8,0:0:0:0:
256,108,25410,2,0,B|228:76|236:24,1,75
140,64,25713,5,8,0:0:0:0:
136,88,25788,1,0,0:0:0:0:
128,108,25864,1,0,0:0:0:0:
116,128,25940,1,0,0:0:0:0:
104,148,26015,1,8,0:0:0:0:
28,196,26166,1,8,0:0:0:0:
100,241,26318,37,0,0:0:0:0:
96,260,26393,1,0,0:0:0:0:
96,284,26469,1,8,0:0:0:0:
104,304,26544,1,0,0:0:0:0:
112,324,26620,1,0,0:0:0:0:
200,316,26771,1,0,0:0:0:0:
288,316,26922,6,0,B|316:292,3,37.5,8|0|0|0,0:0|0:0|0:0|0:0,0:0:0:0:
332,276,27224,2,0,B|364:228|352:196,1,75,8|8,0:0|0:0,0:0:0:0:
264,224,27527,2,0,B|236:200,3,37.5,0|0|8|0,0:0|0:0|0:0|0:0,0:0:0:0:
220,184,27829,2,0,B|188:136|200:104,1,75
40,92,28131,38,0,B|52:115|89:125|116:116,1,75,8|0,0:0|0:0,0:0:0:0:
96,48,28434,1,8,0:0:0:0:
113,34,28509,1,0,0:0:0:0:
134,25,28585,1,8,0:0:0:0:
309,51,28736,2,0,B|297:28|260:18|233:27,1,75,0|8,0:0|0:0,0:0:0:0:
253,95,29039,1,0,0:0:0:0:
236,109,29114,1,0,0:0:0:0:
215,118,29190,1,0,0:0:0:0:
117,187,29340,6,0,B|84:225|78:256,1,75,8|0,0:0|0:0,0:0:0:0:
154,286,29643,2,0,B|157:336|175:363,1,75,8|8,0:0|0:0,0:0:0:0:
251,331,29945,2,0,B|289:364|320:370,1,75,0|8,0:0|0:0,0:0:0:0:
350,293,30248,2,0,B|400:290|427:272,1,75
426,177,30550,38,0,B|476:201,3,37.5,8|0|0|0,0:0|0:0|0:0|0:0,0:0:0:0:
402,165,30852,1,8,0:0:0:0:
383,152,30928,1,0,0:0:0:0:
367,135,31003,1,8,0:0:0:0:
220,101,31154,2,0,B|170:77,3,37.5,0|0|8|0,0:0|0:0|0:0|0:0,0:0:0:0:
244,113,31456,1,0,0:0:0:0:
263,126,31532,1,0,0:0:0:0:
279,143,31607,1,0,0:0:0:0:
276,233,31759,5,8,0:0:0:0:
255,240,31834,1,0,0:0:0:0:
232,243,31910,1,8,0:0:0:0:
209,241,31986,1,0,0:0:0:0:
187,237,32061,1,8,0:0:0:0:
166,228,32137,1,0,0:0:0:0:
149,212,32212,1,8,0:0:0:0:
137,192,32288,1,0,0:0:0:0:
130,170,32363,2,0,B|105:207|56:235,1,75,8|8,0:0|0:0,0:0:0:0:
51,349,32666,2,0,B|76:312|125:284,1,75,8|8,0:0|0:0,0:0:0:0:
222,335,32968,38,0,B|177:344,3,37.5,8|0|0|0,0:0|0:0|0:0|0:0,0:0:0:0:
252,332,33270,1,8,0:0:0:0:
376,300,33422,2,0,B|421:309,3,37.5,8|0|0|0,0:0|0:0|0:0|0:0,0:0:0:0:
345,297,33724,1,8,0:0:0:0:
284,233,33875,2,0,B|265:197|284:152,1,75
421,46,34177,6,0,B|466:37,3,37.5,8|0|0|0,0:0|0:0|0:0|0:0,0:0:0:0:
390,49,34479,1,8,0:0:0:0:
266,81,34631,2,0,B|221:72,3,37.5,8|0|0|0,0:0|0:0|0:0|0:0,0:0:0:0:
297,84,34933,1,8,0:0:0:0:
358,148,35084,2,0,B|377:184|358:229,1,75
203,356,35386,38,0,B|184:320|203:275,1,75,8|0,0:0|0:0,0:0:0:0:
114,235,35689,2,0,B|65:247,2,37.5,8|0|8,0:0|0:0|0:0,0:0:0:0:
93,60,35991,2,0,B|112:96|93:141,1,75,0|8,0:0|0:0,0:0:0:0:
182,181,36294,2,0,B|231:169,2,37.5
312,220,36596,6,0,B|361:237|405:220,1,75,8|0,0:0|0:0,0:0:0:0:
419,125,36898,2,0,B|370:108|326:125,1,75,8|8,0:0|0:0,0:0:0:0:
254,264,37200,1,8,0:0:0:0:
468,71,37503,1,8,0:0:0:0:
237,77,37805,38,0,B|260:79|280:69,3,37.5,8|0|0|0,0:0|0:0|0:0|0:0,0:0:0:0:
205,75,38107,1,8,0:0:0:0:
99,139,38258,2,0,B|76:137|56:147,3,37.5,8|0|0|0,0:0|0:0|0:0|0:0,0:0:0:0:
131,141,38560,1,8,0:0:0:0:
213,158,38712,2,0,B|232:192|213:239,1,75
103,344,39014,6,0,B|84:310|103:263,1,75,8|0,0:0|0:0,0:0:0:0:
170,368,39316,1,8,0:0:0:0:
52,220,39619,1,8,0:0:0:0:
170,368,39921,1,8,0:0:0:0:
224,316,40072,1,0,0:0:0:0:
298,323,40223,38,0,B|345:350|390:340|430:310|433:278,1,150,8|8,0:0|0:0,0:0:0:0:
454,72,40828,2,0,B|407:45|362:55|322:85|319:117,1,150,8|8,0:0|0:0,0:0:0:0:
97,88,41432,2,0,B|84:135|104:172,1,75,8|0,0:0|0:0,0:0:0:0:
178,293,41735,2,0,B|191:246|171:209,1,75,8|0,0:0|0:0,0:0:0:0:
220,52,42037,2,0,B|207:99|227:136,1,75,8|0,0:0|0:0,0:0:0:0:
278,203,42339,1,8,0:0:0:0:
297,213,42415,1,0,0:0:0:0:
318,217,42490,1,0,0:0:0:0:
340,220,42566,1,0,0:0:0:0:
362,218,42642,6,0,B|414:211|456:145|450:100,1,150,0|2,0:0|0:0,0:0:0:0:
220,52,43246,2,0,B|168:59|126:125|132:170,1,150,0|2,0:0|0:0,0:0:0:0:
362,218,43851,2,0,B|414:211|456:145|450:100,1,150,0|2,0:0|0:0,0:0:0:0:
448,292,44455,37,0,0:0:0:0:
425,294,44606,1,0,0:0:0:0:
402,296,44758,1,2,0:0:0:0:
379,298,44909,1,0,0:0:0:0:
356,300,45060,1,0,0:0:0:0:
333,302,45211,1,0,0:0:0:0:
310,304,45362,1,2,0:0:0:0:
287,306,45513,1,0,0:0:0:0:
264,308,45664,2,0,B|244:255|160:247|132:297,1,150,0|2,0:0|0:0,0:0:0:0:
264,308,46269,6,0,B|301:265|269:187|211:186,1,150,0|2,0:0|0:0,0:0:0:0:
161,145,46723,1,0,0:0:0:0:
230,172,46874,2,0,B|278:187|344:164|354:99,1,150,0|2,0:0|0:0,0:0:0:0:
479,189,47478,2,0,B|470:150|480:98,2,75,0|0|2,0:0|0:0|0:0,0:0:0:0:
423,328,48083,37,0,0:0:0:0:
400,329,48234,1,0,0:0:0:0:
377,330,48385,1,2,0:0:0:0:
354,331,48536,1,0,0:0:0:0:
331,332,48687,1,0,0:0:0:0:
308,333,48839,1,0,0:0:0:0:
285,334,48990,1,2,0:0:0:0:
262,335,49141,1,0,0:0:0:0:
239,336,49292,2,0,B|202:376|114:343|128:279,1,150,0|2,0:0|0:0,0:0:0:0:
21,236,49897,6,0,B|58:196|146:229|132:293,1,150,0|2,0:0|0:0,0:0:0:0:
204,254,50351,1,0,0:0:0:0:
126,292,50502,2,0,B|100:252|118:184|182:169,1,150,0|2,0:0|0:0,0:0:0:0:
321,45,51106,2,0,B|347:85|329:153|265:168,1,150,0|2,0:0|0:0,0:0:0:0:
317,317,51710,38,0,B|360:315|388:294,1,75
315,236,52013,2,0,B|351:212|364:180,1,75,2|0,0:0|0:0,0:0:0:0:
273,166,52315,2,0,B|292:127|288:93,1,75
202,126,52618,2,0,B|199:82|178:54,1,75,2|0,0:0|0:0,0:0:0:0:
128,136,52920,2,0,B|68:142|58:249|128:261,1,150,0|2,0:0|0:0,0:0:0:0:
157,306,53373,1,0,0:0:0:0:
231,315,53524,6,0,B|256:341|318:339|343:319|343:319|322:353,1,150,0|2,0:0|0:0,0:0:0:0:
418,226,54129,2,0,B|393:200|331:202|306:222|306:222|327:188,1,150,0|2,0:0|0:0,0:0:0:0:
209,96,54733,38,0,B|196:129|200:175,1,75
275,122,55036,2,0,B|288:89|284:43,2,75,2|0|0,0:0|0:0|0:0,0:0:0:0:
136,64,55640,1,2,0:0:0:0:
106,211,55943,2,0,B|119:178|115:132,1,75
40,185,56245,2,0,B|27:218|31:264,2,75,2|0|0,0:0|0:0|0:0,0:0:0:0:
179,243,56850,1,2,0:0:0:0:
243,107,57152,6,0,B|264:153|356:155|383:114,1,150,0|2,0:0|0:0,0:0:0:0:
447,101,57605,1,0,0:0:0:0:
382,139,57756,2,0,B|342:174|356:262|420:274,1,150,0|2,0:0|0:0,0:0:0:0:
279,355,58361,2,0,B|266:308|182:293|148:333,1,150,0|2,0:0|0:0,0:0:0:0:
37,231,58966,38,0,B|52:197|52:149,1,75
116,35,59268,2,0,B|106:67|108:115,1,75,2|0,0:0|0:0,0:0:0:0:
117,259,59570,2,0,B|132:225|132:177,1,75,0|0,0:0|0:0,0:0:0:0:
196,63,59872,2,0,B|186:95|188:143,1,75,2|0,0:0|0:0,0:0:0:0:
195,293,60175,2,0,B|210:259|210:211,1,75,0|0,0:0|0:0,0:0:0:0:
274,97,60477,2,0,B|264:129|266:177,1,75,2|0,0:0|0:0,0:0:0:0:
337,240,60779,6,0,B|369:284|450:265|460:211,1,150,0|2,0:0|0:0,0:0:0:0:
390,189,61233,1,0,0:0:0:0:
386,115,61384,2,0,B|410:109|463:123|478:181|459:216|459:216,1,150,0|2,0:0|0:0,0:0:0:0:
312,98,61989,38,0,B|238:133,1,75,0|0,0:0|0:0,0:0:0:0:
169,121,62291,2,0,B|120:176,1,75,2|0,0:0|0:0,0:0:0:0:
49,204,62593,1,0,0:0:0:0:
49,204,62895,1,2,0:0:0:0:
160,305,63198,2,0,B|234:270,1,75,0|0,0:0|0:0,0:0:0:0:
303,282,63500,2,0,B|352:227,1,75,2|0,0:0|0:0,0:0:0:0:
423,199,63802,1,0,0:0:0:0:
423,199,64104,1,2,0:0:0:0:
352,68,64407,6,0,P|304:44|228:96,1,150,0|2,0:0|0:0,0:0:0:0:
168,136,64860,2,0,P|191:158|244:165,1,75,0|0,0:0|0:0,0:0:0:0:
216,316,65314,2,0,P|264:340|340:288,1,150,2|0,0:0|0:0,0:0:0:0:
400,248,65767,2,0,P|377:226|324:219,1,75,0|2,0:0|0:0,0:0:0:0:
187,242,66221,38,0,L|113:286,1,75,0|0,0:0|0:0,0:0:0:0:
216,316,66523,2,0,L|290:272,1,75,2|0,0:0|0:0,0:0:0:0:
146,178,66825,1,0,0:0:0:0:
349,114,67128,2,0,L|305:40,1,75,2|0,0:0|0:0,0:0:0:0:
275,143,67430,2,0,L|319:217,1,75,0|0,0:0|0:0,0:0:0:0:
413,73,67732,1,2,0:0:0:0:
465,213,68034,6,0,P|387:231|368:310,1,150,0|2,0:0|0:0,0:0:0:0:
300,331,68488,2,0,L|267:249,2,75,0|0|0,0:0|0:0|0:0,0:0:0:0:
227,348,68941,2,0,P|146:357|99:300,1,150,2|0,0:0|0:0,0:0:0:0:
19,186,69546,1,2,0:0:0:0:
161,233,69848,1,0,0:0:0:0:
138,84,70151,2,0,P|90:85|58:68,2,75,2|0|0,0:0|0:0|0:0,0:0:0:0:
252,180,70755,37,0,0:0:0:0:
269,252,70906,1,0,0:0:0:0:
323,303,71057,1,0,0:0:0:0:
396,317,71208,1,0,0:0:0:0:
468,298,71359,1,0,0:0:0:0:
473,276,71435,1,0,0:0:0:0:
476,253,71511,1,0,0:0:0:0:
475,230,71586,1,0,0:0:0:0:
469,207,71662,6,0,P|421:214|372:185,1,75,4|0,0:0|0:0,0:0:0:0:
433,53,71964,1,0,0:0:0:0:
388,203,72115,2,0,P|363:194|315:201,1,75,4|0,0:0|0:0,0:0:0:0:
351,355,72417,1,0,0:0:0:0:
307,204,72569,38,0,P|259:211|210:182,1,75,4|0,0:0|0:0,0:0:0:0:
271,50,72871,1,0,0:0:0:0:
226,200,73022,2,0,P|201:191|153:198,1,75,4|0,0:0|0:0,0:0:0:0:
189,352,73324,1,0,0:0:0:0:
49,117,73475,6,0,L|40:208,1,75,4|0,0:0|0:0,0:0:0:0:
91,339,73778,2,0,L|100:248,1,75,4|0,0:0|0:0,0:0:0:0:
193,81,74080,38,0,P|169:113|164:156,1,75,4|0,0:0|0:0,0:0:0:0:
241,229,74382,1,0,0:0:0:0:
279,66,74534,2,0,P|240:75|208:105,1,75,4|0,0:0|0:0,0:0:0:0:
241,229,74836,1,0,0:0:0:0:
354,110,74987,6,0,P|318:92|275:95,1,75,4|0,0:0|0:0,0:0:0:0:
241,229,75289,1,0,0:0:0:0:
383,192,75440,2,0,P|367:156|333:130,1,75,4|0,0:0|0:0,0:0:0:0:
241,229,75743,1,0,0:0:0:0:
360,283,75894,38,4,L|277:296,1,75
140,349,76196,2,0,L|223:336,1,75,4|0,0:0|0:0,0:0:0:0:
460,358,76498,6,0,P|420:366|386:356,1,75,4|0,0:0|0:0,0:0:0:0:
484,340,76801,1,0,0:0:0:0:
348,352,76952,2,0,P|307:349|277:330,1,75,4|0,0:0|0:0,0:0:0:0:
375,340,77255,1,0,0:0:0:0:
241,306,77405,38,0,P|202:292|177:267,1,75,4|0,0:0|0:0,0:0:0:0:
270,301,77708,1,0,0:0:0:0:
148,233,77859,2,0,P|114:210|97:179,1,75,4|0,0:0|0:0,0:0:0:0:
177,235,78162,1,0,0:0:0:0:
16,82,78312,6,0,L|26:173,1,75,4|0,0:0|0:0,0:0:0:0:
54,308,78615,2,0,L|44:217,1,75,4|0,0:0|0:0,0:0:0:0:
148,233,78917,38,0,P|188:241|222:231,1,75,4|0,0:0|0:0,0:0:0:0:
124,215,79220,1,0,0:0:0:0:
259,228,79371,2,0,P|299:225|329:206,1,75,4|0,0:0|0:0,0:0:0:0:
233,215,79674,1,0,0:0:0:0:
367,181,79824,6,0,P|405:167|430:142,1,75,4|0,0:0|0:0,0:0:0:0:
338,176,80127,1,0,0:0:0:0:
460,108,80278,2,0,P|493:85|510:54,1,75,4|0,0:0|0:0,0:0:0:0:
431,110,80579,1,0,0:0:0:0:
335,38,80731,38,0,P|320:80|336:117,1,75,4|0,0:0|0:0,0:0:0:0:
440,275,81033,2,0,P|455:233|439:196,1,75,4|0,0:0|0:0,0:0:0:0:
212,106,81335,6,0,L|209:57,2,37.5,4|0|0,0:0|0:0|0:0,0:0:0:0:
72,201,81638,1,0,0:0:0:0:
191,120,81789,2,0,L|175:73,2,37.5,4|0|0,0:0|0:0|0:0,0:0:0:0:
80,248,82092,1,0,0:0:0:0:
174,139,82242,38,0,L|147:98,2,37.5,4|0|0,0:0|0:0|0:0,0:0:0:0:
101,291,82545,1,0,0:0:0:0:
164,162,82696,2,0,L|127:129,2,37.5,4|0|0,0:0|0:0|0:0,0:0:0:0:
132,328,82999,1,0,0:0:0:0:
236,200,83149,6,0,P|234:256|258:281,1,75,4|0,0:0|0:0,0:0:0:0:
317,137,83451,2,0,P|319:81|295:56,1,75,4|0,0:0|0:0,0:0:0:0:
337,299,83754,38,0,L|370:339,2,37.5,4|0|0,0:0|0:0|0:0,0:0:0:0:
458,172,84056,1,0,0:0:0:0:
317,311,84207,2,0,L|342:356,2,37.5,4|0|0,0:0|0:0|0:0,0:0:0:0:
458,207,84509,1,0,0:0:0:0:
295,320,84660,6,0,L|312:369,2,37.5,4|0|0,0:0|0:0|0:0,0:0:0:0:
452,242,84962,1,0,0:0:0:0:
272,325,85113,2,0,L|281:376,2,37.5,4|0|0,0:0|0:0|0:0,0:0:0:0:
440,275,85415,1,0,0:0:0:0:
162,287,85567,38,0,P|125:304|91:303,1,75,4|0,0:0|0:0,0:0:0:0:
236,232,85870,2,0,P|273:215|307:216,1,75,4|0,0:0|0:0,0:0:0:0:
87,79,86172,6,0,L|80:39,2,37.5,4|0|0,0:0|0:0|0:0,0:0:0:0:
173,197,86474,1,0,0:0:0:0:
53,178,86625,2,0,L|27:147,2,37.5,4|0|0,0:0|0:0|0:0,0:0:0:0:
186,237,86927,1,0,0:0:0:0:
73,281,87079,38,0,L|35:267,2,37.5,4|0|0,0:0|0:0|0:0,0:0:0:0:
218,266,87381,1,0,0:0:0:0:
143,361,87532,2,0,L|103:368,2,37.5,4|0|0,0:0|0:0|0:0,0:0:0:0:
261,275,87834,1,0,0:0:0:0:
363,371,87986,6,0,P|392:348|404:312,1,75,4|0,0:0|0:0,0:0:0:0:
462,163,88288,2,0,P|433:186|421:222,1,75,4|0,0:0|0:0,0:0:0:0:
331,231,88590,37,4,0:0:0:0:
330,230,88666,1,0,0:0:0:0:
330,230,88741,1,0,0:0:0:0:
295,162,88893,1,0,0:0:0:0:
231,122,89044,5,4,0:0:0:0:
231,122,89119,1,0,0:0:0:0:
231,122,89195,1,0,0:0:0:0:
157,108,89346,1,0,0:0:0:0:
86,133,89497,37,4,0:0:0:0:
86,133,89573,1,0,0:0:0:0:
86,133,89648,1,0,0:0:0:0:
36,190,89800,1,0,0:0:0:0:
36,190,89951,6,0,L|25:271,2,75,4|0|0,0:0|0:0|0:0,0:0:0:0:
108,323,90404,2,0,P|123:284|122:238,1,75
125,83,90706,2,0,P|110:122|111:168,1,75
193,184,91009,1,4,0:0:0:0:
192,184,95845,37,0,0:0:0:0:
120,204,96148,1,0,0:0:0:0:
71,261,96450,1,8,0:0:0:0:
66,335,96752,1,0,0:0:0:0:
291,295,97055,5,0,0:0:0:0:
334,233,97358,1,0,0:0:0:0:
335,158,97660,1,8,0:0:0:0:
292,98,97962,1,0,0:0:0:0:
70,54,98264,38,0,P|56:97|61:149,1,75
75,279,98566,2,0,P|89:236|84:184,1,75
152,72,98868,2,0,P|138:115|143:167,1,75,8|0,0:0|0:0,0:0:0:0:
157,297,99170,2,0,P|171:254|166:202,1,75
243,183,99473,6,0,L|232:130,7,37.5,0|0|0|0|0|0|0|0,0:0|0:0|0:0|0:0|0:0|0:0|0:0|0:0,0:0:0:0:
245,193,100078,1,0,0:0:0:0:
247,203,100153,1,0,0:0:0:0:
249,213,100229,1,8,0:0:0:0:
251,223,100304,1,0,0:0:0:0:
253,233,100380,1,0,0:0:0:0:
255,243,100456,1,0,0:0:0:0:
258,253,100531,1,8,0:0:0:0:
261,263,100607,1,0,0:0:0:0:
264,272,100682,6,0,L|208:292,2,37.5,12|0|0,0:0|0:0|0:0,0:0:0:0:
398,337,100985,2,0,L|454:317,2,37.5,8|0|8,0:0|0:0|0:0,0:0:0:0:
272,361,101287,2,0,L|216:381,2,37.5,0|0|8,0:0|0:0|0:0,0:0:0:0:
382,240,101589,2,0,L|438:220,2,37.5,0|0|0,0:0|0:0|0:0,0:0:0:0:
387,15,101891,6,0,P|401:58|396:110,1,75,8|0,0:0|0:0,0:0:0:0:
382,240,102193,2,0,P|368:197|373:145,1,75,8|8,0:0|0:0,0:0:0:0:
305,33,102495,2,0,P|319:76|314:128,1,75,0|8,0:0|0:0,0:0:0:0:
300,258,102797,2,0,P|286:215|291:163,1,75
172,51,103101,37,8,0:0:0:0:
175,73,103176,1,0,0:0:0:0:
178,95,103252,1,0,0:0:0:0:
181,117,103327,1,0,0:0:0:0:
184,139,103403,1,8,0:0:0:0:
138,213,103554,1,8,0:0:0:0:
51,110,103705,5,0,0:0:0:0:
54,132,103780,1,0,0:0:0:0:
57,154,103856,1,8,0:0:0:0:
60,176,103931,1,0,0:0:0:0:
63,198,104007,1,0,0:0:0:0:
17,272,104158,1,0,0:0:0:0:
127,353,104310,38,0,L|112:307,3,37.5,8|0|0|0,0:0|0:0|0:0|0:0,0:0:0:0:
119,295,104612,2,0,P|152:305|190:296,1,75,8|0,0:0|0:0,0:0:0:0:
298,298,104914,1,8,0:0:0:0:
298,298,104990,1,0,0:0:0:0:
298,298,105066,1,0,0:0:0:0:
298,298,105141,1,0,0:0:0:0:
298,298,105217,1,8,0:0:0:0:
298,298,105292,1,0,0:0:0:0:
298,298,105368,1,0,0:0:0:0:
298,298,105443,1,0,0:0:0:0:
298,298,105519,6,0,L|383:308,1,75,8|0,0:0|0:0,0:0:0:0:
466,223,105821,1,8,0:0:0:0:
466,223,105897,1,0,0:0:0:0:
466,223,105972,1,8,0:0:0:0:
466,223,106048,1,0,0:0:0:0:
466,223,106124,38,0,P|427:239|381:227,1,75,0|8,0:0|0:0,0:0:0:0:
254,168,106426,1,0,0:0:0:0:
254,168,106502,1,0,0:0:0:0:
254,168,106577,1,0,0:0:0:0:
254,168,106653,1,0,0:0:0:0:
254,168,106729,6,0,P|293:184|339:172,1,75,8|0,0:0|0:0,0:0:0:0:
463,82,107030,1,8,0:0:0:0:
463,82,107106,1,0,0:0:0:0:
463,82,107181,1,8,0:0:0:0:
463,82,107257,1,0,0:0:0:0:
463,82,107333,38,0,P|424:98|378:86,1,75,0|8,0:0|0:0,0:0:0:0:
217,26,107635,2,0,L|228:68,3,37.5
220,84,107937,6,0,P|180:104|140:88,1,75,8|0,0:0|0:0,0:0:0:0:
40,184,108240,1,8,0:0:0:0:
60,176,108315,1,0,0:0:0:0:
80,188,108391,1,8,0:0:0:0:
100,180,108466,1,0,0:0:0:0:
120,192,108542,2,0,P|156:184|200:200,1,75,0|8,0:0|0:0,0:0:0:0:
300,304,108844,37,0,0:0:0:0:
280,296,108920,1,0,0:0:0:0:
260,304,108995,1,0,0:0:0:0:
240,296,109071,1,0,0:0:0:0:
220,304,109147,2,0,P|184:316|144:304,1,75,8|0,0:0|0:0,0:0:0:0:
220,190,109449,5,8,0:0:0:0:
240,200,109524,1,0,0:0:0:0:
260,188,109600,1,8,0:0:0:0:
280,200,109676,1,0,0:0:0:0:
300,188,109751,37,0,0:0:0:0:
244,92,109902,1,8,0:0:0:0:
376,168,110053,1,0,0:0:0:0:
320,72,110205,1,0,0:0:0:0:
463,206,110356,6,0,L|455:158,3,37.5,4|0|0|0,0:0|0:0|0:0|0:0,0:0:0:0:
467,147,110658,2,0,L|475:95,3,37.5,2|0|0|0,0:0|0:0|0:0|0:0,0:0:0:0:
465,88,110960,2,0,L|439:43,3,37.5,2|0|0|0,0:0|0:0|0:0|0:0,0:0:0:0:
435,35,111263,2,0,L|379:28,3,37.5,2|0|0|0,0:0|0:0|0:0|0:0,0:0:0:0:
378,42,111565,2,0,L|321:63,3,37.5,2|0|0|0,0:0|0:0|0:0|0:0,0:0:0:0:
322,44,111867,2,0,L|274:36,3,37.5,2|0|0|0,0:0|0:0|0:0|0:0,0:0:0:0:
266,51,112170,2,0,L|214:63,3,37.5,2|0|0|0,0:0|0:0|0:0|0:0,0:0:0:0:
210,46,112472,2,0,L|162:36,3,37.5
149,34,112774,38,0,L|156:111,1,75
57,253,113076,2,0,P|49:214|49:164,1,75,2|0,0:0|0:0,0:0:0:0:
186,285,113379,2,0,P|194:324|194:374,1,75,2|0,0:0|0:0,0:0:0:0:
129,236,113681,2,0,P|121:197|121:147,1,75,2|0,0:0|0:0,0:0:0:0:
258,262,113984,2,0,P|266:301|266:351,1,75,2|0,0:0|0:0,0:0:0:0:
201,217,114286,2,0,P|193:178|193:128,1,75,2|0,0:0|0:0,0:0:0:0:
330,243,114589,2,0,P|338:282|338:332,1,75,2|0,0:0|0:0,0:0:0:0:
442,349,114890,1,2,0:0:0:0:
445,151,115193,6,0,L|457:110,3,37.5,2|0|0|0,0:0|0:0|0:0|0:0,0:0:0:0:
424,174,115495,1,2,0:0:0:0:
329,243,115646,2,0,L|317:284,3,37.5,2|0|0|0,0:0|0:0|0:0|0:0,0:0:0:0:
350,220,115948,1,0,0:0:0:0:
325,53,116099,2,0,P|341:88|337:135,1,75,2|0,0:0|0:0,0:0:0:0:
250,182,116402,38,0,L|230:218,2,37.5,2|0|0,0:0|0:0|0:0,0:0:0:0:
205,89,116704,2,0,L|185:53,2,37.5,2|0|0,0:0|0:0|0:0,0:0:0:0:
150,205,117006,2,0,L|130:241,2,37.5,2|0|0,0:0|0:0|0:0,0:0:0:0:
105,112,117308,2,0,L|85:76,2,37.5,2|0|2,0:0|0:0|0:0,0:0:0:0:
31,174,117611,6,0,L|41:267,1,75,2|0,0:0|0:0,0:0:0:0:
126,367,117913,2,0,P|132:338|121:290,1,75,2|0,0:0|0:0,0:0:0:0:
142,130,118215,2,0,L|152:223,1,75,2|0,0:0|0:0,0:0:0:0:
237,323,118517,2,0,P|243:294|232:246,1,75,2|0,0:0|0:0,0:0:0:0:
316,167,118820,37,2,0:0:0:0:
316,167,118896,1,0,0:0:0:0:
316,167,118971,1,0,0:0:0:0:
316,167,119047,1,0,0:0:0:0:
316,167,119122,1,2,0:0:0:0:
316,167,119198,1,0,0:0:0:0:
316,167,119274,1,0,0:0:0:0:
316,167,119349,1,0,0:0:0:0:
316,167,119425,1,2,0:0:0:0:
316,167,119500,1,0,0:0:0:0:
316,167,119576,1,0,0:0:0:0:
316,167,119651,1,0,0:0:0:0:
316,167,119727,1,2,0:0:0:0:
316,167,119803,1,0,0:0:0:0:
316,167,119878,1,0,0:0:0:0:
316,167,119954,1,0,0:0:0:0:
316,167,120029,6,0,L|310:227,3,37.5,4|0|0|0,0:0|0:0|0:0|0:0,0:0:0:0:
325,223,120332,2,0,L|338:278,3,37.5,2|0|0|0,0:0|0:0|0:0|0:0,0:0:0:0:
320,277,120634,2,0,L|319:315,3,37.5,2|0|0|0,0:0|0:0|0:0|0:0,0:0:0:0:
331,333,120936,2,0,P|366:352|420:344,1,75,2|0,0:0|0:0,0:0:0:0:
448,248,121238,38,0,L|454:188,3,37.5,2|0|0|0,0:0|0:0|0:0|0:0,0:0:0:0:
439,192,121541,2,0,L|426:137,3,37.5,2|0|0|0,0:0|0:0|0:0|0:0,0:0:0:0:
444,138,121843,2,0,L|445:100,3,37.5,2|0|0|0,0:0|0:0|0:0|0:0,0:0:0:0:
433,82,122145,2,0,P|398:63|344:71,1,75,2|0,0:0|0:0,0:0:0:0:
241,112,122448,6,0,L|286:118,3,37.5
207,122,122750,2,0,L|163:107,2,37.5,2|0|0,0:0|0:0|0:0,0:0:0:0:
138,195,123052,2,0,L|183:201,3,37.5,2|0|0|0,0:0|0:0|0:0|0:0,0:0:0:0:
104,205,123354,2,0,L|60:190,2,37.5,2|0|0,0:0|0:0|0:0,0:0:0:0:
177,284,123657,38,0,L|132:290,3,37.5,2|0|0|0,0:0|0:0|0:0|0:0,0:0:0:0:
210,294,123959,2,0,L|254:279,2,37.5,2|0|0,0:0|0:0|0:0,0:0:0:0:
279,367,124261,2,0,L|234:373,3,37.5,2|0|0|0,0:0|0:0|0:0|0:0,0:0:0:0:
313,377,124563,2,0,L|357:362,2,37.5,2|0|0,0:0|0:0|0:0,0:0:0:0:
333,276,124866,6,0,P|396:284|453:226,1,150,2|2,0:0|0:0,0:0:0:0:
464,152,125319,2,0,L|484:73,2,75,2|0|0,0:0|0:0|0:0,0:0:0:0:
388,159,125773,2,0,P|345:149|319:113,1,75,2|0,0:0|0:0,0:0:0:0:
279,67,126075,2,0,L|193:56,1,75,2|0,0:0|0:0,0:0:0:0:
51,114,126378,2,0,L|137:125,1,75,2|0,0:0|0:0,0:0:0:0:
275,174,126680,2,0,L|189:163,1,75,2|0,0:0|0:0,0:0:0:0:
47,221,126983,2,0,L|133:232,1,75,2|2,0:0|0:0,0:0:0:0:
216,296,127284,38,0,P|196:332|192:377,1,75,2|0,0:0|0:0,0:0:0:0:
291,317,127587,2,0,P|311:281|315:236,1,75,2|0,0:0|0:0,0:0:0:0:
172,201,127889,2,0,P|152:237|148:282,1,75,2|0,0:0|0:0,0:0:0:0:
247,222,128192,2,0,P|267:186|271:141,1,75,2|0,0:0|0:0,0:0:0:0:
129,107,128494,2,0,P|109:143|105:188,1,75,2|0,0:0|0:0,0:0:0:0:
204,128,128797,2,0,P|224:92|228:47,1,75,2|0,0:0|0:0,0:0:0:0:
375,110,129098,5,2,0:0:0:0:
375,110,129174,1,0,0:0:0:0:
375,110,129249,1,0,0:0:0:0:
375,110,129325,1,0,0:0:0:0:
375,110,129401,1,0,0:0:0:0:
375,110,129476,1,0,0:0:0:0:
375,110,129552,1,0,0:0:0:0:
375,110,129627,1,0,0:0:0:0:
375,110,129703,38,0,L|391:174,3,37.5,4|0|0|0,0:0|0:0|0:0|0:0,0:0:0:0:
375,167,130005,2,0,L|364:224,3,37.5,2|0|0|0,0:0|0:0|0:0|0:0,0:0:0:0:
379,223,130307,2,0,L|379:275,3,37.5,2|0|0|0,0:0|0:0|0:0|0:0,0:0:0:0:
368,280,130610,2,0,L|342:329,3,37.5,2|0|0|0,0:0|0:0|0:0|0:0,0:0:0:0:
349,335,130912,2,0,L|316:369,3,37.5,2|0|0|0,0:0|0:0|0:0|0:0,0:0:0:0:
300,361,131214,2,0,L|243:343,3,37.5,2|0|0|0,0:0|0:0|0:0|0:0,0:0:0:0:
242,357,131517,2,0,L|178:359,3,37.5,2|0|0|0,0:0|0:0|0:0|0:0,0:0:0:0:
189,340,131819,2,0,L|154:311,3,37.5,2|0|0|0,0:0|0:0|0:0|0:0,0:0:0:0:
139,325,132121,6,0,L|73:304,3,37.5
97,291,132423,2,0,L|81:243,3,37.5,2|0|0|0,0:0|0:0|0:0|0:0,0:0:0:0:
62,249,132726,2,0,L|45:192,3,37.5,2|0|0|0,0:0|0:0|0:0|0:0,0:0:0:0:
65,195,133028,2,0,L|79:150,3,37.5,2|0|0|0,0:0|0:0|0:0|0:0,0:0:0:0:
64,140,133330,2,0,L|61:101,3,37.5,2|0|0|0,0:0|0:0|0:0|0:0,0:0:0:0:
84,101,133633,2,0,L|127:75,3,37.5,2|0|0|0,0:0|0:0|0:0|0:0,0:0:0:0:
111,59,133935,2,0,L|148:18,3,37.5,2|0|0|0,0:0|0:0|0:0|0:0,0:0:0:0:
153,45,134237,2,0,L|202:66,3,37.5,2|0|0|0,0:0|0:0|0:0|0:0,0:0:0:0:
205,73,134540,38,0,P|238:87|288:80,1,75,2|0,0:0|0:0,0:0:0:0:
473,159,134842,2,0,P|440:145|390:152,1,75,2|2,0:0|0:0,0:0:0:0:
174,165,135144,2,0,P|207:179|257:172,1,75
442,251,135446,2,0,P|409:237|359:244,1,75,2|0,0:0|0:0,0:0:0:0:
286,308,135749,2,0,L|313:347,2,37.5,2|0|0,0:0|0:0|0:0,0:0:0:0:
179,281,136051,2,0,L|136:280,2,37.5,2|0|0,0:0|0:0|0:0,0:0:0:0:
259,199,136353,2,0,L|256:160,2,37.5,2|0|0,0:0|0:0|0:0,0:0:0:0:
376,200,136656,2,0,P|401:159|400:124,1,75,2|2,0:0|0:0,0:0:0:0:
298,31,136958,6,0,L|319:125,1,75,2|0,0:0|0:0,0:0:0:0:
169,85,137260,2,0,L|190:179,1,75,2|0,0:0|0:0,0:0:0:0:
293,186,137563,2,0,L|314:280,1,75,2|0,0:0|0:0,0:0:0:0:
76,192,137865,2,0,L|97:286,1,75,2|0,0:0|0:0,0:0:0:0:
224,346,138167,38,0,L|203:252,1,75,2|0,0:0|0:0,0:0:0:0:
436,221,138469,2,0,L|415:127,1,75,2|0,0:0|0:0,0:0:0:0:
115,237,138772,2,0,L|94:143,1,75,2|0,0:0|0:0,0:0:0:0:
288,134,139074,2,0,L|267:40,1,75,2|0,0:0|0:0,0:0:0:0:
138,70,139376,1,6,0:0:0:0:
