osu file format v12

[General]
AudioFilename: neu.mp3
AudioLeadIn: 0
PreviewTime: 110356
Countdown: 0
SampleSet: Normal
StackLeniency: 0.4
Mode: 0
LetterboxInBreaks: 1

[Editor]
DistanceSpacing: 1.1
BeatDivisor: 4
GridSize: 4

[Metadata]
Title:neu
TitleUnicode:neu
Artist:Shounen Radio
ArtistUnicode:少年ラジオ
Creator:Philippines
Version:Bronze
Source:pop'n Music 15 ADVENTURE
Tags:wac jun wakita niente LKs OnosakiHito Kokatsu
BeatmapID:176855
BeatmapSetID:58422

[Difficulty]
HPDrainRate:4
CircleSize:4
OverallDifficulty:4
ApproachRate:5
SliderMultiplier:0.7
SliderTickRate:1

[Events]
//Background and Video events
0,0,"BG.jpg",0,0
//Break Periods
2,91209,94645
//Storyboard Layer 0 (Background)
//Storyboard Layer 1 (Fail)
//Storyboard Layer 2 (Pass)
//Storyboard Layer 3 (Foreground)
//Storyboard Sound Samples
//Background Colour Transformations
3,100,212,208,200
Sprite,Foreground,Centre,"Storyboard\Light2.png",320,240 M,0,3947,,320,240 F,0,3947,5157,0,0.3481601 R,0,3947,149050,0,4.54656 F,0,5157,139376,0.3481601 F,0,139376,149050,0.3481601,0
Sprite,Foreground,Centre,"Storyboard\Light.png",320,240 F,0,3947,5157,0,0.2559999 R,0,3947,149050,2.23232,10.89536 F,0,5157,139376,0.2559999 F,0,139376,149050,0.2559999,0
Sprite,Foreground,Centre,"BG.jpg",320,240 M,0,95845,,320,240 S,0,95845,,0.63136 F,0,95845,100682,0,0.9859504 C,0,95845,101891,0,128,255,255,128,128 F,0,100682,139376,0.9859504,1 F,0,139376,149050,1,0
Sprite,Foreground,Centre,"Storyboard\B1.png",320,440 M,0,32968,,320,440 F,0,32968,33119,0,1 F,0,33119,35386,1,0.8940398 F,0,35386,35689,0.8940398,0
Sprite,Foreground,Centre,"Storyboard\B2.png",320,440 F,0,35689,35840,0,1 F,0,35840,37503,1 F,0,37503,37805,1,0
Sprite,Foreground,Centre,"Storyboard\B3.png",320,440 F,0,37805,37956,0,1 F,0,37956,39619,1,0.9536424 F,0,39619,39921,0.9536424,0
Sprite,Foreground,Centre,"Storyboard\B4.png",320,440 F,0,39921,40072,0,1 F,0,40072,40374,1 F,0,40374,40677,1,0
Sprite,Foreground,Centre,"Storyboard\B5.png",320,440 F,0,40525,40677,0,1 F,0,40677,41130,1 F,0,41130,41432,1,0
Sprite,Foreground,Centre,"Storyboard\B6.png",320,440 F,0,41432,41584,0,1 F,0,41584,42037,1 F,0,42037,42339,1,0
Sprite,Foreground,Centre,"Storyboard\B7.png",320,440 F,0,90404,90555,0,1 F,0,90555,92823,1,0.9735099 F,0,92823,93125,0.9735099,0
Sprite,Foreground,Centre,"Storyboard\B5.png",320,440 F,0,93427,93578,0,1 F,0,93578,95241,1,0.7218543 F,0,95241,95543,0.7218543,0
Sprite,Foreground,Centre,"Storyboard\B6.png",320,440 F,0,95845,95997,0,1 F,0,95997,97659,1,0.8552632 F,0,97659,97962,0.8552632,0
Sprite,Foreground,Centre,"Storyboard\B8.png",320,440 F,0,98264,98415,0,1 F,0,98415,100078,1 F,0,100078,100380,1,0
Sprite,Foreground,Centre,"Storyboard\R1.png",320,440 M,0,120332,,320,440 F,0,120332,120483,0,1 F,0,120483,122448,1 F,0,122448,122750,1,0
Sprite,Foreground,Centre,"Storyboard\R2.png",320,440 F,0,122750,122901,0,1 F,0,122901,124564,1 F,0,124564,124866,1,0
Sprite,Foreground,Centre,"Storyboard\R3.png",320,440 F,0,124866,125017,0,1 F,0,125017,126680,1 F,0,126680,126982,1,0
Sprite,Foreground,Centre,"Storyboard\R4.png",320,440 F,0,126982,127133,0,1 F,0,127133,127284,1 F,0,127284,127587,1,0
Sprite,Foreground,Centre,"Storyboard\R5.png",320,440 F,0,127587,127738,0,1 F,0,127738,128191,1 F,0,128191,128494,1,0
Sprite,Foreground,Centre,"Storyboard\R6.png",320,440 F,0,128494,128645,0,1 F,0,128645,129098,1 F,0,129098,129401,1,0
Sprite,Foreground,Centre,"Storyboard\R1.png",320,440 F,0,130005,130156,0,1 F,0,130156,132121,1 F,0,132121,132423,1,0
Sprite,Foreground,Centre,"Storyboard\R2.png",320,440 F,0,132423,132575,0,1 F,0,132575,134237,1 F,0,134237,134540,1,0
Sprite,Foreground,Centre,"Storyboard\R3.png",320,440 F,0,134540,134691,0,1 F,0,134691,136353,1 F,0,136353,136656,1,0
Sprite,Foreground,Centre,"Storyboard\R4.png",320,440 F,0,136656,136807,0,1 F,0,136807,136958,1 F,0,136958,137260,1,0
Sprite,Foreground,Centre,"Storyboard\R5.png",320,440 F,0,137260,137411,0,1 F,0,137411,137865,1 F,0,137865,138167,1,0
Sprite,Foreground,Centre,"Storyboard\R6.png",320,440 F,0,138167,138318,0,1 F,0,138318,139376,1 F,0,139376,139679,1,0

[TimingPoints]
3948,302.29746070133,4,2,0,60,1,0
23295,-100,4,1,0,80,0,1
42642,302.29746070133,3,2,0,60,1,0
70453,302.29746070133,4,2,0,60,1,0
70755,-100,4,1,0,60,0,0
71662,-100,4,1,0,80,0,0
100682,-100,4,1,0,80,0,1
139376,-100,4,1,0,80,0,0

[Colours]
Combo1 : 255,128,64
Combo2 : 0,255,255
Combo3 : 0,128,192
Combo4 : 255,128,128

[HitObjects]
88,152,3947,2,0,B|136:144|192:176|208:216,1,140,4|2,0:0|0:0,0:0:0:0:
296,336,5157,2,0,B|344:360|408:336|416:280,1,140,0|2,0:0|0:0,0:0:0:0:
356,152,6366,2,0,B|332:128|332:80|356:48,2,105,0|2|2,0:0|0:0|0:0,0:0:0:0:
436,160,7575,2,0,B|436:212|368:252|324:224,1,140,2|0,0:0|0:0,0:0:0:0:
276,180,8482,1,0,0:0:0:0:
200,160,8784,6,0,B|156:184|92:156|84:100,1,140,4|2,0:0|0:0,0:0:0:0:
124,260,9993,2,0,B|148:304|120:368|64:376,1,140,0|2,0:0|0:0,0:0:0:0:
220,316,11203,2,0,B|264:292|328:320|336:376,1,140,0|2,0:0|0:0,0:0:0:0:
412,364,12110,2,0,B|464:368|496:308|484:264,1,140,2|0,0:0|0:0,0:0:0:0:
480,188,13016,2,0,B|456:152|460:108,1,70,2|2,0:0|0:0,0:0:0:0:
408,64,13621,37,4,0:0:0:0:
332,200,14226,1,2,0:0:0:0:
180,200,14830,1,0,0:0:0:0:
104,64,15435,1,2,0:0:0:0:
100,216,16039,6,0,B|104:264|164:296|205:277,1,140,0|2,0:0|0:0,0:0:0:0:
276,312,16946,1,0,0:0:0:0:
348,344,17249,2,0,B|376:377|453:365|465:316,1,140,0|2,0:0|0:0,0:0:0:0:
396,284,18155,38,0,B|388:212,1,70,0|6,0:0|0:0,0:0:0:0:
412,62,19062,2,0,B|459:66|490:40,2,70,2|0|2,0:0|0:0|0:0,0:0:0:0:
293,160,20272,2,0,B|246:156|215:182,2,70,2|0|2,0:0|0:0|0:0,0:0:0:0:
428,233,21481,2,0,B|475:237|506:211,2,70,2|0|2,0:0|0:0|0:0,0:0:0:0:
136,336,23295,6,0,B|91:310|84:240|123:206,1,140,4|0,0:0|0:0,0:0:0:0:
68,152,24201,1,2,0:0:0:0:
48,76,24504,2,0,B|60:120|120:144|164:124,1,140
240,108,25411,1,2,0:0:0:0:
272,36,25713,38,0,B|280:188,1,140
412,256,26922,2,0,B|404:140,2,105,0|8|2,0:0|0:0|0:0,0:0:0:0:
480,296,28131,6,0,B|452:344|384:348|352:308,1,140,0|8,0:0|0:0,0:0:0:0:
284,304,29038,1,2,0:0:0:0:
216,264,29340,2,0,B|237:219|307:209|341:249,1,140,0|8,0:0|0:0,0:0:0:0:
284,304,30247,1,2,0:0:0:0:
216,344,30550,38,0,B|76:356,1,140,2|2,0:0|0:0,0:0:0:0:
116,208,31759,2,0,B|52:208|16:156,2,105,0|2|2,0:0|0:0|0:0,0:0:0:0:
156,276,32968,6,0,B|148:124,1,140,4|0,0:0|0:0,0:0:0:0:
128,60,33875,1,2,0:0:0:0:
72,116,34177,2,0,B|108:176|212:176|256:124,1,210,0|2,0:0|0:0,0:0:0:0:
332,140,35386,38,0,B|340:292,1,140
360,356,36293,1,2,0:0:0:0:
416,300,36596,2,0,B|380:240|276:240|231:292,1,210,0|2,0:0|0:0,0:0:0:0:
160,324,37805,6,0,B|116:368|52:360,2,105,0|8|2,0:0|0:0|0:0,0:0:0:0:
232,292,39014,2,0,B|276:248|340:256,2,105,0|8|2,0:0|0:0|0:0,0:0:0:0:
176,240,40223,38,0,B|140:176,1,70,0|2,0:0|0:0,0:0:0:0:
64,188,40828,2,0,B|28:124,1,70,0|2,0:0|0:0,0:0:0:0:
52,52,41432,2,0,B|76:16|156:12|184:52,1,140,0|2,0:0|0:0,0:0:0:0:
299,129,42642,6,0,B|372:98,2,70,0|0|2,0:0|0:0|0:0,0:0:0:0:
240,76,43548,2,0,B|196:120|215:202|286:229|344:194,1,210,2|0,0:0|0:0,0:0:0:0:
388,252,44758,1,0,0:0:0:0:
464,236,45060,2,0,B|480:200|452:156,2,70
468,312,45967,1,0,0:0:0:0:
412,364,46269,38,0,B|304:376|304:376|244:368,1,140,0|2,0:0|0:0,0:0:0:0:
196,352,47176,2,0,B|164:347|164:347|56:359,1,140,2|0,0:0|0:0,0:0:0:0:
32,284,48083,2,0,B|84:276|104:204|72:168,1,140
60,96,48990,2,0,B|40:24,2,70
136,76,49897,6,0,B|188:84|236:60|236:60|296:72,1,140,0|2,0:0|0:0,0:0:0:0:
256,144,50804,2,0,B|293:151|293:151|341:127|393:135,1,140,2|0,0:0|0:0,0:0:0:0:
468,116,51710,2,0,B|448:72|472:40,2,70
476,196,52617,2,0,B|496:232|476:268,2,70
400,216,53524,38,0,B|352:224|326:276|326:276|274:273,1,140,0|2,0:0|0:0,0:0:0:0:
208,268,54431,2,0,B|166:265|166:265|140:317|92:325,1,140,2|0,0:0|0:0,0:0:0:0:
28,276,55338,2,0,B|0:320|0:352,2,70
20,196,56245,2,0,B|14:144|-4:118,2,70
100,204,57152,6,0,B|152:192|176:124|144:80,1,140,0|2,0:0|0:0,0:0:0:0:
84,52,58059,2,0,B|156:84|244:48,1,140,2|0,0:0|0:0,0:0:0:0:
296,76,58966,2,0,B|364:24,2,70
252,140,59872,2,0,B|184:192,2,70
328,144,60779,38,0,B|372:168|444:148|460:96,1,140,0|2,0:0|0:0,0:0:0:0:
472,36,61686,2,0,B|512:192,1,140,2|0,0:0|0:0,0:0:0:0:
460,236,62593,1,0,0:0:0:0:
336,324,63198,2,0,B|308:292|228:288|192:316,1,140
132,340,64105,1,0,0:0:0:0:
56,320,64407,6,0,B|28:272|60:224|60:224|116:204,1,140,0|2,0:0|0:0,0:0:0:0:
172,184,65314,2,0,B|208:170|208:170|240:122|212:74,2,140,2|0|2,0:0|0:0|0:0,0:0:0:0:
156,260,66825,2,0,B|220:296|312:268,1,140,0|2,0:0|0:0,0:0:0:0:
360,312,67732,1,2,0:0:0:0:
424,356,68034,38,0,B|457:315|433:243|376:236,1,140,2|0,0:0|0:0,0:0:0:0:
360,168,68941,1,2,0:0:0:0:
244,272,69546,2,0,B|252:324|267:361,2,70,0|0|2,0:0|0:0|0:0,0:0:0:0:
186,217,70453,5,2,0:0:0:0:
123,169,70755,2,0,B|114:116|99:79,2,70
112,248,71662,38,0,B|64:284|56:336,1,105,0|8,0:0|0:0,0:0:0:0:
168,312,72569,2,0,B|204:360|256:368,1,105,0|8,0:0|0:0,0:0:0:0:
364,328,73475,2,0,B|428:300,1,70,0|10,0:0|0:0,0:0:0:0:
472,236,74080,6,0,B|496:172|460:112,1,105,0|8,0:0|0:0,0:0:0:0:
380,208,74987,2,0,B|344:149|274:141,1,105,0|8,0:0|0:0,0:0:0:0:
208,72,75894,2,0,B|128:84,1,70,0|10,0:0|0:0,0:0:0:0:
68,116,76498,38,0,B|40:184|60:236|56:236,1,105,0|8,0:0|0:0,0:0:0:0:
128,308,77405,2,0,B|156:240|136:188|140:188,1,105,0|8,0:0|0:0,0:0:0:0:
256,196,78312,2,0,B|260:280,1,70,0|10,0:0|0:0,0:0:0:0:
316,320,78917,6,0,B|372:340|420:304,1,105,0|8,0:0|0:0,0:0:0:0:
476,208,79824,2,0,B|420:188|372:224,1,105,0|8,0:0|0:0,0:0:0:0:
416,112,80731,2,0,B|340:60,1,70,0|10,0:0|0:0,0:0:0:0:
284,100,81335,38,0,B|240:144|172:144,1,105,0|8,0:0|0:0,0:0:0:0:
76,140,82242,2,0,B|120:184|120:252,1,105,0|8,0:0|0:0,0:0:0:0:
40,320,83149,2,0,B|112:344,1,70,0|10,0:0|0:0,0:0:0:0:
184,340,83754,6,0,B|253:345|288:289,1,105,0|8,0:0|0:0,0:0:0:0:
174,252,84660,2,0,B|241:233|255:169,1,105,0|8,0:0|0:0,0:0:0:0:
276,72,85567,2,0,B|316:144,1,70,0|10,0:0|0:0,0:0:0:0:
388,120,86172,38,0,B|408:184|476:192,1,105,0|8,0:0|0:0,0:0:0:0:
376,268,87079,2,0,B|350:329|397:379,2,105,0|8|0,0:0|0:0|0:0,0:0:0:0:
316,216,88288,1,10,0:0:0:0:
256,192,88590,12,4,91009,0:0:0:0:
76,304,95845,5,0,0:0:0:0:
152,292,96148,1,0,0:0:0:0:
228,280,96450,1,8,0:0:0:0:
304,268,96752,1,0,0:0:0:0:
348,332,97055,2,0,B|400:296|388:220|340:200,1,140,0|8,0:0|0:0,0:0:0:0:
436,80,98264,37,0,0:0:0:0:
360,92,98567,1,0,0:0:0:0:
284,104,98869,1,8,0:0:0:0:
208,116,99171,1,0,0:0:0:0:
164,52,99474,2,0,B|112:88|124:164|172:184,1,140,0|8,0:0|0:0,0:0:0:0:
72,304,100682,22,0,B|136:348|212:324,1,140,4|0,0:0|0:0,0:0:0:0:
272,284,101589,1,8,0:0:0:0:
340,324,101891,2,0,B|388:332|440:312|440:312|468:268,1,140,0|0,0:0|0:0,0:0:0:0:
468,204,102798,1,8,0:0:0:0:
460,128,103101,6,0,B|444:88|436:44,1,70
364,44,103705,1,0,0:0:0:0:
288,60,104008,1,8,0:0:0:0:
212,72,104310,2,0,B|228:112|236:156,1,70
308,160,104914,1,0,0:0:0:0:
348,228,105217,1,8,0:0:0:0:
400,168,105519,38,8,B|448:208|443:287|391:341|280:328|268:236,1,280,0|0,0:0|0:0,0:0:0:0:
204,240,107030,1,0,0:0:0:0:
126,235,107333,1,0,0:0:0:0:
75,174,107635,1,8,0:0:0:0:
23,234,107937,6,0,B|-25:194|-20:115|32:61|143:74|155:166,1,280,0|0,0:0|0:0,0:0:0:0:
224,136,109449,1,0,0:0:0:0:
300,116,109751,2,0,B|372:116,1,70,0|8,0:0|0:0,0:0:0:0:
424,56,110356,38,0,B|462:85|460:157|418:179,1,140,4|0,0:0|0:0,0:0:0:0:
400,256,111263,1,8,0:0:0:0:
480,251,111565,2,0,B|486:298|434:347|388:333,1,140,0|8,0:0|0:0,0:0:0:0:
240,336,112774,6,0,B|216:256,1,70
144,248,113379,2,0,B|120:168,1,70,0|8,0:0|0:0,0:0:0:0:
64,128,113983,2,0,B|96:168|168:168|208:128,1,140,0|8,0:0|0:0,0:0:0:0:
248,88,114890,1,0,0:0:0:0:
320,56,115193,38,0,B|320:120|385:153|440:128,1,140
400,56,116099,1,8,0:0:0:0:
472,84,116402,2,8,B|440:128|436:164|448:228,1,140,0|8,0:0|0:0,0:0:0:0:
488,364,117611,6,0,B|424:332,1,70
348,332,118215,2,0,B|284:300,1,70,0|8,0:0|0:0,0:0:0:0:
228,352,118820,38,0,B|164:320,1,70
88,320,119424,2,0,B|24:288,1,70,0|8,0:0|0:0,0:0:0:0:
12,212,120029,5,6,0:0:0:0:
61,152,120332,1,0,0:0:0:0:
108,92,120634,1,8,0:0:0:0:
256,136,121238,1,0,0:0:0:0:
209,197,121541,1,0,0:0:0:0:
160,256,121843,1,8,0:0:0:0:
28,332,122448,38,0,B|120:352|120:352|188:340,1,140,0|8,0:0|0:0,0:0:0:0:
297,268,123657,2,0,B|205:248|205:248|160:256,1,140,0|8,0:0|0:0,0:0:0:0:
80,124,124866,6,0,B|144:124|188:72,2,105,0|8|0,0:0|0:0|0:0,0:0:0:0:
24,180,126075,2,0,B|12:252|12:252|44:272|48:304,1,140,0|8,0:0|0:0,0:0:0:0:
113,347,126982,1,0,0:0:0:0:
180,308,127284,38,0,B|208:348|268:360|320:344,1,140
384,356,128191,1,0,0:0:0:0:
460,340,128494,2,0,B|460:260,1,70,0|8,0:0|0:0,0:0:0:0:
380,276,129098,2,0,B|380:196,1,70,0|8,0:0|0:0,0:0:0:0:
444,160,129703,6,0,B|376:196|288:164,1,140,12|0,0:0|0:0,0:0:0:0:
328,92,130610,1,8,0:0:0:0:
250,112,130912,2,0,B|282:164|274:248,1,140,0|8,0:0|0:0,0:0:0:0:
140,320,132121,38,0,B|96:325|48:260|84:204,1,140
152,244,133028,2,0,B|216:212,1,70,8|0,0:0|0:0,0:0:0:0:
292,200,133633,2,0,B|354:168,2,70,0|8|8,0:0|0:0|0:0,0:0:0:0:
272,276,134540,6,0,B|296:320|356:340|412:320,1,140
464,360,135446,1,8,0:0:0:0:
496,288,135749,2,0,B|504:196,3,70,0|0|8|8,0:0|0:0|0:0|0:0,0:0:0:0:
432,184,136958,38,0,B|408:148|420:96,2,70,8|0|0,0:0|0:0|0:0,0:0:0:0:
380,244,137865,1,8,0:0:0:0:
312,284,138167,6,0,B|269:275|241:230,2,70,8|0|0,0:0|0:0|0:0,0:0:0:0:
317,363,139074,1,8,0:0:0:0:
384,324,139376,1,4,0:0:0:0:
