osu file format v5

[General]
AudioFilename: SkyBlueDays.mp3
AudioLeadIn: 0
PreviewTime: 48432
Countdown: 0
SampleSet: Normal

[Metadata]
Title:Sky Blue Days
Artist:Shouko Nakagawa
Creator:Fox
Version:Hard

[Difficulty]
HPDrainRate:5
CircleSize:4
OverallDifficulty:7
SliderMultiplier:1.4
SliderTickRate:1

[Events]
//Background and Video events
0,0,"wallp.png"
//Break Periods
2,76563,87877
2,149667,181520
//Storyboard Layer 0 (Background)
//Storyboard Layer 1 (Failing)
//Storyboard Layer 2 (Passing)
//Storyboard Layer 3 (Foreground)
//Storyboard Sound Samples
//Background Colour Transformations
3,100,163,162,255

[TimingPoints]
15674,344.827586206897,4,1,0,100

[Colours]
Combo1 : 255,180,0
Combo2 : 244,0,0
Combo3 : 5,5,240
Combo4 : 0,0,0

[HitObjects]
256,192,15674,1,4
240,96,16191,1,0
272,96,16363,1,0
208,240,16880,1,0
304,240,17225,1,0
240,336,17570,1,0
272,336,17742,1,0
112,320,18432,6,2,B|80:192|160:112,1,210
176,96,19122,1,0
256,176,19467,1,0
256,176,19639,1,0
320,96,19984,1,0
352,128,20156,2,2,B|429:157|384:256,1,140
256,304,21191,5,6
256,208,21708,1,0
256,208,21880,1,0
352,256,22398,1,0
416,192,22742,1,0
352,128,23087,1,0
352,128,23260,1,0
256,176,23777,5,0
192,176,23949,6,4,B|212:87|304:128,1,140
256,176,24467,6,4,B|344:196|304:288,1,140
256,240,24984,6,4,B|112:272|96:160|144:80|224:80,1,280
256,304,26708,5,4
256,192,27225,1,0
256,192,27398,1,0
368,288,27915,2,2,B|410:242|409:200|336:144,2,140
336,288,28777,1,2
256,80,29467,5,6
256,192,29984,1,0
256,192,30157,1,0
192,80,30501,1,0
160,96,30674,2,2,B|108:159|144:206|176:224,1,140
192,240,31191,1,2
256,128,31536,1,4
256,272,32225,5,0
240,176,32742,1,0
272,176,32915,1,0
256,48,33432,1,0
256,128,33777,1,0
256,208,34122,1,0
256,208,34295,1,0
256,352,34811,5,0
256,304,34984,1,2
160,272,35501,1,0
208,192,35846,1,0
256,160,36018,1,0
304,192,36191,1,6
464,64,37053,6,0,B|395:18|320:80,1,140
400,128,37742,1,0
448,208,38087,1,0
400,224,38260,1,0
352,208,38432,1,2
352,304,38777,1,0
352,304,38949,1,0
256,288,39294,2,0,B|223:181|300:80|256:32,1,210
144,64,40329,5,0
160,112,40501,1,0
64,112,40846,1,0
48,160,41018,1,0
64,256,41363,1,0
128,304,41708,1,0
192,256,42053,1,4
256,80,43087,5,0
192,112,43260,2,0,B|259:174|320:112,1,140
352,144,43777,1,2
320,176,43949,2,0,B|253:238|192:176,1,140
160,144,44467,1,0
80,224,44811,5,0
112,256,44984,1,0
144,288,45156,1,0
176,320,45329,1,2
256,272,45674,5,0
256,224,45846,5,0
256,176,46018,5,0
256,192,46191,12,4,48087
256,192,48432,1,0
208,272,48777,1,2
304,272,49122,1,0
304,272,49294,1,0
256,192,49639,1,0
256,96,49984,1,4
336,176,51018,5,0
304,160,51191,1,0
272,160,51363,1,0
240,176,51536,1,0
256,272,51880,1,0
256,272,52053,2,2,B|176:304|112:240,2,140
400,224,53605,5,0
416,144,53949,1,0
368,80,54294,1,0
288,80,54639,1,0
288,80,54811,1,0
208,112,55156,1,0
128,144,55501,2,4,B|128:284|288:272,1,210
304,272,56191,1,0
400,272,56536,1,2
400,176,56880,2,4,B|448:128|321:36|192:64,1,280
256,160,57915,1,0
256,160,58087,1,0
256,160,58260,2,4,B|256:304,2,140
256,272,59467,5,0
176,224,59811,1,0
256,176,60156,1,0
256,176,60329,1,0
336,224,60674,1,2
256,272,61018,1,4
320,192,62053,5,0
304,160,62225,1,0
288,128,62398,1,0
272,96,62570,1,0
240,176,62915,1,0
240,176,63087,1,2
192,256,63432,1,0
288,256,63777,1,6
208,144,64639,5,0
304,144,64984,1,0
256,224,65329,1,0
160,224,65674,1,0
160,224,65846,1,0
208,304,66191,1,0
256,224,66536,1,0
256,96,67053,1,0
320,48,67398,1,2
368,112,67742,1,0
304,160,68087,1,6
256,288,68605,5,0
256,288,68949,5,0
256,288,69294,5,4
256,192,69811,12,0,72053
256,48,73260,5,0
352,96,73605,1,4
256,128,73949,1,0
256,128,74122,1,4
160,160,74467,1,4
256,208,74811,1,4
256,352,75674,5,0
256,208,76363,5,6
112,192,88777,6,0,B|112:336|304:336,1,210
273,330,89467,2,0,B|412:329|401:138,1,210
400,96,90329,5,2
320,112,90674,1,0
288,112,90846,1,0
160,288,91536,6,0,B|272:352|384:272,1,210
336,240,92225,2,0,B|250:281|160:208,1,140
160,224,92742,2,4,B|96:176|192:128|240:176,1,140
272,176,93260,2,4,B|352:187|346:114|240:96,1,140
416,192,94294,5,0
320,160,94811,2,2,B|293:192|320:224,1,70
208,112,95501,2,0,B|159:192|240:304,2,140
224,80,96363,1,4
400,192,96880,1,0
400,192,97053,1,0
320,144,97398,1,0
320,144,97570,1,0
320,240,97915,1,0
320,240,98087,2,2,B|240:320|64:272|141:261|144:336|198:172|224:64|256:112|160:96|111:110|64:144,1,420
256,192,99811,5,0
352,160,100329,1,0
352,208,100501,1,0
256,112,101018,1,6
256,192,101363,1,0
256,272,101708,1,0
256,272,101880,1,0
128,192,102570,5,0
224,208,103087,2,0,B|245:263|288:272,1,70
288,144,103605,2,0,B|309:89|352:80,1,70
368,208,104122,2,2,B|389:263|432:272,1,70
480,192,104639,1,6
416,80,105329,5,0
384,176,105846,1,0
384,176,106018,1,0
352,80,106536,2,4,B|272:80|256:176,2,140
352,128,107398,1,0
256,48,107915,5,0
256,48,108087,1,0
256,144,108605,1,0
208,240,108949,1,2
256,256,109122,1,2
304,240,109294,1,2
96,320,110156,5,0
64,240,110501,1,0
80,160,110846,1,0
144,96,111191,1,0
192,80,111363,1,0
240,80,111536,1,0
240,176,111880,2,0,B|208:176|176:208,1,70
288,256,112398,2,4,B|256:256|224:288,3,70
320,336,113432,5,0
368,320,113605,1,0
448,256,113949,1,0
400,240,114122,1,0
448,144,114467,1,0
368,128,114811,1,0
288,112,115156,1,0
256,288,116191,5,0
192,272,116363,2,2,B|252:201|320:288,1,140
352,256,116880,1,0
336,208,117053,2,0,B|269:164|199:188|176:192,1,140
160,208,117570,1,2
208,128,117915,1,0
256,128,118087,1,0
304,144,118260,1,0
352,144,118432,1,0
256,80,118777,5,0
256,80,118949,1,0
256,80,119122,1,0
256,192,119639,1,0
256,240,119811,1,4
224,320,120329,2,4,B|263:350|304:304,5,70
256,240,121536,5,0
304,160,121881,1,2
256,80,122226,1,0
256,80,122398,1,0
256,192,122743,1,0
256,288,123088,1,4
176,176,124122,5,0
208,160,124295,1,0
240,160,124467,1,0
272,176,124640,1,0
256,272,124984,1,0
256,272,125157,2,2,B|336:304|400:240,2,140
160,304,126191,5,0
160,304,126363,5,0
112,224,126709,5,0
96,144,127053,1,0
144,80,127398,1,0
224,80,127743,1,0
224,80,127915,1,0
304,112,128260,1,0
384,144,128605,2,4,B|384:284|224:272,1,210
208,272,129295,1,0
112,272,129640,1,2
112,176,129984,2,4,B|64:128|191:36|320:64,1,280
256,160,131019,1,0
256,160,131191,1,0
256,160,131364,2,4,B|256:304,2,140
256,272,132571,5,0
336,224,132915,1,0
256,176,133260,1,0
256,176,133433,1,0
176,224,133778,1,2
256,272,134122,1,4
192,192,135157,5,0
208,160,135329,1,0
224,128,135502,1,0
240,96,135674,1,0
272,176,136019,1,0
272,176,136191,1,2
320,256,136536,1,0
224,256,136881,1,6
304,144,137743,5,0
208,144,138088,1,0
256,224,138433,1,0
352,224,138778,1,0
352,224,138950,1,0
304,304,139295,1,0
256,224,139640,1,0
256,96,140157,1,0
192,48,140502,1,2
144,112,140846,1,0
208,160,141191,1,6
256,288,141709,5,0
256,288,142053,5,0
256,288,142398,5,4
256,192,142915,12,0,145157
256,48,146364,5,0
160,96,146709,1,4
256,128,147053,1,0
256,128,147226,1,4
352,160,147571,1,4
256,208,147915,1,4
256,352,148778,5,0
256,208,149467,5,6
112,224,182570,5,2
192,128,183260,1,0
256,256,183949,1,2
304,128,184639,1,0
400,208,185329,1,2
256,160,186363,1,4
256,160,186536,1,0
320,272,187398,5,0
256,288,187742,1,4
192,272,188087,1,0
336,176,189122,5,0
336,128,189467,1,4
176,128,190156,1,0
176,176,190501,1,0
256,64,191191,5,0
256,64,191363,1,0
256,160,191880,2,0,B|256:208|160:160|176:144|176:272|336:272|336:144|352:160|272:192,2,210
256,64,193260,5,0
352,80,193605,1,0
416,144,193949,1,0
416,176,194122,1,0
416,272,194467,1,0
384,272,194639,2,2,B|304:352|320:352|224:224|240:224|128:352,1,280
64,240,196018,5,0
80,208,196191,1,0
96,176,196363,1,0
112,80,196708,1,0
144,64,196880,1,0
256,64,197225,1,0
256,96,197398,2,4,B|389:145|84:201|288:304,1,280
336,224,198432,5,0
400,160,198777,2,6,B|500:33|497:51|18:48|16:31|160:160,1,560
256,192,201191,5,0
256,304,201880,2,0,B|320:304|320:240,1,70
320,240,202225,2,0,B|384:240|384:176,1,70
384,176,202570,2,0,B|448:176|448:112,1,70
448,112,202915,2,0,B|317:15|176:96,1,280
256,240,204294,5,0
304,160,204639,1,2
256,80,204984,1,0
256,80,205156,1,0
256,192,205501,1,0
256,288,205846,1,4
176,176,206880,5,0
208,160,207053,1,0
240,160,207225,1,0
272,176,207398,1,0
256,272,207742,1,0
256,272,207915,2,2,B|336:304|400:240,2,140
160,304,208949,5,0
160,304,209121,5,0
112,224,209467,5,0
96,144,209811,1,0
144,80,210156,1,0
224,80,210501,1,0
224,80,210673,1,0
304,112,211018,1,0
384,144,211363,2,4,B|384:284|224:272,1,210
208,272,212053,1,0
112,272,212398,1,2
112,176,212742,2,4,B|64:128|191:36|320:64,1,280
256,160,213777,1,0
256,160,213949,1,0
256,160,214122,2,4,B|256:304,2,140
256,272,215329,5,0
336,224,215673,1,0
256,176,216018,1,0
256,176,216191,1,0
176,224,216536,1,2
256,272,216880,1,4
192,192,217915,5,0
208,160,218087,1,0
224,128,218260,1,0
240,96,218432,1,0
272,176,218777,1,0
272,176,218949,1,2
320,256,219294,1,0
224,256,219639,1,6
304,144,220501,5,0
208,144,220846,1,0
256,224,221191,1,0
352,224,221536,1,0
352,224,221708,1,0
304,304,222053,1,0
256,224,222398,1,0
256,96,222915,1,0
192,48,223260,1,2
144,112,223604,1,0
208,160,223949,1,6
256,288,224467,5,0
256,288,224811,5,0
256,288,225156,5,4
256,192,225673,12,0,227915
256,48,229122,5,0
160,96,229467,1,4
256,128,229811,1,0
256,128,229984,1,4
352,160,230329,1,4
256,208,230673,1,4
256,352,231536,5,0
256,208,232225,5,6
256,192,232915,12,0,237742
256,192,237742,12,0,242570
336,128,243260,1,0
304,160,243432,1,0
272,128,243605,1,0
240,160,243777,1,0
208,128,243949,1,0
176,160,244122,1,0
192,240,244467,5,0
224,240,244639,1,0
256,240,244811,1,0
288,240,244984,1,0
320,240,245156,1,0
