osu file format v11

[General]
AudioFilename: .mp3
AudioLeadIn: 0
PreviewTime: 83116
Countdown: 0
SampleSet: None
StackLeniency: 0.7
Mode: 0
LetterboxInBreaks: 1

[Editor]
Bookmarks: 118025
DistanceSpacing: 1.2
BeatDivisor: 4
GridSize: 4

[Metadata]
Title:Inishie no Zangai
TitleUnicode:古の残骸
Artist:Shoujobyou
ArtistUnicode:少女病
Creator:Takos
Version:Insane
Source:
Tags:黎明ローレライ はいてない
BeatmapID:210080
BeatmapSetID:73827

[Difficulty]
HPDrainRate:6
CircleSize:4
OverallDifficulty:7
ApproachRate:9
SliderMultiplier:1.8
SliderTickRate:1

[Events]
//Background and Video events
0,0,"Shoujobyou - Inishie no Zangai (Takos).jpg"
//Break Periods
//Storyboard Layer 0 (Background)
//Storyboard Layer 1 (Fail)
//Storyboard Layer 2 (Pass)
//Storyboard Layer 3 (Foreground)
//Storyboard Sound Samples
//Background Colour Transformations
3,100,0,0,0

[TimingPoints]
35116,272.727272727273,4,2,1,60,1,0
71729,-100,4,1,1,60,0,0
80525,-133.333333333333,4,1,1,60,0,0
81275,-100,4,1,1,60,0,0
81684,-80,4,1,1,60,0,0
82093,-100,4,1,1,60,0,0
83116,-100,4,1,1,60,0,1
100570,-100,4,2,1,60,0,0
146388,-100,4,2,1,60,0,1
172570,-100,4,2,1,60,0,0

[Colours]
Combo1 : 255,255,0
Combo2 : 255,0,0
Combo3 : 0,0,255

[HitObjects]
256,192,35116,1,2,0:0:0
256,192,35388,1,2,0:0:0
256,192,35661,1,2,0:0:0
256,192,35934,1,2,0:0:0
432,150,36206,6,0,B|466:247|389:312,1,180,2|0,0:0|0:0,0:0:0
79,233,36616,2,0,B|45:136|122:71,1,180,2|0,0:0|0:0,0:0:0
202,29,37025,1,0,0:0:0
228,115,37161,2,0,B|321:122,1,90,4|0,0:0|0:0,0:0:0
360,201,37434,2,0,B|407:179|415:133,1,90,0|8,0:0|0:0,0:0:0
424,45,37706,1,0,0:0:0
483,215,37843,2,0,B|487:127,1,90,2|0,0:0|0:0,0:0:0
478,304,38116,2,0,B|483:214,1,90,8|0,0:0|0:0,0:0:0
394,326,38388,5,0,0:0:0
304,339,38525,2,0,B|258:354|216:329,2,90,0|8|0,0:0|0:0|0:0,0:0:0
367,169,38934,2,0,B|339:255,1,90,2|0,0:0|0:0,0:0:0
395,84,39206,2,0,B|367:169,1,90,10|0,0:0|0:0,0:0:0
304,54,39479,5,0,0:0:0
213,57,39616,2,0,B|215:104|256:133,2,90,0|8|0,0:0|0:0|0:0,0:0:0
151,142,40025,2,0,B|123:106|122:59,1,90,2|0,0:0|0:0,0:0:0
213,204,40297,2,0,B|172:183|151:142,1,90,8|0,0:0|0:0,0:0:0
303,238,40570,5,0,0:0:0
376,172,40706,2,0,B|409:208|402:258,2,90,0|8|0,0:0|0:0|0:0,0:0:0
280,141,41116,2,0,B|294:94|338:76,1,90,2|0,0:0|0:0,0:0:0
291,226,41388,2,0,B|265:185|280:140,1,90,10|0,0:0|0:0,0:0:0
373,293,41661,5,0,0:0:0
280,328,41797,2,0,B|196:357,2,90,0|8|0,0:0|0:0|0:0,0:0:0
129,213,42206,2,0,B|205:262,1,90,2|0,0:0|0:0,0:0:0
53,164,42479,2,0,B|129:213,1,90,8|0,0:0|0:0,0:0:0
113,71,42752,5,0,0:0:0
210,53,42888,2,0,B|299:39,2,90,0|8|0,0:0|0:0|0:0,0:0:0
262,133,43297,2,0,B|173:147,1,90,2|0,0:0|0:0,0:0:0
351,120,43570,2,2,B|262:133,1,90,10|2,0:0|0:0,0:0:0
441,164,43843,5,0,0:0:0
477,255,43979,2,0,B|455:297|465:344,2,90,0|8|0,0:0|0:0|0:0,0:0:0
486,156,44388,1,2,0:0:0
426,76,44525,1,0,0:0:0
327,66,44661,1,10,0:0:0
247,125,44797,1,0,0:0:0
243,224,44934,5,2,0:0:0
192,308,45070,1,0,0:0:0
93,313,45206,1,10,0:0:0
28,237,45343,1,0,0:0:0
133,87,45479,2,0,B|63:144,1,90,2|0,0:0|0:0,0:0:0
220,109,45752,2,0,B|133:87,1,90,10|4,0:0|0:0,0:0:0
458,185,46161,6,0,B|487:146|476:95,2,90,0|8|0,0:0|0:0|0:0,0:0:0
396,263,46570,1,2,0:0:0
298,248,46706,1,0,0:0:0
252,159,46843,1,8,0:0:0
190,81,46979,1,0,0:0:0
91,92,47116,1,0,0:0:0
33,172,47252,6,0,B|17:216|38:264,2,90,0|8|0,0:0|0:0|0:0,0:0:0
158,47,47661,2,0,B|177:90|161:134,1,90,2|0,0:0|0:0,0:0:0
354,337,47934,2,0,B|334:293|350:249,1,90,10|0,0:0|0:0,0:0:0
372,153,48206,5,0,0:0:0
433,75,48343,2,0,B|521:51,2,90,0|8|0,0:0|0:0|0:0,0:0:0
303,36,48752,1,2,0:0:0
291,170,48888,1,0,0:0:0
164,120,49025,1,8,0:0:0
154,254,49161,1,0,0:0:0
28,205,49297,1,0,0:0:0
20,340,49434,6,0,B|101:289,2,90,0|8|0,0:0|0:0|0:0,0:0:0
153,254,49843,6,0,B|180:343,1,90,2|0,0:0|0:0,0:0:0
343,52,50116,2,0,B|370:141,1,90,10|0,0:0|0:0,0:0:0
429,215,50388,5,0,0:0:0
457,119,50525,2,0,B|480:34,2,90,0|8|0,0:0|0:0|0:0,0:0:0
428,216,50934,1,2,0:0:0
344,269,51070,1,0,0:0:0
290,186,51207,1,8,0:0:0
372,132,51343,1,0,0:0:0
429,215,51479,5,0,0:0:0
321,48,51616,1,0,0:0:0
158,158,51752,1,8,0:0:0
266,325,51889,1,0,0:0:0
290,186,52025,5,2,0:0:0
182,19,52162,1,0,0:0:0
19,129,52298,1,12,0:0:0
127,296,52435,1,4,0:0:0
460,198,52706,5,2,0:0:0
340,29,52842,1,8,0:0:0
460,198,52979,1,4,0:0:0
114,45,53388,1,2,0:0:0
77,175,53525,5,0,0:0:0
100,187,53661,1,0,0:0:0
124,197,53797,1,0,0:0:0
149,207,53934,1,0,0:0:0
174,217,54070,1,0,0:0:0
199,227,54206,1,0,0:0:0
224,237,54343,1,0,0:0:0
249,247,54479,1,0,0:0:0
274,257,54616,1,0,0:0:0
298,269,54752,6,0,B|349:277|368:321|368:321|349:277|371:236,1,180,0|8,0:0|0:0,0:0:0
424,163,55161,1,0,0:0:0
412,73,55297,2,0,B|378:39|329:45,1,90
245,75,55570,1,8,0:0:0
160,45,55706,1,0,0:0:0
70,55,55843,2,0,B|77:97|100:131|136:144|177:134|177:134|185:164,1,180,0|8,0:0|0:0,0:0:0
184,161,56252,1,0,0:0:0
161,248,56388,5,0,0:0:0
161,248,56456,1,0,0:0:0
161,248,56525,1,0,0:0:0
166,337,56661,1,8,0:0:0
253,355,56797,1,0,0:0:0
339,329,56934,6,0,B|371:292|358:245,1,90
307,172,57206,1,8,0:0:0
307,172,57343,1,0,0:0:0
459,220,57479,6,0,B|442:174|395:163,1,90
307,172,57752,1,8,0:0:0
307,172,57888,1,0,0:0:0
424,64,58025,6,0,B|376:55|343:91,1,90
307,172,58298,1,8,0:0:0
307,172,58434,1,0,0:0:0
227,63,58570,1,0,0:0:0
227,63,58706,1,0,0:0:0
171,186,58843,1,8,0:0:0
171,186,58979,1,0,0:0:0
156,275,59116,6,0,B|179:348|205:348,1,90
91,206,59388,2,0,B|68:133|42:133,1,90,8|0,0:0|0:0,0:0:0
230,212,59661,2,0,B|253:285|279:285,1,90
165,143,59933,2,0,B|142:70|116:70,1,90,8|0,0:0|0:0,0:0:0
306,152,60206,6,0,B|378:80|471:115,1,180,0|8,0:0|0:0,0:0:0
299,168,60616,1,0,0:0:0
206,232,60752,2,0,B|134:304|41:269,1,180,0|8,0:0|0:0,0:0:0
213,216,61162,1,0,0:0:0
212,126,61297,6,0,B|199:38,1,90
297,141,61570,2,0,B|284:53,1,90,8|0,0:0|0:0,0:0:0
384,154,61843,2,0,B|371:66,1,90
469,169,62116,2,0,B|456:81,1,90,8|0,0:0|0:0,0:0:0
483,257,62388,6,0,B|440:237|394:246,1,90
312,282,62661,1,8,0:0:0
312,282,62729,1,0,0:0:0
312,282,62797,1,0,0:0:0
231,322,62934,2,0,B|185:331|142:311,1,90
117,225,63206,1,8,0:0:0
68,324,63343,1,0,0:0:0
187,247,63479,6,0,B|209:202|192:159,1,90
155,77,63752,1,8,0:0:0
71,44,63888,1,0,0:0:0
39,157,64025,2,0,B|84:179|127:162,1,90
209,125,64298,1,8,0:0:0
242,42,64434,1,0,0:0:0
320,84,64570,6,0,B|411:92|410:92,1,90
443,175,64843,2,0,B|451:224|424:260,1,90,8|0,0:0|0:0,0:0:0
334,247,65116,2,0,B|245:262,1,90
85,332,65388,2,0,B|174:317,1,90,8|0,0:0|0:0,0:0:0
46,250,65661,6,0,B|15:214|11:168,1,90
6,78,65934,1,8,0:0:0
6,78,66070,1,0,0:0:0
118,217,66206,2,0,B|98:175|106:129,1,90
123,39,66479,1,8,0:0:0
123,39,66615,1,0,0:0:0
192,97,66752,5,0,0:0:0
269,51,66888,1,0,0:0:0
359,56,67025,1,8,0:0:0
428,112,67161,1,0,0:0:0
459,195,67297,1,0,0:0:0
422,277,67434,1,0,0:0:0
335,302,67570,1,8,0:0:0
249,277,67706,1,0,0:0:0
207,207,67843,6,0,B|201:163|201:163|154:124|189:68|189:68|194:106,1,180,0|8,0:0|0:0,0:0:0
272,140,68252,1,0,0:0:0
301,224,68388,2,0,B|351:231|386:202,1,90
435,127,68661,1,8,0:0:0
435,127,68729,1,0,0:0:0
435,127,68797,1,0,0:0:0
464,212,68934,6,0,B|498:296,1,90,0|0,0:0|0:0,0:0:0
417,358,69206,2,0,B|383:274,1,90,8|0,0:0|0:0,0:0:0
378,184,69479,2,0,B|360:137|314:127,1,90,0|0,0:0|0:0,0:0:0
233,199,69752,1,8,0:0:0
130,166,69888,5,0,0:0:0
130,166,69956,1,0,0:0:0
130,166,70025,2,0,B|44:196,2,90,2|0|8,0:0|0:0|0:0,0:0:0
339,112,70570,2,0,B|366:27,2,90,2|0|8,0:0|0:0|0:0,0:0:0
353,219,70979,2,0,B|413:284,2,90,2|0|0,0:0|0:0|0:0,0:0:0
254,174,71388,2,0,B|166:193,2,90,10|0|0,0:0|0:0|0:0,0:0:0
339,112,71797,5,0,0:0:0
353,219,71934,1,8,0:0:0
254,174,72070,1,0,0:0:0
146,166,72206,2,0,B|112:199|119:248,1,90
190,330,72479,2,0,B|224:297|217:248,1,90,8|0,0:0|0:0,0:0:0
197,129,72752,1,0,0:0:0
272,52,72888,1,0,0:0:0
165,70,73025,1,8,0:0:0
262,116,73161,1,0,0:0:0
209,21,73297,6,0,B|164:2|121:17,1,90
69,112,73570,1,8,0:0:0
69,112,73638,1,0,0:0:0
69,112,73706,1,0,0:0:0
40,216,73843,2,0,B|54:303,1,90
156,341,74116,1,8,0:0:0
222,256,74252,1,0,0:0:0
146,179,74388,6,0,B|69:108|109:14,1,180,0|8,0:0|0:0,0:0:0
275,108,74797,2,0,B|352:179|312:273,1,180
227,337,75206,2,0,B|137:343,1,90,8|0,0:0|0:0,0:0:0
76,252,75479,5,0,0:0:0
76,252,75616,1,0,0:0:0
123,155,75752,1,8,0:0:0
123,155,75888,1,0,0:0:0
228,181,76025,1,0,0:0:0
228,181,76161,1,0,0:0:0
280,87,76297,1,8,0:0:0
280,87,76434,1,0,0:0:0
384,113,76570,6,0,B|409:152|459:157,1,90
471,49,76843,1,8,0:0:0
384,113,76979,1,0,0:0:0
292,55,77116,1,0,0:0:0
195,103,77252,1,0,0:0:0
155,203,77388,1,8,0:0:0
154,225,77456,1,0,0:0:0
159,247,77525,1,0,0:0:0
168,267,77593,1,0,0:0:0
182,284,77661,6,0,B|248:353|349:308,1,180,0|8,0:0|0:0,0:0:0
292,137,78070,1,0,0:0:0
361,261,78206,2,0,B|260:306|194:237,1,180,0|8,0:0|0:0,0:0:0
304,90,78615,1,2,0:0:0
164,151,78888,5,0,0:0:0
164,151,79025,1,2,0:0:0
402,71,79297,1,0,0:0:0
402,71,79434,1,0,0:0:0
402,71,79570,1,10,0:0:0
356,338,79843,1,0,0:0:0
356,338,79979,1,0,0:0:0
356,338,80116,1,10,0:0:0
256,192,80388,1,0,0:0:0
281,33,80661,6,0,B|244:95,1,67.5000025749208,0|0,0:0|0:0,0:0:0
149,126,80934,6,0,B|181:196|258:191,1,135.000005149842,2|8,0:0|0:0,0:0:0
95,178,81343,6,0,B|137:270|239:265,1,180,2|0,0:0|0:0,0:0:0
43,226,81752,6,0,B|95:341|223:334,1,225,10|0,0:0|0:0,0:0:0
327,306,82161,1,0,0:0:0
402,228,82297,1,2,0:0:0
426,122,82434,1,2,0:0:0
398,17,82570,1,0,0:0:0
398,17,82706,1,0,0:0:0
278,36,82843,5,0,0:0:0
278,36,82911,1,0,0:0:0
278,36,82979,1,0,0:0:0
278,36,83047,1,0,0:0:0
278,36,83116,2,0,B|309:72|299:120,1,90,4|0,0:0|0:0,0:0:0
195,284,83388,2,0,B|259:220,1,90,8|0,0:0|0:0,0:0:0
423,271,83661,2,0,B|410:224|366:207,1,90,4|0,0:0|0:0,0:0:0
259,220,83934,1,8,0:0:0
192,135,84070,1,0,0:0:0
84,142,84206,6,0,B|68:98|70:51,2,90,0|0|8,0:0|0:0|0:0,0:0:0
158,222,84616,2,0,B|174:266|172:313,2,90
443,43,85161,6,0,B|471:83|460:131,1,90,4|0,0:0|0:0,0:0:0
434,234,85434,1,0,0:0:0
353,306,85570,1,8,0:0:0
247,284,85706,2,0,B|203:260|160:279,1,90,0|0,0:0|0:0,0:0:0
62,325,85979,1,0,0:0:0
77,217,86116,2,0,B|71:124,2,90,8|0|0,0:0|0:0|0:0,0:0:0
171,162,86525,5,0,0:0:0
171,162,86593,1,0,0:0:0
171,162,86661,2,0,B|238:88,1,90,8|0,0:0|0:0,0:0:0
332,54,86934,2,0,B|380:50|411:87,1,90,0|0,0:0|0:0,0:0:0
438,191,87206,1,8,0:0:0
351,256,87343,1,0,0:0:0
279,175,87479,5,0,0:0:0
331,80,87616,1,0,0:0:0
426,129,87752,1,8,0:0:0
404,234,87888,2,0,B|383:328,1,90
286,368,88161,1,0,0:0:0
190,319,88297,1,8,0:0:0
91,365,88434,1,0,0:0:0
15,288,88570,5,0,0:0:0
36,182,88706,1,0,0:0:0
48,157,88775,1,0,0:0:0
67,138,88843,1,0,0:0:0
169,105,88979,1,0,0:0:0
260,163,89116,2,0,B|310:157|331:114,1,90
353,9,89388,1,8,0:0:0
430,84,89525,6,0,B|451:171,1,90,2|0,0:0|0:0,0:0:0
443,278,89797,1,0,0:0:0
344,324,89934,1,10,0:0:0
267,248,90070,2,0,B|246:161,1,90,0|0,0:0|0:0,0:0:0
148,112,90343,1,2,0:0:0
49,158,90479,2,0,B|22:197|34:246,1,90,8|0,0:0|0:0,0:0:0
95,332,90752,5,2,0:0:0
108,198,90888,1,0,0:0:0
133,331,91025,1,10,0:0:0
146,197,91161,1,0,0:0:0
172,328,91297,1,2,0:0:0
185,194,91433,1,0,0:0:0
212,326,91570,5,10,0:0:0
237,318,91638,1,0,0:0:0
262,308,91706,1,0,0:0:0
284,293,91775,1,0,0:0:0
306,278,91843,2,0,B|342:246|349:200,1,90
346,92,92116,1,8,0:0:0
250,42,92252,2,0,B|226:12|226:12|203:48|162:47,1,90
78,34,92525,1,0,0:0:0
32,131,92661,1,8,0:0:0
25,157,92729,1,0,0:0:0
34,182,92797,1,0,0:0:0
85,277,92934,2,0,B|129:287|173:274,1,90
266,304,93206,5,8,0:0:0
173,177,93343,1,0,0:0:0
323,226,93479,1,0,0:0:0
173,274,93616,1,0,0:0:0
266,147,93753,1,8,0:0:0
241,226,93888,6,0,B|221:272|266:304,1,90
266,147,94161,2,0,B|286:101|241:69,1,90,0|8,0:0|0:0,0:0:0
323,226,94434,2,0,B|303:272|348:304,2,90
362,105,94843,1,8,0:0:0
241,69,94979,1,4,0:0:0
94,228,95252,5,0,0:0:0
79,334,95388,2,0,B|127:343|163:309,1,90,8|0,0:0|0:0,0:0:0
194,206,95661,2,0,B|172:119,1,90
278,137,95934,2,0,B|313:103|361:112,1,90,8|0,0:3|0:3,0:3:0
464,141,96206,6,0,B|486:228,2,90,0|0|8,0:0|0:0|0:0,0:0:0
384,216,96616,2,0,B|349:250|301:241,1,90,0|0,0:3|0:3,0:3:0
211,181,96888,1,0,0:0:0
103,163,97025,2,0,B|70:197|70:244,1,90,8|0,0:0|0:0,0:0:0
129,334,97297,2,0,B|162:300|162:250,1,90
102,163,97570,1,8,0:0:0
141,61,97706,1,0,0:0:0
244,29,97843,1,0,0:0:0
335,90,97979,1,0,0:0:0
343,198,98116,1,0,0:0:0
314,247,98184,1,0,0:0:0
264,272,98252,1,0,0:0:0
156,257,98388,5,0,0:0:0
156,257,98525,1,0,0:0:0
64,200,98661,2,8,B|48:156|60:112,1,90,8|0,0:0|0:0,0:0:0
168,104,98934,1,0,0:0:0
168,104,99071,1,0,0:0:0
263,53,99207,2,0,B|309:61|341:93,1,90,8|0,0:0|0:0,0:0:0
398,185,99479,6,0,B|366:272,1,90
262,298,99752,1,8,0:0:0
335,376,99888,2,0,B|425:365,1,90
286,198,100161,2,0,B|196:187,1,90,0|8,0:0|0:0,0:0:0
249,92,100434,1,0,0:0:0
354,115,100570,1,4,0:0:0
256,192,100638,12,4,102616,0:0:0
