osu file format v14

[General]
AudioFilename: 46+-+Together+with+Shauna.mp3
AudioLeadIn: 0
PreviewTime: 501
Countdown: 0
SampleSet: Soft
StackLeniency: 0.7
Mode: 3
LetterboxInBreaks: 0
SpecialStyle: 0
WidescreenStoryboard: 0

[Editor]
DistanceSpacing: 1.5
BeatDivisor: 16
GridSize: 4
TimelineZoom: 2.2

[Metadata]
Title:Together with Shauna
TitleUnicode:サナと
Artist:Shota Kageyama
ArtistUnicode:景山将太
Creator:-Kamikaze-
Version:Firework
Source:ポケットモンスター X・Y
Tags:ンテンドー3DS スーパーミュージックコレクション Pokémon X & Y: Super Music Collection piano keysound Julie iJinJin GAME FREAK
BeatmapID:689928
BeatmapSetID:308529

[Difficulty]
HPDrainRate:8
CircleSize:9
OverallDifficulty:9
ApproachRate:5
SliderMultiplier:1.4
SliderTickRate:1

[Events]
//Background and Video events
0,0,"pixelswoops.png",0,0
//Break Periods
//Storyboard Layer 0 (Background)
//Storyboard Layer 1 (Fail)
//Storyboard Layer 2 (Pass)
//Storyboard Layer 3 (Foreground)
//Storyboard Sound Samples

[TimingPoints]
207,588.235294117647,4,2,0,30,1,0
1089,588.235294117647,4,2,0,30,1,0

[Colours]
Combo1 : 255,255,0
Combo2 : 255,255,255

[HitObjects]
199,192,501,5,0,0:0:0:70:A#5S_Bb5S.wav
256,192,795,1,0,0:0:0:70:C6S_s.wav
85,192,1052,1,0,0:0:0:70:A#4S_Bb4S_s.wav
199,192,1089,1,0,0:0:0:70:F5S.wav
312,192,1125,1,0,0:0:0:70:A#5S_Bb5S.wav
426,192,1162,1,0,0:0:0:70:D6S.wav
369,192,1677,1,0,0:0:0:70:D6S_s.wav
199,192,1971,1,0,0:0:0:70:G5S_s.wav
256,192,1971,1,0,0:0:0:70:D6S_s.wav
426,192,1971,1,0,0:0:0:70:D#6S_Eb6S_s.wav
85,192,2265,1,0,0:0:0:70:C5S_s.wav
483,192,2853,1,0,0:0:0:70:G6S_s.wav
426,192,3147,1,0,0:0:0:70:F6S_s.wav
312,192,3147,1,0,0:0:0:70:C6S_s.wav
199,192,3147,1,0,0:0:0:70:A5S_s.wav
142,192,3441,1,0,0:0:0:70:D5S.wav
312,192,5206,1,0,0:0:0:70:G6S_s.wav
369,192,5500,1,0,0:0:0:70:A6S_s.wav
426,192,5794,1,0,0:0:0:70:A#6S_Bb6S.wav
256,192,5794,1,0,0:0:0:70:D6S_s.wav
85,192,5794,1,0,0:0:0:70:G5S.wav
199,192,6383,1,0,0:0:0:70:D6S_s.wav
426,192,6383,1,0,0:0:0:70:A#6S_Bb6S_s.wav
199,192,6677,1,0,0:0:0:70:D6S_s.wav
369,192,6677,1,0,0:0:0:70:A6S_s.wav
85,192,6971,1,0,0:0:0:70:F5S.wav
483,192,7559,1,0,0:0:0:70:D7S_s.wav
199,192,7853,1,0,0:0:0:70:D6S_s.wav
312,192,7853,1,0,0:0:0:70:G6S_s.wav
256,192,8147,1,0,0:0:0:70:A#5S_Bb5S.wav
28,192,8147,1,0,0:0:0:70:D#5S_Eb5S.wav
312,192,9912,1,0,0:0:0:70:G6S_s.wav
369,192,10206,1,0,0:0:0:70:A6S_s.wav
85,192,10463,1,0,0:0:0:70:G4S_s.wav
199,192,10500,1,0,0:0:0:70:G5S_s.wav
312,192,10537,1,0,0:0:0:70:D6S_s.wav
426,192,10574,1,0,0:0:0:70:A#6S_Bb6S_s.wav
142,192,10794,1,0,0:0:0:70:D5S_s.wav
483,192,11088,1,0,0:0:0:70:A#6S_Bb6S_s.wav
312,192,11088,1,0,0:0:0:70:D7S_s.wav
199,192,11088,1,0,0:0:0:70:G5S_s.wav
256,192,11383,1,0,0:0:0:70:D6S_s.wav
426,192,11383,1,0,0:0:0:70:A6S_s.wav
199,192,11383,1,0,0:0:0:70:G5S_s.wav
28,192,11677,1,0,0:0:0:70:F4S_s.wav
85,192,11971,1,0,0:0:0:70:D5S_s.wav
142,192,12265,1,0,0:0:0:70:F5S_s.wav
256,192,12265,1,0,0:0:0:70:D6S_s.wav
369,192,12265,1,0,0:0:0:70:A6S_s.wav
426,192,12559,1,0,0:0:0:70:G6S_s.wav
28,192,12853,1,0,0:0:0:70:D#4S_Eb4S_s.wav
85,192,13147,1,0,0:0:0:70:A#4S_Bb4S_s.wav
199,192,13147,1,0,0:0:0:70:A#5S_Bb5S_s.wav
426,192,13441,1,0,0:0:0:70:G6S_s.wav
369,192,13736,1,0,0:0:0:70:F6S_s.wav
199,192,13736,1,0,0:0:0:70:A#5S_Bb5S_s.wav
85,192,14030,1,0,0:0:0:70:D4S_s.wav
142,192,14324,1,0,0:0:0:70:A#4S_Bb4S_s.wav
199,192,14618,1,0,0:0:0:70:D5S.wav
312,192,14912,1,0,0:0:0:70:D6S_s.wav
426,192,15206,1,0,0:0:0:70:D#6S_Eb6S.wav
256,192,15206,1,0,0:0:0:70:C6S.wav
28,192,15206,1,0,0:0:0:70:C4S_s.wav
85,192,15500,1,0,0:0:0:70:C4S_s.wav
142,192,15794,1,0,0:0:0:70:C5S_s.wav
256,192,16088,1,0,0:0:0:70:G5S.wav
426,192,16088,1,0,0:0:0:70:D#6S_Eb6S.wav
369,192,16677,1,0,0:0:0:70:D6S_s.wav
256,192,16971,1,0,0:0:0:70:A#5S_Bb5S_s.wav
312,192,17265,1,0,0:0:0:70:F5S_s.wav
369,192,17265,1,0,0:0:0:70:C6S_s.wav
142,192,17265,1,0,0:0:0:70:C5S_s.wav
28,192,17559,1,0,0:0:0:70:F4S_s.wav
85,192,17853,1,0,0:0:0:70:C5S_s.wav
142,192,18147,1,0,0:0:0:70:F5S_s.wav
369,192,18441,1,0,0:0:0:70:C6S_s.wav
256,192,18736,1,0,0:0:0:70:A5S.wav
312,192,19324,1,0,0:0:0:70:A#5S_Bb5S_s.wav
369,192,19618,1,0,0:0:0:70:C6S_s.wav
85,192,19875,1,0,0:0:0:70:A#4S_Bb4S.wav
199,192,19912,1,0,0:0:0:70:F5S.wav
312,192,19949,1,0,0:0:0:70:A#5S_Bb5S.wav
426,192,19986,1,0,0:0:0:70:D6S.wav
369,192,20500,1,0,0:0:0:70:D6S_s.wav
426,192,20794,1,0,0:0:0:70:D#6S_Eb6S_s.wav
199,192,20794,1,0,0:0:0:70:G5S_s.wav
142,192,21088,1,0,0:0:0:70:C5S.wav
483,192,21677,1,0,0:0:0:70:G6S_s.wav
312,192,21971,1,0,0:0:0:70:C6S_s.wav
426,192,21971,1,0,0:0:0:70:F6S_s.wav
199,192,21971,1,0,0:0:0:70:A5S_s.wav
256,192,22265,1,0,0:0:0:70:D5S.wav
369,192,24030,1,0,0:0:0:70:G6S_s.wav
426,192,24324,1,0,0:0:0:70:A6S_s.wav
142,192,24618,1,0,0:0:0:70:G5S.wav
483,192,24618,1,0,0:0:0:70:A#6S_Bb6S_s.wav
256,192,24618,1,0,0:0:0:70:D6S_s.wav
199,192,25206,1,0,0:0:0:70:D6S_s.wav
483,192,25206,1,0,0:0:0:70:A#6S_Bb6S_s.wav
199,192,25500,1,0,0:0:0:70:D6S_s.wav
426,192,25500,1,0,0:0:0:70:A6S_s.wav
85,192,25794,1,0,0:0:0:70:F5S.wav
483,192,26383,1,0,0:0:0:70:D7S_s.wav
369,192,26677,1,0,0:0:0:70:G6S_s.wav
199,192,26677,1,0,0:0:0:70:D6S_s.wav
312,192,26971,1,0,0:0:0:70:A#5S_Bb5S.wav
85,192,26971,1,0,0:0:0:70:D#5S_Eb5S.wav
369,192,28736,1,0,0:0:0:70:G6S_s.wav
426,192,29030,1,0,0:0:0:70:A6S_s.wav
28,192,29287,1,0,0:0:0:70:G4S_s.wav
199,192,29324,1,0,0:0:0:70:G5S_s.wav
312,192,29361,1,0,0:0:0:70:D6S_s.wav
483,192,29397,1,0,0:0:0:70:A#6S_Bb6S_s.wav
142,192,29618,1,0,0:0:0:70:D5S_s.wav
483,192,29912,1,0,0:0:0:70:A#6S_Bb6S_s.wav
199,192,29912,1,0,0:0:0:70:G5S_s.wav
256,192,29912,1,0,0:0:0:70:D6S_s.wav
142,192,30206,1,0,0:0:0:70:G5S_s.wav
426,192,30206,1,0,0:0:0:70:A6S_s.wav
199,192,30206,1,0,0:0:0:70:D6S_s.wav
28,192,30500,1,0,0:0:0:70:F4S_s.wav
142,192,30794,1,0,0:0:0:70:D5S_s.wav
199,192,31088,1,0,0:0:0:70:D6S_s.wav
369,192,31088,1,0,0:0:0:70:A6S_s.wav
85,192,31088,1,0,0:0:0:70:F5S_s.wav
426,192,31383,1,0,0:0:0:70:G6S_s.wav
28,192,31677,1,0,0:0:0:70:D#4S_Eb4S_s.wav
142,192,31971,1,0,0:0:0:70:A#4S_Bb4S_s.wav
256,192,31971,1,0,0:0:0:70:A#5S_Bb5S_s.wav
426,192,32265,1,0,0:0:0:70:G6S_s.wav
369,192,32559,1,0,0:0:0:70:F6S_s.wav
256,192,32559,1,0,0:0:0:70:A5S_s.wav
28,192,32853,1,0,0:0:0:70:D6S_s.wav
85,192,33147,1,0,0:0:0:70:A#4S_Bb4S_s.wav
142,192,33441,1,0,0:0:0:70:D5S.wav
312,192,33736,1,0,0:0:0:70:D6S_s.wav
426,192,34030,1,0,0:0:0:70:D#6S_Eb6S_s.wav
199,192,34030,1,0,0:0:0:70:C6S_s.wav
28,192,34030,1,0,0:0:0:70:C4S_s.wav
85,192,34324,1,0,0:0:0:70:G4S_s.wav
142,192,34618,1,0,0:0:0:70:G5S_s.wav
199,192,34912,1,0,0:0:0:70:G5S.wav
426,192,34912,1,0,0:0:0:70:D#6S_Eb6S.wav
312,192,35500,1,0,0:0:0:70:D6S_s.wav
256,192,35794,1,0,0:0:0:70:A#5S_Bb5S_s.wav
369,192,36088,1,0,0:0:0:70:C6S_s.wav
312,192,36088,1,0,0:0:0:70:F5S_s.wav
142,192,36088,1,0,0:0:0:70:C5S_s.wav
28,192,36383,1,0,0:0:0:70:F4S_s.wav
85,192,36677,1,0,0:0:0:70:C5S_s.wav
142,192,36971,1,0,0:0:0:70:F5S_s.wav
369,192,37265,1,0,0:0:0:70:C6S_s.wav
256,192,37559,1,0,0:0:0:70:A5S.wav
312,192,38147,1,0,0:0:0:70:A#5S_Bb5S_s.wav
369,192,38441,1,0,0:0:0:70:C6S_s.wav
85,192,38699,1,0,0:0:0:70:A#4S_Bb4S.wav
199,192,38736,1,0,0:0:0:70:F5S.wav
312,192,38772,1,0,0:0:0:70:A#5S_Bb5S.wav
426,192,38809,1,0,0:0:0:70:D6S.wav
369,192,39324,1,0,0:0:0:70:D6S_s.wav
199,192,39618,1,0,0:0:0:70:G5S_s.wav
426,192,39618,1,0,0:0:0:70:D#6S_Eb6S_s.wav
142,192,39912,1,0,0:0:0:70:C5S.wav
483,192,40500,1,0,0:0:0:70:G6S_s.wav
426,192,40794,1,0,0:0:0:70:F6S_s.wav
312,192,40794,1,0,0:0:0:70:C6S_s.wav
199,192,40794,1,0,0:0:0:70:A5S_s.wav
142,192,41088,1,0,0:0:0:70:D5S.wav
369,192,42853,1,0,0:0:0:70:G6S_s.wav
426,192,43147,1,0,0:0:0:70:A6S_s.wav
199,192,43441,1,0,0:0:0:60:G5S.wav
312,192,43441,1,0,0:0:0:60:D6S_s.wav
483,192,43441,1,0,0:0:0:60:A#6S_Bb6S.wav
312,192,44030,1,0,0:0:0:50:D6S_s.wav
483,192,44030,1,0,0:0:0:50:A#6S_Bb6S_s.wav
256,192,44324,1,0,0:0:0:40:A6S_s.wav
426,192,44324,1,0,0:0:0:40:A6S_s.wav
142,192,44618,1,0,0:0:0:15:F5S.wav
483,192,45206,1,0,0:0:0:20:D7S_s.wav
199,192,45500,1,0,0:0:0:10:D6S_s.wav
312,192,45500,1,0,0:0:0:10:G6S_s.wav
