osu file format v14

[General]
AudioFilename: 2-09-bicycle.mp3
AudioLeadIn: 0
PreviewTime: 542
Countdown: 0
SampleSet: Soft
StackLeniency: 0.7
Mode: 0
LetterboxInBreaks: 0
WidescreenStoryboard: 0

[Editor]
Bookmarks: 40225
DistanceSpacing: 1.1
BeatDivisor: 4
GridSize: 4
TimelineZoom: 1.5

[Metadata]
Title:Jitensha
TitleUnicode:じてんしゃ
Artist:Shota Kageyama
ArtistUnicode:景山将太
Creator:mancuso_JM_
Version:Normal
Source:ポケットモンスター X・Y
Tags:nintendo game freak 3DS bicycle Pokémon Pokemon x/y x.y bike biking theme mancusojuanmattos
BeatmapID:1084695
BeatmapSetID:510156

[Difficulty]
HPDrainRate:4
CircleSize:3.5
OverallDifficulty:4
ApproachRate:5
SliderMultiplier:1.4
SliderTickRate:2

[Events]
//Background and Video events
0,0,"Legendary-Pokemon-X-and-Y.jpg",0,0
//Break Periods
//Storyboard Layer 0 (Background)
//Storyboard Layer 1 (Fail)
//Storyboard Layer 2 (Pass)
//Storyboard Layer 3 (Foreground)
//Storyboard Sound Samples

[TimingPoints]
732,379.746835443038,4,2,1,80,1,0
2061,-100,4,2,1,55,0,0
2250,-100,4,2,1,80,0,0
14972,-100,4,2,1,55,0,0
15067,-100,4,2,1,80,0,0
26364,-100,4,2,1,55,0,0
26554,-100,4,2,1,80,0,0
27124,-100,4,2,1,55,0,0
27219,-100,4,2,1,80,0,0
36618,-100,4,2,1,55,0,0
36713,-100,4,2,1,80,0,0
40605,-100,4,2,1,60,0,0
40985,-100,4,2,1,50,0,0
41364,-100,4,2,1,30,0,0
41744,-100,4,2,1,20,0,0

[Colours]
Combo1 : 244,72,98
Combo2 : 255,157,111
Combo3 : 64,150,255

[HitObjects]
256,192,732,12,4,2061,0:0:0:0:
372,88,3200,6,0,P|378:122|382:157,2,70,2|8|0,0:0|0:0|0:0,0:0:0:0:
308,44,3769,2,0,B|276:64|256:90|256:90|236:64|204:44,1,140,4|8,0:0|0:0,0:0:0:0:
140,88,4339,2,0,P|158:155|151:224,1,140,2|2,0:0|0:0,0:0:0:0:
84,264,4909,1,8,0:0:0:0:
224,324,5288,6,0,L|362:305,1,140,2|8,0:0|0:0,0:0:0:0:
432,168,6048,2,0,L|293:186,1,140,2|8,0:0|0:0,0:0:0:0:
188,72,6807,2,0,L|326:53,2,140,4|8|2,0:0|0:0|0:0,0:0:0:0:
40,24,7947,1,8,0:0:0:0:
80,172,8326,6,0,B|72:240|112:240|104:308,1,140,4|8,0:0|0:0,0:0:0:0:
176,340,8896,2,0,P|225:290|288:260,1,140,2|2,0:0|0:0,0:0:0:0:
440,228,9656,1,8,0:3:0:0:
440,228,9845,6,0,P|402:169|345:128,1,140,4|8,0:0|0:0,0:0:0:0:
292,72,10415,2,0,B|264:40|256:13|256:13|248:40|220:72,1,140,2|0,0:0|0:0,0:0:0:0:
156,116,10985,1,8,0:0:0:0:
52,228,11364,6,0,P|91:281|156:268,1,140,2|8,0:0|0:0,0:0:0:0:
220,312,11934,2,0,B|248:344|256:371|256:371|264:344|292:312,1,140,2|0,0:0|0:0,0:0:0:0:
356,268,12504,1,8,0:0:0:0:
492,195,12883,6,0,P|499:126|480:60,1,140,2|8,0:0|0:0,0:0:0:0:
328,32,13643,2,0,P|320:101|339:167,1,140,2|8,0:0|0:0,0:0:0:0:
188,208,14402,2,0,P|159:107|176:4,1,210,2|4,0:0|0:0,0:0:0:0:
32,68,15352,2,0,P|41:101|42:136,1,70,2|8,0:0|0:0,0:0:0:0:
84,284,15921,6,0,P|150:304|217:289,1,140,4|8,0:0|0:0,0:0:0:0:
276,236,16491,2,0,P|343:220|409:241,1,140,2|2,0:0|0:0,0:0:0:0:
448,308,17061,1,8,0:0:0:0:
488,160,17440,6,0,B|497:112|497:112|480:72|480:72|489:24,1,140,2|8,0:0|0:0,0:0:0:0:
336,16,18200,2,0,B|326:63|326:63|343:103|343:103|334:151,1,140,2|8,0:0|0:0,0:0:0:0:
184,164,18959,2,0,B|193:116|193:116|176:76|176:76|186:29,1,140,4|8,0:0|0:0,0:0:0:0:
32,20,19719,2,0,B|22:67|22:67|39:107|39:107|30:155,1,140,2|8,0:0|0:0,0:0:0:0:
86,299,20478,6,0,P|154:282|217:252,1,140,4|8,0:0|0:0,0:0:0:0:
294,252,21048,2,0,P|357:282|426:299,1,140,2|2,0:0|0:0,0:0:0:0:
460,148,21807,1,8,0:3:0:0:
460,148,21997,6,0,P|417:96|352:108,1,140,4|8,0:0|0:0,0:0:0:0:
292,160,22567,2,0,B|222:145|222:181|153:161,1,140,2|0,0:0|0:0,0:0:0:0:
108,100,23137,1,8,0:0:0:0:
100,252,23516,6,0,P|151:299|183:361,1,140,2|8,0:0|0:0,0:0:0:0:
260,356,24086,2,0,L|267:216,1,140,2|0,0:0|0:0,0:0:0:0:
344,200,24656,1,8,0:0:0:0:
444,80,25035,6,0,P|400:28|334:37,1,140,4|8,0:0|0:0,0:0:0:0:
324,116,25605,2,0,B|292:124|272:155|256:59|240:155|220:124|188:116,2,140,2|2|4,0:0|0:0|0:0,0:0:0:0:
444,211,26744,6,0,P|425:241|413:274,1,70,2|8,0:0|0:0,0:0:0:0:
440,348,27124,1,4,0:0:0:0:
288,316,27504,2,0,P|276:283|257:253,2,70,2|8|8,0:0|0:0|0:3,0:0:0:0:
228,364,28073,5,4,0:0:0:0:
228,364,28453,1,8,0:0:0:0:
84,312,28833,1,2,0:0:0:0:
84,312,29213,1,8,0:0:0:0:
23,171,29592,6,0,P|49:78|146:86,1,210,2|2,0:0|0:0,0:0:0:0:
208,228,30542,2,0,B|240:248|256:278|256:278|272:248|304:228,1,140,2|0,0:0|0:0,0:0:0:0:
360,175,31111,6,0,P|368:107|345:41,2,140,4|8|2,0:0|0:0|0:0,0:0:0:0:
256,288,32250,1,8,0:0:0:0:
111,231,32630,2,0,P|92:129|118:29,1,210,2|2,0:0|0:0,0:0:0:0:
256,104,33580,2,0,B|240:148|256:173|272:200|256:241,1,140,2|8,0:0|0:3,0:0:0:0:
195,293,34149,6,0,P|256:322|317:293,1,140,4|8,0:0|0:0,0:0:0:0:
440,196,34909,1,2,0:0:0:0:
440,196,35288,1,8,0:0:0:0:
344,76,35668,6,0,P|256:27|168:76,1,210,4|2,0:0|0:0,0:0:0:0:
72,196,36618,2,0,P|54:128|18:68,2,140,4|2|8,0:0|0:0|0:3,0:0:0:0:
149,196,37567,2,0,L|199:65,2,140,8|2|8,0:0|0:0|0:0,0:0:0:0:
192,260,38516,5,4,0:0:0:0:
323,340,38896,2,0,P|345:312|358:280,2,70,2|8|4,0:0|0:0|0:0,0:0:0:0:
192,260,39656,2,0,P|170:287|157:319,1,70,2|8,0:0|0:0,0:0:0:0:
216,372,40035,1,0,0:0:0:0:
256,192,40225,12,4,41744,0:0:0:0:
