osu file format v14

[General]
AudioFilename: 2-09-bicycle.mp3
AudioLeadIn: 0
PreviewTime: 542
Countdown: 0
SampleSet: Normal
StackLeniency: 0.7
Mode: 1
LetterboxInBreaks: 0
WidescreenStoryboard: 0

[Editor]
Bookmarks: 40225
DistanceSpacing: 1
BeatDivisor: 4
GridSize: 4
TimelineZoom: 1

[Metadata]
Title:Jitensha
TitleUnicode:じてんしゃ
Artist:Shota Kageyama
ArtistUnicode:景山将太
Creator:mancuso_JM_
Version:Muzukashii
Source:ポケットモンスター X・Y
Tags:nintendo game freak 3DS bicycle Pokémon Pokemon x/y x.y bike biking theme mancusojuanmattos
BeatmapID:1084694
BeatmapSetID:510156

[Difficulty]
HPDrainRate:6
CircleSize:5
OverallDifficulty:5
ApproachRate:5
SliderMultiplier:1.4
SliderTickRate:2

[Events]
//Background and Video events
0,0,"Legendary-Pokemon-X-and-Y.jpg",0,50
//Break Periods
//Storyboard Layer 0 (Background)
//Storyboard Layer 1 (Fail)
//Storyboard Layer 2 (Pass)
//Storyboard Layer 3 (Foreground)
//Storyboard Sound Samples

[TimingPoints]
732,379.746835443038,4,1,0,85,1,0

[Colours]
Combo1 : 244,72,98
Combo2 : 255,100,255
Combo3 : 64,150,255

[HitObjects]
256,192,542,5,0,0:0:0:0:
256,192,637,1,0,0:0:0:0:
256,192,732,1,0,0:0:0:0:
256,192,1491,1,8,0:0:0:0:
256,192,1681,1,8,0:0:0:0:
256,192,1776,1,8,0:0:0:0:
256,192,1871,1,8,0:0:0:0:
256,192,2061,1,8,0:0:0:0:
256,192,2440,1,8,0:0:0:0:
256,192,2820,1,8,0:0:0:0:
256,192,3200,1,8,0:0:0:0:
256,192,3295,1,8,0:0:0:0:
256,192,3390,1,8,0:0:0:0:
256,192,3580,1,8,0:0:0:0:
256,192,3769,1,4,0:0:0:0:
256,192,4149,1,8,0:0:0:0:
256,192,4339,1,8,0:0:0:0:
256,192,4719,1,0,0:0:0:0:
256,192,4909,1,8,0:0:0:0:
256,192,5099,1,8,0:0:0:0:
256,192,5288,1,0,0:0:0:0:
256,192,5668,1,8,0:0:0:0:
256,192,5858,1,0,0:0:0:0:
256,192,6048,1,8,0:0:0:0:
256,192,6238,1,8,0:0:0:0:
256,192,6428,1,0,0:0:0:0:
256,192,6807,1,4,0:0:0:0:
256,192,7187,1,8,0:0:0:0:
256,192,7377,1,8,0:0:0:0:
256,192,7567,1,0,0:0:0:0:
256,192,7757,1,0,0:0:0:0:
256,192,7947,1,8,0:0:0:0:
256,192,8326,1,4,0:0:0:0:
256,192,8516,1,0,0:0:0:0:
256,192,8706,1,8,0:0:0:0:
256,192,8896,1,0,0:0:0:0:
256,192,9276,1,0,0:0:0:0:
256,192,9466,1,8,0:0:0:0:
256,192,9656,1,0,0:0:0:0:
256,192,9750,1,0,0:0:0:0:
256,192,9845,1,0,0:0:0:0:
256,192,10035,1,0,0:0:0:0:
256,192,10225,1,8,0:0:0:0:
256,192,10415,1,0,0:0:0:0:
256,192,10795,1,0,0:0:0:0:
256,192,10985,1,8,0:0:0:0:
256,192,11175,1,0,0:0:0:0:
256,192,11364,1,0,0:0:0:0:
256,192,11744,1,8,0:0:0:0:
256,192,11934,1,0,0:0:0:0:
256,192,12314,1,0,0:0:0:0:
256,192,12504,1,8,0:0:0:0:
256,192,12694,1,8,0:0:0:0:
256,192,12883,1,0,0:0:0:0:
256,192,13263,1,8,0:0:0:0:
256,192,13453,1,0,0:0:0:0:
256,192,13643,1,8,0:0:0:0:
256,192,13833,1,8,0:0:0:0:
256,192,14023,1,0,0:0:0:0:
256,192,14402,1,0,0:0:0:0:
256,192,14782,1,8,0:0:0:0:
256,192,14972,1,0,0:0:0:0:
256,192,15352,1,0,0:0:0:0:
256,192,15542,1,8,0:0:0:0:
256,192,15732,1,0,0:0:0:0:
256,192,15826,1,0,0:0:0:0:
256,192,15921,1,0,0:0:0:0:
256,192,16301,1,8,0:0:0:0:
256,192,16491,1,0,0:0:0:0:
256,192,16871,1,8,0:0:0:0:
256,192,17061,1,0,0:0:0:0:
256,192,17250,1,8,0:0:0:0:
256,192,17440,1,0,0:0:0:0:
256,192,17820,1,8,0:0:0:0:
256,192,18010,1,0,0:0:0:0:
256,192,18200,1,8,0:0:0:0:
256,192,18390,1,8,0:0:0:0:
256,192,18580,1,0,0:0:0:0:
256,192,18959,1,4,0:0:0:0:
256,192,19339,1,8,0:0:0:0:
256,192,19529,1,0,0:0:0:0:
256,192,19719,1,8,0:0:0:0:
256,192,20099,1,8,0:0:0:0:
256,192,20478,1,4,0:0:0:0:
256,192,20668,1,0,0:0:0:0:
256,192,20858,1,8,0:0:0:0:
256,192,21048,1,0,0:0:0:0:
256,192,21428,1,6,0:0:0:0:
256,192,21807,1,0,0:0:0:0:
256,192,21902,1,0,0:0:0:0:
256,192,21997,1,0,0:0:0:0:
256,192,22187,1,0,0:0:0:0:
256,192,22377,1,8,0:0:0:0:
256,192,22567,1,0,0:0:0:0:
256,192,22947,1,0,0:0:0:0:
256,192,23137,1,8,0:0:0:0:
256,192,23516,1,0,0:0:0:0:
256,192,23706,1,0,0:0:0:0:
256,192,23896,1,0,0:0:0:0:
256,192,24086,1,8,0:0:0:0:
256,192,24466,1,0,0:0:0:0:
256,192,24656,1,8,0:0:0:0:
256,192,25035,1,4,0:0:0:0:
256,192,25605,1,6,0:0:0:0:
256,192,25985,1,6,0:0:0:0:
256,192,26364,1,6,0:0:0:0:
256,192,27124,1,4,0:0:0:0:
256,192,27504,1,8,0:0:0:0:
256,192,27694,1,0,0:0:0:0:
256,192,27883,1,8,0:0:0:0:
256,192,27978,1,8,0:0:0:0:
256,192,28073,1,8,0:0:0:0:
256,192,28453,1,8,0:0:0:0:
256,192,28833,1,0,0:0:0:0:
256,192,29023,1,0,0:0:0:0:
256,192,29213,1,8,0:0:0:0:
256,192,29592,1,0,0:0:0:0:
256,192,29782,1,8,0:0:0:0:
256,192,29972,1,8,0:0:0:0:
256,192,30162,1,0,0:0:0:0:
256,192,30542,1,0,0:0:0:0:
256,192,31111,1,4,0:0:0:0:
256,192,31491,1,8,0:0:0:0:
256,192,31871,1,8,0:0:0:0:
256,192,32061,1,0,0:0:0:0:
256,192,32250,1,8,0:0:0:0:
256,192,32630,1,8,0:0:0:0:
256,192,32820,1,0,0:0:0:0:
256,192,33010,1,0,0:0:0:0:
256,192,33200,1,8,0:0:0:0:
256,192,33580,1,8,0:0:0:0:
256,192,33769,1,0,0:0:0:0:
256,192,33959,1,0,0:0:0:0:
256,192,34054,1,0,0:0:0:0:
256,192,34149,1,0,0:0:0:0:
256,192,34529,1,8,0:0:0:0:
256,192,34909,1,0,0:0:0:0:
256,192,35099,1,0,0:0:0:0:
256,192,35288,1,8,0:0:0:0:
256,192,35668,1,0,0:0:0:0:
256,192,35858,1,8,0:0:0:0:
256,192,36048,1,8,0:0:0:0:
256,192,36238,1,0,0:0:0:0:
256,192,36618,1,8,0:0:0:0:
256,192,36997,1,4,0:0:0:0:
256,192,37377,1,0,0:0:0:0:
256,192,37567,1,8,0:0:0:0:
256,192,37757,1,8,0:0:0:0:
256,192,37947,1,0,0:0:0:0:
256,192,38326,1,8,0:0:0:0:
256,192,38516,1,4,0:0:0:0:
256,192,38896,1,8,0:0:0:0:
256,192,39086,1,8,0:0:0:0:
256,192,39276,1,4,0:0:0:0:
256,192,39656,1,0,0:0:0:0:
256,192,39845,1,8,0:0:0:0:
256,192,39940,1,8,0:0:0:0:
256,192,40035,1,8,0:0:0:0:
256,192,40225,1,4,0:0:0:0:
