osu file format v14

[General]
AudioFilename: 2-09-bicycle.mp3
AudioLeadIn: 0
PreviewTime: 542
Countdown: 0
SampleSet: Normal
StackLeniency: 0.7
Mode: 1
LetterboxInBreaks: 0
WidescreenStoryboard: 0

[Editor]
Bookmarks: 40225
DistanceSpacing: 1
BeatDivisor: 4
GridSize: 4
TimelineZoom: 1

[Metadata]
Title:Jitensha
TitleUnicode:じてんしゃ
Artist:Shota Kageyama
ArtistUnicode:景山将太
Creator:mancuso_JM_
Version:Futsuu
Source:ポケットモンスター X・Y
Tags:nintendo game freak 3DS bicycle Pokémon Pokemon x/y x.y bike biking theme mancusojuanmattos
BeatmapID:1084690
BeatmapSetID:510156

[Difficulty]
HPDrainRate:7
CircleSize:5
OverallDifficulty:4
ApproachRate:5
SliderMultiplier:1.4
SliderTickRate:2

[Events]
//Background and Video events
0,0,"Legendary-Pokemon-X-and-Y.jpg",0,50
//Break Periods
//Storyboard Layer 0 (Background)
//Storyboard Layer 1 (Fail)
//Storyboard Layer 2 (Pass)
//Storyboard Layer 3 (Foreground)
//Storyboard Sound Samples

[TimingPoints]
732,379.746835443038,4,1,0,85,1,0

[Colours]
Combo1 : 244,72,98
Combo2 : 255,100,255
Combo3 : 64,150,255

[HitObjects]
256,196,732,5,4,0:0:0:0:
256,196,1491,1,0,0:0:0:0:
256,196,1871,1,0,0:0:0:0:
256,196,2061,1,8,0:0:0:0:
256,196,2440,1,8,0:0:0:0:
256,196,2820,1,8,0:0:0:0:
256,196,3200,1,0,0:0:0:0:
256,196,3390,1,8,0:0:0:0:
256,196,3769,1,4,0:0:0:0:
256,196,4339,1,8,0:0:0:0:
256,196,4719,1,0,0:0:0:0:
256,196,4909,1,8,0:0:0:0:
256,196,5288,1,0,0:0:0:0:
256,196,5668,1,8,0:0:0:0:
256,196,5858,1,0,0:0:0:0:
256,196,6048,1,0,0:0:0:0:
256,196,6428,1,8,0:0:0:0:
256,196,6807,1,4,0:0:0:0:
256,196,7567,1,8,0:0:0:0:
256,196,7947,1,8,0:0:0:0:
256,196,8326,1,4,0:0:0:0:
256,196,8706,1,0,0:0:0:0:
256,196,8896,1,8,0:0:0:0:
256,196,9276,1,8,0:0:0:0:
256,196,9845,1,4,0:0:0:0:
256,196,10225,1,0,0:0:0:0:
256,196,10415,1,8,0:0:0:0:
256,196,10985,1,8,0:0:0:0:
256,196,11364,1,0,0:0:0:0:
256,196,11744,1,0,0:0:0:0:
256,196,11934,1,8,0:0:0:0:
256,196,12314,1,8,0:0:0:0:
256,196,12504,1,0,0:0:0:0:
256,196,12883,1,8,0:0:0:0:
256,196,13263,1,8,0:0:0:0:
256,196,13643,1,0,0:0:0:0:
256,196,14023,1,0,0:0:0:0:
256,196,14402,1,8,0:0:0:0:
256,196,15352,1,0,0:0:0:0:
256,196,15542,1,8,0:0:0:0:
256,196,15921,1,4,0:0:0:0:
256,196,16301,1,8,0:0:0:0:
256,196,16491,1,0,0:0:0:0:
256,196,16871,1,0,0:0:0:0:
256,196,17061,1,8,0:0:0:0:
256,196,17440,1,0,0:0:0:0:
256,196,17820,1,0,0:0:0:0:
256,196,18200,1,8,0:0:0:0:
256,196,18580,1,8,0:0:0:0:
256,196,18959,1,4,0:0:0:0:
256,196,19719,1,8,0:0:0:0:
256,196,20099,1,8,0:0:0:0:
256,196,20478,1,6,0:0:0:0:
256,196,20858,1,0,0:0:0:0:
256,196,21048,1,8,0:0:0:0:
256,196,21428,1,8,0:0:0:0:
256,196,21997,1,0,0:0:0:0:
256,196,22377,1,0,0:0:0:0:
256,196,22567,1,8,0:0:0:0:
256,196,23137,1,8,0:0:0:0:
256,196,23516,1,0,0:0:0:0:
256,196,23896,1,8,0:0:0:0:
256,196,24086,1,0,0:0:0:0:
256,196,25035,1,4,0:0:0:0:
256,196,25605,1,8,0:0:0:0:
256,196,25985,1,8,0:0:0:0:
256,196,26364,1,6,0:0:0:0:
256,196,27124,1,8,0:0:0:0:
256,196,28073,1,4,0:0:0:0:
256,196,28453,1,8,0:0:0:0:
256,196,28833,1,0,0:0:0:0:
256,196,29213,1,0,0:0:0:0:
256,196,29592,1,8,0:0:0:0:
256,196,30162,1,0,0:0:0:0:
256,196,30542,1,0,0:0:0:0:
256,196,31111,1,6,0:0:0:0:
256,196,31491,1,8,0:0:0:0:
256,196,31871,1,0,0:0:0:0:
256,196,32251,1,8,0:0:0:0:
256,196,32630,1,0,0:0:0:0:
256,196,33200,1,8,0:0:0:0:
256,196,33580,1,8,0:0:0:0:
256,196,34149,1,4,0:0:0:0:
256,196,34529,1,0,0:0:0:0:
256,196,34909,1,8,0:0:0:0:
256,196,35288,1,8,0:0:0:0:
256,196,35668,1,0,0:0:0:0:
256,196,36238,1,0,0:0:0:0:
256,196,36618,1,8,0:0:0:0:
256,196,36997,1,6,0:0:0:0:
256,196,37377,1,0,0:0:0:0:
256,196,37567,1,8,0:0:0:0:
256,196,37947,1,0,0:0:0:0:
256,196,38326,1,8,0:0:0:0:
256,196,38516,1,4,0:0:0:0:
256,196,39276,1,4,0:0:0:0:
256,196,39845,1,8,0:0:0:0:
256,196,40225,1,4,0:0:0:0:
