osu file format v14

[General]
AudioFilename: Pokmon X-Y - B-W Emotion theme HD (Official).mp3
AudioLeadIn: 0
PreviewTime: 23113
Countdown: 0
SampleSet: Soft
StackLeniency: 0.7
Mode: 2
LetterboxInBreaks: 0
WidescreenStoryboard: 0

[Editor]
Bookmarks: 14930
DistanceSpacing: 1.4
BeatDivisor: 4
GridSize: 16
TimelineZoom: 1

[Metadata]
Title:Ikkyoku Ikaga? "Yurenu Omoi"
TitleUnicode:一曲いかが?「揺れぬ想い」
Artist:Shota Kageyama
ArtistUnicode:景山将太
Creator:Paranoid Grapes
Version:Salad
Source:ポケットモンスター X・Y
Tags:Pokemon How About A Song An Unwavering Heart Super Music Collection OVERLAP emotion piano black white x and y game freak Pokémon hilda hilbert cheren bianca N
BeatmapID:1046934
BeatmapSetID:491275

[Difficulty]
HPDrainRate:5
CircleSize:3.5
OverallDifficulty:6
ApproachRate:6
SliderMultiplier:1.6
SliderTickRate:1

[Events]
//Background and Video events
0,0,"fda2aa3b65108101fb42af4044c49b.jpg",0,0
//Break Periods
//Storyboard Layer 0 (Background)
//Storyboard Layer 1 (Fail)
//Storyboard Layer 2 (Pass)
//Storyboard Layer 3 (Foreground)
//Storyboard Sound Samples

[TimingPoints]
1305,681.818181818182,4,2,2,35,1,0
2291,681.818181818182,4,2,2,35,1,0
2668,681.818181818182,4,2,2,35,1,0
8142,681.818181818182,4,2,2,35,1,0
10850,681.818181818182,4,2,2,35,1,0
13215,731.707317073171,4,2,2,35,1,0
14978,681.818181818182,4,2,2,35,1,0
15976,714.285714285714,4,2,2,35,1,0
17700,681.818181818182,4,2,2,35,1,0
19380,681.818181818182,4,2,2,35,1,0
21780,681.818181818182,4,2,2,35,1,0
23160,681.818181818182,4,2,2,35,1,1
26526,681.818181818182,4,2,2,35,1,1
31360,681.818181818182,4,2,2,35,1,1
32708,681.818181818182,4,2,2,35,1,0
34071,681.818181818182,4,2,2,35,1,1
44280,681.818181818182,4,2,2,35,1,0
48030,-100,4,2,2,5,0,0

[Colours]
Combo1 : 0,0,160
Combo2 : 0,128,255
Combo3 : 110,202,245
Combo4 : 0,0,255

[HitObjects]
64,256,1305,6,0,L|240:256,1,160,2|0,0:0|0:0,0:0:0:0:
384,256,2291,2,0,L|304:256,1,80
480,320,4031,6,0,L|320:320,1,160,2|0,0:0|0:0,0:0:0:0:
144,304,5054,2,0,L|224:304,1,80
64,224,6758,6,0,L|224:224|224:224,1,160,2|0,0:0|0:0,0:0:0:0:
448,224,8142,1,0,0:0:0:0:
208,224,8823,1,0,0:0:0:0:
496,160,9505,2,0,L|320:160,1,160,2|0,0:0|0:0,0:0:0:0:
112,320,10850,6,0,L|80:240,1,80
256,224,11531,2,0,L|288:144,1,80
128,144,12213,6,0,L|304:144,1,160,2|0,0:0|0:0,0:0:0:0:
432,160,13215,2,0,L|320:160,1,80
464,160,14978,6,0,L|304:160,1,160,2|0,0:0|0:0,0:0:0:0:
144,256,15976,2,0,L|224:256,1,80
80,320,17700,6,0,L|256:320,1,160,2|0,0:0|0:0,0:0:0:0:
480,272,19380,2,0,L|400:272,1,80
272,272,20061,1,0,0:0:0:0:
448,272,20402,1,2,0:0:0:0:
112,240,21780,5,0,0:0:0:0:
240,240,22120,1,0,0:0:0:0:
112,240,22461,1,0,0:0:0:0:
240,240,22802,1,0,0:0:0:0:
496,240,23160,6,0,L|416:240,1,80,2|0,0:0|0:0,0:0:0:0:
288,208,23841,1,0,0:0:0:0:
144,144,24182,2,0,L|256:144,1,80
448,144,25205,1,0,0:0:0:0:
144,144,25887,6,0,L|240:144,1,80,2|0,0:0|0:0,0:0:0:0:
368,144,26526,1,0,0:0:0:0:
224,208,26866,2,0,L|112:208,1,80
416,208,27889,1,0,0:0:0:0:
272,192,28571,6,0,L|352:192,1,80,2|0,0:0|0:0,0:0:0:0:
480,192,29253,1,0,0:0:0:0:
320,192,29594,1,0,0:0:0:0:
48,176,29935,5,0,0:0:0:0:
368,176,30616,1,0,0:0:0:0:
112,160,31360,1,2,0:0:0:0:
368,160,32041,1,0,0:0:0:0:
160,160,32708,5,0,0:0:0:0:
272,160,33048,1,0,0:0:0:0:
384,160,33389,1,0,0:0:0:0:
208,160,33730,1,0,0:0:0:0:
480,208,34071,6,0,L|304:208,1,160,2|0,0:0|0:0,0:0:0:0:
144,288,35093,2,0,L|224:288,1,80
432,288,36116,1,0,0:0:0:0:
176,288,36798,6,0,L|80:288,1,80,2|0,0:0|0:0,0:0:0:0:
256,288,37480,2,0,L|336:288,1,80
432,224,38161,1,0,0:0:0:0:
112,224,38843,1,0,0:0:0:0:
496,240,39525,6,0,L|400:240,1,80,2|0,0:0|0:0,0:0:0:0:
240,240,40207,2,0,L|336:240,1,80
160,240,40889,1,0,0:0:0:0:
384,160,41571,1,0,0:0:0:0:
32,192,42252,6,0,L|208:192,1,160,2|0,0:0|0:0,0:0:0:0:
352,192,43275,2,0,L|256:192,1,80,0|2,0:0|0:0,0:0:0:0:
96,304,44280,2,0,L|192:304,1,80
448,304,44961,6,0,L|272:304,1,160,2|0,0:0|0:0,0:0:0:0:
32,208,46325,1,2,0:0:0:0:
320,208,47007,1,0,0:0:0:0:
32,208,47689,1,2,0:0:0:0:
256,192,48030,12,0,49734,0:0:0:0:
