osu file format v5

[General]
AudioFilename: SSBB - LOZ [Link to the Past] - (Dark World Woods).mp3
AudioLeadIn: 0
PreviewTime: 34982
Countdown: 1
SampleSet: Normal
StackLeniency: 0.7
Mode: 0
LetterboxInBreaks: 1
EditorBookmarks: 7057,14869,22291,29791,37369,44791,57565,65299,72916,80416,88151,95768,102916

[Metadata]
Title:Hidden Mountain & Forest
Artist:Shota Kageyama
Creator:kingcobra52
Version:Hard
Source:Super Smash Bros. Brawl
Tags:

[Difficulty]
HPDrainRate:6
CircleSize:5
OverallDifficulty:6
SliderMultiplier:1.6
SliderTickRate:1

[Events]
//Background and Video events
0,0,"Link2.jpg"
//Break Periods
2,50851,56951
//Storyboard Layer 0 (Background)
//Storyboard Layer 1 (Failing)
//Storyboard Layer 2 (Passing)
//Storyboard Layer 3 (Foreground)
//Storyboard Sound Samples
//Background Colour Transformations
3,100,163,162,255

[TimingPoints]
0,468.75,4,2,0,100
22500,468.75,4,1,0,91
37500,468.75,4,2,0,100
48750,468.75,4,1,0,89
65625,468.75,4,2,0,100
80625,468.75,4,1,0,90

[HitObjects]
88,72,7500,2,0,B|88:240,1,160
88,272,8125,1,0
120,296,8281,1,0
152,272,8437,2,0,B|320:272,1,160
352,272,9062,1,0
384,240,9218,1,0
352,208,9375,1,2
352,72,9843,1,2
256,320,10781,5,0
256,320,10937,1,0
256,320,11093,1,0
256,320,11250,2,2,B|416:232,1,160
400,112,12187,2,2,B|256:192,1,160
261,189,12812,1,2
224,216,12968,1,2
184,192,13125,1,2
72,120,13593,2,4,B|42:170|42:227|88:280,2,160
160,24,15000,6,0,B|344:24,1,160
320,24,15625,1,0
320,64,15781,1,0
320,104,15937,2,0,B|152:104,1,160
160,144,16562,1,0
128,176,16718,1,0
160,208,16875,1,2
288,208,17343,1,2
56,336,18281,5,0
96,312,18437,1,0
136,336,18593,1,0
176,312,18750,2,2,B|252:365|352:304,1,160
368,304,19375,1,0
408,280,19531,1,0
432,240,19687,2,2,B|422:137|336:112,1,160
264,88,20468,1,2
264,88,20625,1,2
128,88,21093,2,4,L|78:158|128:232,2,160
120,216,22500,6,0,B|136:289|248:293,1,160
288,296,23125,1,0
328,280,23281,1,0
360,256,23437,2,0,B|324:179|216:176,1,160
184,176,24062,1,0
144,184,24218,1,0
120,216,24375,1,2
200,320,24843,1,2
312,256,25312,1,2
424,192,25781,5,0
424,192,25937,1,0
424,144,26093,1,0
424,144,26250,2,2,B|296:40,1,160
168,40,27187,2,2,B|32:136,1,160
64,168,27812,1,2
104,144,27968,1,2
144,120,28125,1,2
144,232,28593,2,4,B|194:262|251:262|304:232,2,160
297,237,30000,6,0,B|297:69,1,160
296,32,30625,1,0
248,32,30781,1,0
200,32,30937,2,0,B|200:216,1,160
200,232,31562,1,0
200,272,31718,1,0
200,312,31875,1,2
328,312,32343,1,2
200,312,32812,1,2
72,312,33281,5,0
112,312,33437,1,0
152,312,33593,1,0
200,312,33750,2,2,B|276:360|352:307,1,160
384,288,34375,1,0
424,264,34531,1,0
456,240,34687,2,2,B|504:165|451:89,1,160
392,24,35468,1,2
392,24,35625,1,2
256,24,36093,1,4
192,136,36562,1,4
320,136,37031,1,4
256,248,37500,6,0,L|88:248,1,160
32,248,38203,1,0
16,216,38320,1,0
32,184,38437,1,0
40,56,38906,1,2
104,56,39140,1,2
168,56,39375,1,2
368,64,40078,2,2,L|296:64,2,40
368,192,40781,1,2
368,320,41250,6,0,L|200:320,1,160
144,320,41953,1,0
120,296,42070,1,0
96,320,42187,1,0
48,200,42656,1,2
96,152,42890,1,2
144,104,43125,1,2
120,296,43828,2,2,L|120:248,2,40
248,256,44531,1,2
368,208,45000,6,0,B|382:120|272:80,1,160
216,88,45703,1,0
216,88,45820,1,0
216,88,45937,1,0
80,88,46406,1,2
32,136,46640,1,2
80,184,46875,1,2
280,184,47578,1,2
256,208,47695,1,2
232,184,47812,1,2
256,56,48281,1,2
256,192,48750,12,4,49687
288,192,49921,1,0
224,192,50156,1,0
256,256,50468,1,4
256,296,50625,1,4
256,80,58125,5,4
144,256,58593,1,4
360,256,59062,1,4
256,192,59531,1,0
256,256,59765,1,0
256,256,59882,1,0
256,256,60000,1,4
152,80,60468,5,4
344,80,60937,1,4
256,192,61406,1,0
256,192,61562,1,0
256,192,61718,1,0
256,192,61875,1,4
384,192,62343,5,4
256,192,62812,1,4
128,192,63281,1,0
192,192,63515,1,0
192,160,63632,1,0
192,128,63750,1,4
192,248,64218,5,4
320,256,64687,2,4,B|385:180|304:104,1,160
448,112,65625,6,0,B|520:179|455:255,1,160
424,280,66250,1,0
392,304,66406,1,0
352,320,66562,2,0,B|286:392|208:328,1,160
168,304,67187,1,0
128,280,67343,1,0
88,256,67500,2,2,B|25:182|96:112,1,160
208,48,68437,1,2
280,160,68906,5,0
280,160,69062,1,0
280,160,69218,1,0
280,160,69375,2,2,B|432:56,1,160
496,176,70312,2,2,B|360:272,1,160
328,296,70937,1,2
288,320,71093,1,2
248,296,71250,1,2
120,280,71718,2,4,B|83:238|83:181|112:128,2,160
112,133,73125,6,0,B|296:133,1,160
296,168,73750,1,0
320,200,73906,1,0
352,232,74062,2,0,B|520:232,1,160
512,272,74687,1,0
480,304,74843,1,0
448,336,75000,2,2,B|280:336,1,160
288,208,75937,1,2
152,208,76406,5,0
112,192,76562,1,0
96,152,76718,1,0
112,112,76875,2,2,B|186:48|264:112,1,160
288,136,77500,1,0
320,168,77656,1,0
360,184,77812,2,2,B|463:174|488:88,1,160
392,96,78593,1,2
392,96,78750,1,2
280,24,79218,2,4,L|120:24,2,160
192,120,80625,6,0,B|208:193|320:197,1,160
360,208,81250,1,0
384,240,81406,1,0
384,280,81562,2,0,B|348:357|232:344,1,160
208,336,82187,1,0
168,320,82343,1,0
128,296,82500,2,2,B|80:240|87:177|136:144,1,160
216,56,83437,1,2
344,56,83906,5,0
368,88,84062,1,0
344,128,84218,1,0
368,160,84375,2,2,B|368:328,1,160
232,320,85312,2,2,B|232:144,1,160
232,112,85937,1,2
256,72,86093,1,2
232,32,86250,1,2
96,32,86718,2,4,B|66:82|66:139|96:192,2,160
93,185,88125,6,0,B|248:274,1,160
272,288,88750,1,0
312,272,88906,1,0
352,256,89062,2,0,B|512:176,1,160
488,136,89687,1,0
464,96,89843,1,0
424,72,90000,2,2,B|346:24|272:80,1,160
152,80,90937,1,2
64,176,91406,5,0
88,208,91562,1,0
112,240,91718,1,0
144,272,91875,2,2,B|220:320|296:267,1,160
272,224,92500,1,0
248,184,92656,1,0
232,152,92812,2,2,B|196:63|296:16,1,160
376,24,93593,1,2
376,24,93750,1,2
376,152,94218,1,4
376,280,94687,1,0
248,312,95156,1,4
168,328,95468,1,4
168,280,95625,6,0,B|64:253|64:168,1,160
64,104,96328,1,0
96,88,96445,1,0
128,104,96562,1,0
248,104,97031,1,2
184,104,97265,1,2
248,104,97500,2,2,B|424:104,1,160
408,168,98203,2,2,L|456:168,2,40
272,168,98906,1,2
272,296,99375,6,0,L|104:296,1,160
112,232,100078,1,0
128,200,100195,1,0
112,168,100312,1,0
32,64,100781,1,2
88,32,101015,1,2
144,64,101250,2,2,L|214:21|288:88,1,160
320,112,101953,2,2,L|368:160,2,40
232,208,102656,1,2
240,336,103125,6,0,B|328:350|368:240,1,160
384,192,103828,1,0
384,192,103945,1,0
384,192,104062,1,0
328,72,104531,1,2
264,72,104765,1,2
296,128,105000,2,2,B|264:184|200:192|160:152,1,160
112,112,105703,1,2
112,112,105820,1,2
112,112,105937,1,2
112,240,106406,1,2
208,328,106875,6,2,B|312:336|376:311|432:224,1,240
419,242,107695,1,2
419,242,107812,1,2
256,192,108046,12,4,108750
