osu file format v6

[General]
AudioFilename: Shortyblue - Ninety-nine I Lovee You.mp3
AudioLeadIn: 0
PreviewTime: 60214
Countdown: 1
SampleSet: Soft
StackLeniency: 0.7
Mode: 0
LetterboxInBreaks: 1

[Editor]
Bookmarks: 15234
DistanceSpacing: 1
BeatDivisor: 2
GridSize: 8

[Metadata]
Title:Ninety-Nine Times I Love You
Artist:Shortyblue
Creator:al2e10
Version:Normal
Source:Terence Teo
Tags:

[Difficulty]
HPDrainRate:4
CircleSize:4
OverallDifficulty:4
SliderMultiplier:1.4
SliderTickRate:2

[Events]
//Background and Video events
0,0,"2373180530_c9b3b51d03.jpg"
//Break Periods
2,28070,28894
//Storyboard Layer 0 (Background)
//Storyboard Layer 1 (Fail)
//Storyboard Layer 2 (Pass)
//Storyboard Layer 3 (Foreground)
//Storyboard Sound Samples
//Background Colour Transformations
3,100,163,162,255

[TimingPoints]
214,468.75,4,2,0,60,1,0
30234,-100,4,2,1,69,0,0
43573,-100,4,1,1,31,0,0
44510,-100,4,2,1,61,0,0
50741,-100,4,2,2,59,0,0
50976,-100,4,2,1,61,0,0
59979,-100,4,1,1,61,0,0
75234,-100,4,1,0,60,0,0
86229,-100,4,2,0,60,0,0

[Colours]
Combo1 : 255,255,255
Combo2 : 255,128,255
Combo3 : 255,0,0
Combo4 : 255,128,128

[HitObjects]
256,56,15214,1,0
384,56,15682,1,8
256,120,16151,1,2
384,120,16620,1,8
256,184,17089,1,0
256,184,17323,2,0,B|344:240|408:168,1,140,0|2
408,328,18260,6,0,B|312:328,2,70,0|8|0
408,256,18964,2,0,B|256:256,1,140,2|8
144,192,19901,1,0
256,104,20370,1,8
360,192,20839,2,0,B|360:352,1,140,2|8
152,328,22010,5,0
152,328,22245,1,8
96,280,22479,1,0
96,280,22714,2,0,B|96:120,1,140,2|8
216,72,23651,6,0,B|312:72,2,70,2|0|10
256,128,24354,1,0
296,184,24589,1,2
248,312,25057,6,0,B|88:312,2,140,8|2|8
248,240,26229,1,0
248,240,26464,2,0,B|288:160|248:104,1,140,2|8
392,88,27401,1,0
392,224,27870,1,8
448,64,30214,5,0
448,200,30682,1,8
304,200,31151,2,0,B|160:200,2,140,2|8|2
184,128,32557,1,8
112,248,33260,6,0,B|112:344,1,70,0|8
184,320,33729,1,0
184,320,33964,2,0,B|344:320,1,140,2|8
384,192,34901,5,0
240,192,35370,1,8
272,128,35604,2,0,B|56:128,1,210,2|8
256,48,37010,5,0
256,120,37245,1,8
256,192,37479,2,0,B|208:256|272:328|368:280,1,210,2|8
160,232,38885,5,0
160,232,39120,1,8
256,104,39589,2,0,B|424:104,2,140,2|8|2
264,240,40995,6,0,B|360:280|424:224,1,140,8|2
272,176,41932,1,8
128,184,42401,1,0
256,88,43104,5,2
256,296,43807,1,2
256,296,44042,1,2
256,296,44276,1,2
256,152,44745,5,0
392,184,45214,2,0,B|392:344,1,140,8|2
320,320,45917,1,0
248,304,46151,2,0,B|248:160,1,140,8|2
128,96,47089,6,0,B|272:96,1,140,8|2
304,160,47792,1,0
256,208,48026,2,0,B|256:296,2,70,8|0|0
368,224,48964,6,0,B|368:64,1,140,8|2
232,48,49901,2,0,B|232:224,1,140,8|2
232,256,50604,2,0,B|72:256,2,140,2|0|2
232,184,51776,1,8
256,48,52245,5,0
320,80,52479,1,0
384,112,52714,2,0,B|432:200|384:264,1,140,12|2
256,272,53651,6,0,B|104:272,1,140,8|2
64,224,54354,1,0
96,160,54589,1,8
232,160,55057,6,0,B|304:160,2,70,0|0|8
256,296,55995,2,0,B|416:296,1,140,2|8
272,232,56932,2,0,B|120:232,1,140,2|8
256,168,57870,1,0
256,192,58104,12,0,59745
256,136,60214,5,4
384,192,60682,1,8
240,200,61151,1,0
368,256,61620,1,8
224,264,62089,1,0
128,160,62557,2,0,B|128:240,1,70,8|0
256,64,63495,6,0,B|96:64,1,140,8|0
240,128,64432,2,0,B|240:208,2,70,8|0|0
368,192,65370,1,8
368,264,65604,2,0,B|208:264,1,140
184,208,66307,6,0,B|136:144|200:80,2,140,8|0|8
320,208,67714,1,4
368,336,68182,1,8
232,296,68651,2,0,B|88:296,1,140,0|8
120,160,69589,5,0
240,136,70057,1,8
376,160,70526,1,0
376,160,70760,1,8
376,160,70995,1,8
376,272,71464,6,0,B|288:304|224:256,1,140,0|8
248,128,72401,2,0,B|168:96|104:136,1,140,0|8
256,192,73104,12,0,75214
256,72,75682,5,8
184,192,76151,1,0
320,184,76620,1,8
256,312,77089,2,0,B|408:312,1,140,0|8
352,256,77792,2,0,B|200:256,1,140
160,208,78495,6,0,B|56:208,2,70,8|0|0
256,104,79432,1,8
312,232,79901,1,0
192,304,80370,1,8
320,248,80839,1,0
448,200,81307,2,0,B|448:48,2,140,8|0|8
304,184,82714,1,4
232,192,82948,6,0,B|152:192,2,70,0|8|0
312,72,83885,2,0,B|392:72,2,70,0|8|0
320,216,84823,2,0,B|320:304,2,70,0|8|0
392,216,85526,2,0,B|392:368,1,140,0|8
256,312,86464,5,2
256,240,86698,1,2
256,168,86932,2,0,B|256:24,2,140
256,304,88339,1,4
