osu file format v6

[General]
AudioFilename: Shortyblue - Ninety-nine I Lovee You.mp3
AudioLeadIn: 0
PreviewTime: 60214
Countdown: 1
SampleSet: Soft
StackLeniency: 0.7
Mode: 0
LetterboxInBreaks: 1

[Editor]
Bookmarks: 15234
DistanceSpacing: 1.39999997615814
BeatDivisor: 4
GridSize: 8

[Metadata]
Title:Ninety-Nine Times I Love You
Artist:Shortyblue
Creator:al2e10
Version:Love
Source:Terence Teo
Tags:

[Difficulty]
HPDrainRate:7
CircleSize:4
OverallDifficulty:7
SliderMultiplier:1.4
SliderTickRate:2

[Events]
//Background and Video events
0,0,"2373180530_c9b3b51d03.jpg"
//Break Periods
2,88538,94939
2,161664,166189
2,168695,173923
//Storyboard Layer 0 (Background)
//Storyboard Layer 1 (Fail)
//Storyboard Layer 2 (Pass)
//Storyboard Layer 3 (Foreground)
//Storyboard Sound Samples
//Background Colour Transformations
3,100,163,162,255

[TimingPoints]
214,468.75,4,2,0,60,1,0
30234,-100,4,2,0,80,0,0
43080,-200,4,2,0,70,0,0
43783,-100,4,1,0,39,0,0
44486,-100,4,2,1,79,0,0
60072,-100,4,1,0,61,0,0
69447,-200,4,1,0,72,0,0
70736,-100,4,1,0,71,0,0
86322,-100,4,2,0,60,0,0
95346,-100,4,1,0,59,0,0
102846,-100,4,2,1,66,0,0
117143,-100,4,1,1,39,0,0
118432,-100,4,2,1,61,0,0
124291,-100,4,1,1,60,0,0
125111,-100,4,2,1,59,0,0
133197,-100,4,1,0,72,0,0
176322,-100,4,2,0,67,0,0
191440,-100,4,1,0,81,0,1

[Colours]
Combo1 : 255,255,255
Combo2 : 255,128,255
Combo3 : 255,0,0
Combo4 : 255,128,128

[HitObjects]
384,80,15214,2,0,B|424:128|344:168|384:216,1,140
296,184,15917,1,0
264,208,16034,1,2
264,208,16151,1,0
200,256,16385,5,8
120,216,16620,1,0
144,136,16854,1,0
72,88,17089,1,2
72,88,17206,1,0
136,40,17440,1,0
136,40,17557,1,2
208,80,17792,1,8
344,64,18260,6,0,B|416:128,1,70,0|0
328,128,18729,2,0,B|400:192,1,70
256,192,19432,5,0
192,248,19667,1,2
216,328,19901,1,0
296,352,20135,1,0
360,304,20370,1,2
336,224,20604,1,0
224,96,21073,1,0
256,128,21190,1,2
304,120,21307,1,0
328,80,21424,1,2
296,40,21542,1,2
16,200,22010,5,2
96,248,22245,1,0
184,280,22479,1,0
280,280,22714,1,2
400,128,23182,6,0,B|456:64,1,70,2|0
344,88,23651,2,0,B|400:32,1,70,2|2
296,48,24120,2,0,B|352:0,2,70,2|0|2
432,184,25057,5,0
480,272,25292,1,0
432,360,25526,1,4
72,192,25995,5,0
40,96,26229,1,2
112,32,26464,1,2
256,160,26932,5,0
312,240,27167,1,2
256,320,27401,1,0
192,240,27635,1,2
256,160,27870,1,2
304,72,28104,1,0
256,192,28339,12,0,29745
432,80,30214,5,0
432,176,30448,1,2
432,176,30565,1,0
432,272,30799,1,2
432,320,30917,1,0
344,280,31151,6,2,B|304:240|352:216,1,70
344,120,31620,2,0,B|344:48,1,70,2|0
256,96,32089,6,0,B|256:176,1,70
256,368,32792,1,0
440,312,33260,5,0
368,240,33495,1,0
368,144,33729,1,0
432,64,33964,1,0
88,72,34432,6,0,B|184:184,1,140,2|0
80,168,35135,2,0,B|144:240,1,70,0|2
216,192,35604,2,0,B|320:304,1,140,2|0
336,200,36307,1,2
336,200,36424,1,0
288,112,36659,1,0
256,80,36776,1,2
256,80,37010,1,4
200,160,37245,5,0
264,232,37479,1,0
336,296,37714,2,2,B|480:232,1,140
376,192,38417,1,0
400,96,38651,6,0,B|336:32,1,70,0|2
352,144,39120,2,0,B|296:80,1,70,0|2
304,192,39589,2,0,B|200:88,2,140,2|0|2
120,288,40995,5,0
216,312,41229,1,0
312,312,41464,1,4
432,160,41932,1,2
264,64,42401,5,0
184,120,42635,1,0
264,176,42870,1,0
264,272,43104,2,0,B|264:344,1,70
168,320,43807,5,2
256,160,44042,1,2
360,320,44276,1,2
256,160,44745,5,0
256,64,44979,1,0
256,160,45214,1,8
328,224,45448,1,0
360,320,45682,1,0
328,224,45917,1,0
368,136,46151,1,8
328,224,46385,1,0
272,304,46620,1,2
176,288,46854,1,0
112,208,47089,2,8,B|80:144|144:80,1,140,8|2
184,168,47792,1,0
256,104,48026,1,8
328,168,48260,6,0,B|392:232,1,70,0|2
392,312,48729,1,0
312,248,48964,1,8
216,248,49198,1,2
144,312,49432,1,0
64,256,49667,1,2
64,256,49901,1,8
256,56,50370,5,0
256,152,50604,2,0,B|256:240,1,70,0|8
192,296,51073,1,0
256,368,51307,1,0
320,296,51542,1,0
256,368,51776,1,8
192,296,52010,1,0
128,224,52245,6,0,B|72:160,1,70
176,176,52714,2,0,B|120:112,1,70,8|2
224,128,53182,2,0,B|168:64,1,70,0|2
272,80,53651,2,0,B|216:16,1,70,8|2
320,32,54120,1,0
400,88,54354,1,0
416,184,54589,1,8
40,72,55057,5,0
8,168,55292,1,2
64,248,55526,1,8
152,280,55760,1,0
248,304,55995,5,2
344,328,56229,1,0
424,280,56464,1,8
232,232,56932,6,0,B|256:88,1,140,0|8
344,56,57635,1,0
416,120,57870,1,0
256,192,58104,12,0,59979
256,64,60214,5,4
344,112,60448,1,0
440,112,60682,1,8
392,192,60917,1,0
392,240,61034,1,0
344,112,61385,1,0
280,184,61620,1,8
280,232,61737,1,0
136,192,62089,5,0
256,56,62557,1,2
344,96,62792,1,0
176,192,63260,1,0
224,280,63495,1,0
256,312,63612,1,0
304,328,63729,1,8
400,320,63964,5,2
400,40,64432,1,8
120,40,64901,1,2
120,320,65370,1,8
256,192,65604,12,6,67714
408,80,67948,5,0
344,152,68182,1,8
400,232,68417,1,0
128,240,68651,5,0
176,152,68885,1,0
120,72,69120,1,0
262,36,69354,5,0
264,136,69589,2,0,B|264:200,2,52.5
264,136,70526,1,0
96,32,70995,5,8
168,104,71229,1,0
120,192,71464,1,0
176,272,71698,1,0
264,320,71932,1,8
352,272,72167,1,0
408,192,72401,1,0
360,104,72635,1,0
440,40,72870,1,8
256,192,73104,12,0,74979
464,80,75214,5,0
432,120,75331,1,2
408,160,75448,1,0
456,248,75682,1,8
368,288,75917,5,0
320,272,76034,1,2
288,232,76151,1,0
208,288,76385,2,0,B|280:344,1,70,0|8
256,136,77089,5,2
256,136,77557,1,2
256,136,77792,1,2
168,176,78026,6,0,B|136:216,2,35
256,216,78495,1,8
344,168,78729,1,0
328,264,78964,2,0,B|296:320|232:304|184:264,1,140,0|10
256,88,79901,5,0
256,184,80135,1,0
256,280,80370,1,8
168,232,80604,6,2,B|128:160|176:96,1,140
272,88,81307,1,0
344,152,81542,1,0
352,248,81776,1,8
304,264,81893,1,0
264,240,82010,1,0
304,320,82245,1,0
344,336,82362,1,0
416,208,82714,5,4
336,144,82948,5,0
248,96,83182,1,8
160,144,83417,1,0
120,232,83651,1,0
176,312,83885,1,0
272,336,84120,1,8
352,280,84354,1,0
256,248,84589,5,0
256,24,85057,1,8
256,120,85292,1,0
256,120,85526,1,8
256,296,85995,5,0
256,296,86229,1,0
160,192,86464,5,0
80,80,86698,1,0
160,192,86932,1,0
296,192,87167,1,2
376,80,87401,1,0
296,192,87635,1,0
256,280,87870,2,0,B|408:280,1,140
400,72,95839,5,0
360,160,96073,1,0
384,200,96190,1,0
416,232,96307,1,8
320,240,96542,2,0,B|344:280,1,35
208,192,97010,2,0,B|168:224,1,35
144,72,97479,2,0,B|80:120,1,70,0|8
184,128,97948,5,0
256,64,98182,1,0
328,128,98417,1,0
256,200,98651,1,8
320,272,98885,1,0
352,304,99003,1,0
384,336,99120,1,8
288,336,99354,5,0
192,336,99589,1,0
96,336,99823,1,0
160,256,100057,6,0,B|160:176,1,70
160,184,100409,1,0
160,184,100526,2,0,B|160:86,1,70
240,160,100995,6,0,B|240:240,1,70
304,152,101464,2,0,B|304:320,1,140
304,292,102049,1,0
304,292,102167,1,2
56,80,103339,5,0
136,136,103573,2,0,B|72:200|128:264,1,140,0|2
200,192,104276,1,0
208,96,104510,2,0,B|272:48|344:96,1,140,2|2
376,184,105214,1,0
424,272,105448,1,0
352,336,105682,2,0,B|200:336,1,140,0|2
72,256,106385,5,0
144,192,106620,1,2
72,120,106854,1,0
144,48,107089,2,0,B|240:16|304:72,1,140,0|2
424,336,108026,5,0
480,256,108261,1,0
416,176,108495,1,0
344,112,108729,2,0,B|280:64|192:120,1,140,0|2
280,176,109432,5,0
200,232,109667,1,2
440,48,110135,5,0
480,136,110370,1,0
432,216,110604,1,0
344,176,110839,2,0,B|344:104|248:72,1,140,2|0
112,208,111776,2,0,B|176:280,1,70,0|2
160,160,112245,2,0,B|216:224,1,70,0|2
208,112,112714,1,0
352,240,113182,2,0,B|416:296,2,70,2|0|2
152,240,114120,2,0,B|104:304,2,70,2|0|2
256,72,115057,5,4
256,264,115526,5,0
328,328,115760,1,0
256,264,115995,1,0
192,192,116229,2,0,B|280:144|344:224,1,140
96,336,117401,5,2
256,56,117753,1,2
424,344,118104,1,2
256,336,118339,5,4
232,240,118573,1,0
272,152,118807,1,0
256,56,119042,1,8
168,96,119276,1,0
104,168,119510,1,2
152,248,119745,1,0
72,304,119979,1,0
72,304,120214,1,8
328,88,120682,5,0
384,168,120917,1,2
328,248,121151,1,8
72,304,121620,5,0
144,240,121854,1,0
208,312,122089,1,12
288,368,122323,1,2
360,304,122557,1,0
416,224,122792,1,2
456,136,123026,2,0,B|392:72|320:136,1,140,12|2
232,128,123729,2,0,B|144:168|96:120,1,140,4|4
168,192,124432,5,0
208,224,124549,1,2
304,224,124784,1,0
344,192,124901,1,2
256,40,125370,5,0
256,136,125604,1,0
256,232,125839,1,4
208,320,126073,1,0
304,320,126307,1,0
256,232,126542,1,6
184,168,126776,5,0
112,96,127010,1,0
48,168,127245,1,2
112,240,127479,1,2
184,168,127714,1,12
472,168,128182,5,0
408,96,128417,1,12
344,168,128651,1,8
472,312,129120,5,0
384,264,129354,1,0
304,320,129589,2,2,B|200:200,1,140
400,152,130526,2,2,B|328:88|264:160,1,140
256,192,131229,12,0,133104
256,72,133339,5,2
456,344,133807,1,2
80,336,134276,1,2
448,72,134745,1,2
80,72,135214,1,2
256,152,135682,5,0
256,248,135917,1,4
448,240,136385,5,0
424,200,136503,1,2
448,160,136620,1,0
312,16,137089,2,0,B|368:80|320:152,1,140
312,336,138026,1,0
112,336,138495,1,0
208,336,138729,2,0,B|168:256|216:184,1,140
256,192,139432,12,0,141073
256,88,141307,5,0
336,144,141542,1,0
376,168,141659,1,2
392,216,141776,2,0,B|416:272|376:288,1,70
288,256,142245,2,0,B|232:296|288:336,1,70
264,192,142714,6,2,B|144:192,1,105,0|0
88,64,143417,2,0,B|16:64,1,70
256,64,144120,5,0
344,96,144354,1,0
384,184,144589,1,8
376,280,144823,1,0
304,344,145057,1,0
208,336,145292,1,0
128,280,145526,1,8
128,184,145760,1,0
128,184,145995,1,0
256,192,146229,12,0,148104
256,80,148339,5,0
296,104,148456,1,2
320,144,148573,1,0
320,192,148690,1,2
288,224,148807,1,0
384,240,149042,5,0
432,256,149159,1,2
472,280,149276,1,2
376,304,149510,1,0
280,296,149745,1,8
112,192,150214,5,2
104,144,150331,1,2
112,96,150448,1,0
144,64,150565,1,2
192,48,150682,1,0
216,144,150917,1,2
408,144,151385,1,2
312,144,151620,6,0,B|312:224,1,70,2|0
408,208,152089,2,0,B|480:256|408:336,1,140,2|0
96,56,153026,5,4
424,56,153495,1,2
328,56,153729,2,0,B|264:136|344:200,1,140,2|0
256,256,154432,5,2
256,256,154549,1,0
256,112,154901,1,2
256,112,155135,1,0
256,208,155370,1,8
256,256,155487,1,2
256,112,155839,1,4
352,344,156073,5,0
432,288,156307,1,8
464,192,156542,1,0
424,104,156776,1,0
344,48,157010,1,0
344,144,157245,1,8
344,240,157479,1,0
264,192,157714,6,0,B|104:192,1,140
192,128,158417,2,0,B|88:128,1,70
296,32,159120,5,8
200,64,159354,1,8
288,104,159589,1,0
192,128,159823,1,0
280,168,160057,1,0
184,192,160292,1,0
272,232,160526,2,0,B|392:312,1,140
200,256,161464,1,4
256,56,167089,5,4
344,168,167440,1,4
192,168,167792,1,4
288,280,168143,1,4
136,280,168495,1,4
432,344,174823,5,0
256,56,175174,1,0
96,344,175526,1,0
256,192,175878,1,0
424,200,176229,1,0
432,80,176464,5,0
352,136,176698,1,0
424,200,176932,1,2
344,256,177167,1,0
408,328,177401,1,8
88,328,177870,1,2
160,264,178104,1,0
88,192,178339,1,4
160,128,178573,1,0
88,56,178807,1,2
88,56,179042,1,4
256,296,179745,5,0
256,200,179979,1,0
256,104,180214,2,0,B|336:64|400:120,1,140,8|0
392,208,180917,1,0
392,304,181151,1,8
304,352,181385,1,0
208,320,181620,1,0
160,304,181737,1,0
128,264,181854,1,0
216,232,182089,2,0,B|264:152|200:88,1,140,8|0
128,152,182792,1,8
72,72,183026,1,0
152,16,183260,1,0
248,24,183495,6,0,B|400:80,1,140,0|8
288,112,184198,1,0
376,152,184432,1,0
440,224,184667,1,0
416,320,184901,1,8
336,376,185135,1,0
240,360,185370,1,0
192,272,185604,1,0
232,184,185839,1,8
232,184,186190,1,0
88,192,186542,2,0,B|88:88,1,70,0|8
328,56,187245,5,0
408,104,187479,1,0
328,160,187714,5,4
408,216,187948,1,0
320,264,188182,5,0
400,320,188417,1,0
256,264,188651,5,4
176,320,188885,1,0
168,224,189120,1,0
256,192,189354,12,0,191229
256,56,191464,5,2
256,248,191932,1,8
192,64,192401,1,2
200,256,192870,1,8
128,72,193339,1,2
136,264,193807,1,8
136,264,194042,1,0
320,328,194510,5,0
408,288,194745,1,0
368,192,194979,1,0
280,232,195214,2,0,B|232:168|280:96,1,140
104,80,196151,1,0
216,240,196620,2,0,B|216:320|136:352,1,140
360,152,197557,1,0
296,80,197792,1,0
232,152,198026,1,0
168,80,198260,1,0
104,152,198495,1,8
240,304,198964,5,4
240,304,199198,1,0
184,224,199432,1,0
272,184,199667,1,0
200,112,199901,1,0
288,64,200135,1,0
384,72,200370,5,0
464,128,200604,1,0
384,184,200839,1,2
448,312,201190,1,2
336,208,201542,1,2
248,256,201776,1,2
256,192,202245,12,0,204354
472,40,204589,5,0
392,120,204823,1,0
392,120,204940,1,2
392,120,205057,1,8
256,360,205526,5,0
256,240,205760,1,0
256,240,205878,1,2
256,240,205995,1,8
48,40,206464,5,0
136,112,206698,1,0
136,112,206815,1,2
136,112,206932,1,8
256,192,207167,12,0,209979
256,48,210214,5,2
256,144,210448,1,4
256,240,210682,1,4
256,336,210917,1,4
