osu file format v9

[General]
AudioFilename: Honoo no Running Back.mp3
AudioLeadIn: 2007
PreviewTime: 47476
Countdown: 1
SampleSet: Normal
StackLeniency: 0.7
Mode: 0
LetterboxInBreaks: 1

[Editor]
DistanceSpacing: 1
BeatDivisor: 4
GridSize: 8

[Metadata]
Title:Honoo no Running Back
Artist:Short Leg Summer
Creator:Neko_Ray
Version:Speed of Light
Source:Eyeshield 21
Tags:opening OP 5 Kobayakawa Sena Deimon Devil Bats

[Difficulty]
HPDrainRate:7
CircleSize:5
OverallDifficulty:6
ApproachRate:8
SliderMultiplier:2.2
SliderTickRate:4

[Events]
//Background and Video events
0,0,"user100138_pic152115_1238783510.jpg"
//Break Periods
//Storyboard Layer 0 (Background)
//Storyboard Layer 1 (Fail)
//Storyboard Layer 2 (Pass)
//Storyboard Layer 3 (Foreground)
Sprite,Foreground,Centre,"viento.png",320,240 F,0,11428,11503,0,1 S,0,11503,,0.8054399 F,0,11503,11803,1,0
Sprite,Foreground,Centre,"viento.png",320,240 F,0,21021,21096,0,1 S,0,21096,,0.8054399 F,0,21096,21396,1,0
Sprite,Foreground,Centre,"viento.png",320,240 F,0,30615,30690,0,1 S,0,30690,,0.8 F,0,30690,31589,1,0
Sprite,Foreground,Centre,"viento.png",320,240 F,0,40208,40283,0,1 S,0,40283,,0.8 F,0,40283,41182,1,0
Sprite,Foreground,Centre,"ghost.png",320,240 F,0,47403,47478,0,1 F,0,47478,48602,1,0 S,0,47478,73859,0.8 F,0,48602,48677,0,0.5 F,0,48677,49801,1,0 F,0,49801,49876,0,0.5 F,0,49876,51000,1,0 F,0,51000,51075,0,0.5 F,0,51075,52199,1,0 F,0,52199,52274,0,1 F,0,52274,53399,1,0 F,0,53399,56996,0 F,0,56996,57071,0 F,0,57071,58195,1,0 F,0,58195,58270,0,0.5 F,0,58270,59394,1,0 F,0,59394,59469,0,0.5 F,0,59469,60594,1,0 F,0,60594,60669,0,0.5 F,0,60669,61793,1,0 F,0,61793,61868,0,0.5 F,0,61868,63067,0.5,0 F,0,63067,66365,0 F,0,66365,67789,0 F,0,67789,67863,0,0.3292799 F,0,67863,69063,0.41632,0 F,0,67863,70187,0.3292799,0 F,0,70187,70262,0,0.5631999 F,0,70262,71461,0.5631999,0 F,0,71461,73784,0 F,0,73784,73859,0,0.62624 F,0,73859,74459,0.62624,0 S,0,73859,74459,0.8,0.8512 S,0,74459,75058,0.8512,0.7999999
//Storyboard Sound Samples
//Background Colour Transformations
3,100,163,162,255

[TimingPoints]
711,599.580293794344,4,1,1,70,1,0
47476,-100,4,1,1,70,0,1
66363,-100,4,1,1,70,0,0

[Colours]
Combo1 : 202,162,79
Combo2 : 117,196,11
Combo3 : 29,72,99
Combo4 : 214,31,31

[HitObjects]
464,64,711,1,4
464,176,1010,1,4
464,288,1310,1,4
216,288,1610,1,4
104,288,1910,6,0,B|65:273|69:201|119:193,2,110,0|8|0
208,248,2809,1,8
320,248,3109,2,0,B|334:286|406:282|414:232,2,110,0|8|0
368,152,4008,1,8
256,152,4308,2,0,B|294:137|290:65|240:57,2,110,0|8|0
152,112,5207,1,8
152,224,5507,2,0,B|113:238|117:310|167:318,1,110,0|0
256,256,6107,5,0
312,256,6257,1,0
368,256,6407,1,0
424,256,6556,1,0
480,256,6706,6,0,B|496:200|448:152,1,110,4|0
448,96,7156,1,0
400,64,7306,1,0
344,56,7456,2,0,B|328:112|376:160,1,110,4|0
376,208,7905,5,8
320,208,8055,1,8
264,208,8205,1,8
208,208,8355,1,8
96,208,8655,1,2
96,152,8805,1,8
96,96,8955,1,2
152,96,9105,6,0,B|208:80|264:96,1,110,4|0
312,96,9554,1,0
352,136,9704,1,0
296,152,9854,2,0,B|267:204|296:264,1,110,0|0
352,256,10304,5,8
408,256,10454,1,8
464,256,10604,1,8
408,256,10753,1,8
464,352,11053,1,2
408,352,11203,1,8
352,352,11353,1,2
168,352,11503,6,0,B|144:296|168:240,1,110,4|0
224,248,11953,1,0
200,200,12103,1,0
144,192,12252,1,0
32,192,12552,1,0
232,104,13152,6,0,B|184:88|154:27,1,110
312,104,13601,2,0,B|360:88|390:27,1,110
448,32,14051,1,0
448,88,14201,1,8
448,32,14351,1,0
448,88,14501,2,8,B|488:104|488:176|432:192,2,110,0|8|0
416,136,15250,5,0
387,179,15400,1,8
419,223,15550,1,0
464,253,15700,2,8,B|450:288|390:286|374:255,1,110
264,240,16300,6,0,B|239:188|297:188|264:128,1,110,4|0
216,136,16749,1,0
240,88,16899,1,0
296,88,17049,2,0,B|296:32|216:32,1,110,4|0
160,32,17499,5,8
104,32,17649,1,8
160,32,17799,1,8
104,32,17948,1,8
32,32,18248,1,2
32,88,18398,1,8
32,144,18548,1,2
88,144,18698,6,0,B|118:196|85:248,1,110,4|0
88,304,19148,1,0
136,272,19297,1,0
136,328,19447,2,0,B|189:357|241:332,1,110,4|0
296,328,19897,5,8
352,328,20047,1,8
304,296,20197,1,8
360,296,20347,1,8
336,192,20647,1,2
336,136,20796,1,8
336,80,20946,1,2
152,80,21096,6,0,B|152:192,1,110,4|0
208,192,21546,1,0
152,192,21696,1,0
96,192,21846,2,0,B|96:302,1,110
264,288,22595,6,0,B|216:304|186:365,1,110
344,288,23045,2,0,B|392:304|422:365,1,110
480,360,23495,2,0,B|518:345|514:273|464:265,2,110,0|8|0
376,320,24394,1,8
272,368,24694,2,0,B|233:353|237:281|287:273,1,110
296,232,25143,1,0
352,232,25293,1,4
408,232,25443,1,4
464,232,25593,1,4
400,144,25893,5,4
304,96,26193,1,0
208,48,26492,1,0
152,48,26642,1,0
128,96,26792,1,0
72,96,26942,1,0
184,96,27242,1,4
192,208,27542,5,0
136,208,27692,1,0
80,208,27842,1,0
248,208,28291,1,4
360,208,28591,1,0
472,208,28891,2,0,B|510:222|506:294|456:302,2,110,0|8|0
442,254,29640,1,8
280,256,30090,1,8
72,336,30690,5,4
184,336,30839,1,0
80,288,30989,1,0
176,288,31139,1,0
88,240,31289,1,8
168,240,31439,1,0
128,200,31589,1,0
128,32,32039,5,0
128,88,32188,2,0,B|128:200,1,110,0|8
279,105,32788,2,0,B|240:144|240:144|184:144,1,110
80,144,33238,2,0,B|24:144|24:144,1,55
136,144,33687,1,8
248,264,34137,2,8,B|192:264,1,55
192,208,34437,1,8
360,208,34887,6,0,B|384:152|360:96,1,110,8|4
248,104,35486,2,0,B|136:104,1,110,0|4
24,104,36086,1,0
80,104,36236,1,0
80,160,36386,1,0
136,160,36535,1,8
248,160,36835,5,0
248,216,36985,1,0
248,272,37135,1,0
248,216,37285,1,0
248,160,37435,1,0
352,112,37735,6,0,B|400:80|456:111,1,110
456,160,38184,2,0,B|408:192|347:157,1,110
352,112,38634,1,0
352,56,38784,1,0
256,112,39084,1,0
256,168,39234,1,0
256,328,39683,2,8,B|312:328,1,55
368,328,39983,1,8
480,328,40283,5,4
424,328,40433,1,0
424,272,40583,1,0
368,272,40732,1,0
368,216,40882,1,8
312,216,41032,1,8
312,160,41182,1,8
224,24,41632,5,0
224,80,41782,1,0
112,80,42082,1,0
56,80,42231,1,0
128,160,42531,22,0,B|192:128|248:160|224:272|176:264|136:288|128:352|128:352|248:352,1,385,0|8
280,192,43880,2,0,B|344:144|344:144|344:344|344:344|296:352|296:352|408:352,1,440,0|8
464,352,45229,5,8
464,296,45379,1,2
464,240,45529,1,2
464,184,45679,2,2,B|408:184,4,55
464,128,46428,6,0,B|352:128,1,110
296,128,46878,2,0,B|296:240,2,110,0|0|4
208,104,47778,5,2
160,72,47927,1,2
104,64,48077,1,2
48,72,48227,1,2
0,104,48377,1,8
344,104,48677,1,4
208,280,48977,5,2
160,312,49127,1,2
104,320,49277,1,2
48,312,49426,1,2
0,280,49576,1,8
344,280,49876,1,4
304,104,50176,5,2
352,72,50326,1,2
408,64,50476,1,2
464,72,50626,1,2
512,104,50775,1,8
168,104,51075,1,4
304,280,51375,5,2
352,312,51525,1,2
408,320,51675,1,2
464,312,51825,1,2
512,280,51975,1,8
168,280,52274,1,4
96,160,52574,5,0
240,160,52724,1,0
120,120,52874,1,0
216,120,53024,1,0
168,104,53174,1,0
264,200,53474,5,4
288,232,53623,5,0
432,232,53773,1,0
312,272,53923,1,0
408,272,54073,1,0
360,288,54223,1,0
360,336,54373,1,0
304,336,54523,5,4
304,336,54673,2,0,B|194:336,1,110,0|8
32,272,55122,2,0,B|142:272,1,110,0|8
144,40,55722,6,0,B|72:48|80:144,1,110,0|8
168,184,56172,2,0,B|240:176|232:80,1,110,0|8
456,112,56771,1,8
248,40,57071,1,4
48,40,57371,5,2
168,40,57521,1,2
64,88,57671,1,2
184,88,57821,1,2
80,136,57970,1,8
360,136,58270,1,4
360,248,58570,5,2
464,296,58720,1,2
344,296,58870,1,2
448,344,59020,1,2
328,344,59170,1,8
48,344,59469,1,4
48,224,59769,5,2
48,112,59919,1,2
136,48,60069,1,2
224,112,60219,1,2
136,48,60369,1,8
416,48,60669,1,4
416,160,60968,5,2
416,272,61118,1,2
328,336,61268,1,2
240,272,61418,1,2
328,336,61568,1,8
40,336,61868,1,4
40,224,62167,5,0
40,80,62317,1,0
80,200,62467,1,0
80,104,62617,1,0
96,152,62767,1,0
208,152,63067,1,4
320,152,63367,5,0
336,104,63517,1,0
336,200,63666,1,0
376,80,63816,1,0
376,224,63966,1,0
376,152,64116,1,0
432,152,64266,5,4
472,256,64566,2,0,B|510:270|506:342|456:350,2,110,0|8|0
448,304,65315,2,0,B|336:304,1,110
296,264,65765,2,0,B|176:264,1,110,0|8
72,264,66365,1,8
256,192,66664,12,0,67863
168,144,68163,6,8,B|288:144,1,110
392,144,68763,1,8
256,192,69063,12,0,70262
344,240,70562,6,8,B|224:240,1,110
120,240,71161,1,8
120,128,71461,5,0
160,96,71611,1,0
200,64,71761,1,0
240,96,71911,1,0
280,128,72061,2,0,B|336:160|400:112,2,110,0|4|4
280,240,72960,5,0
280,296,73110,1,0
336,296,73260,1,0
392,296,73410,1,0
448,296,73560,2,0,B|440:232|488:192,2,110,0|4|4
256,192,74459,12,0,76258
