osu file format v9

[General]
AudioFilename: Honoo no Running Back.mp3
AudioLeadIn: 2007
PreviewTime: 47476
Countdown: 1
SampleSet: Normal
StackLeniency: 0.7
Mode: 0
LetterboxInBreaks: 1

[Editor]
DistanceSpacing: 0.8
BeatDivisor: 2
GridSize: 8

[Metadata]
Title:Honoo no Running Back
Artist:Short Leg Summer
Creator:Neko_Ray
Version:Slow
Source:Eyeshield 21
Tags:opening OP 5 Kobayakawa Sena Deimon Devil Bats

[Difficulty]
HPDrainRate:2
CircleSize:4
OverallDifficulty:3
ApproachRate:2
SliderMultiplier:1.1
SliderTickRate:2

[Events]
//Background and Video events
0,0,"user100138_pic152115_1238783510.jpg"
//Break Periods
//Storyboard Layer 0 (Background)
//Storyboard Layer 1 (Fail)
//Storyboard Layer 2 (Pass)
//Storyboard Layer 3 (Foreground)
Sprite,Foreground,Centre,"viento.png",320,240 F,0,11428,11503,0,1 S,0,11503,,0.8054399 F,0,11503,11803,1,0
Sprite,Foreground,Centre,"viento.png",320,240 F,0,21021,21096,0,1 S,0,21096,,0.8054399 F,0,21096,21396,1,0
Sprite,Foreground,Centre,"viento.png",320,240 F,0,30615,30690,0,1 S,0,30690,,0.8 F,0,30690,31589,1,0
Sprite,Foreground,Centre,"viento.png",320,240 F,0,40208,40283,0,1 S,0,40283,,0.8 F,0,40283,41182,1,0
Sprite,Foreground,Centre,"ghost.png",320,240 F,0,47403,47478,0,1 F,0,47478,48602,1,0 S,0,47478,73859,0.8 F,0,48602,48677,0,0.5 F,0,48677,49801,1,0 F,0,49801,49876,0,0.5 F,0,49876,51000,1,0 F,0,51000,51075,0,0.5 F,0,51075,52199,1,0 F,0,52199,52274,0,1 F,0,52274,53399,1,0 F,0,53399,56996,0 F,0,56996,57071,0 F,0,57071,58195,1,0 F,0,58195,58270,0,0.5 F,0,58270,59394,1,0 F,0,59394,59469,0,0.5 F,0,59469,60594,1,0 F,0,60594,60669,0,0.5 F,0,60669,61793,1,0 F,0,61793,61868,0,0.5 F,0,61868,63067,0.5,0 F,0,63067,66365,0 F,0,66365,67789,0 F,0,67789,67863,0,0.3292799 F,0,67863,69063,0.41632,0 F,0,67863,70187,0.3292799,0 F,0,70187,70262,0,0.5631999 F,0,70262,71461,0.5631999,0 F,0,71461,73784,0 F,0,73784,73859,0,0.62624 F,0,73859,74459,0.62624,0 S,0,73859,74459,0.8,0.8512 S,0,74459,75058,0.8512,0.7999999
//Storyboard Sound Samples
//Background Colour Transformations
3,100,163,162,255

[TimingPoints]
711,599.580293794344,4,1,1,70,1,0
47476,-100,4,1,1,70,0,1
66363,-100,4,1,1,70,0,0

[Colours]
Combo1 : 202,162,79
Combo2 : 117,196,11
Combo3 : 29,72,99
Combo4 : 214,31,31

[HitObjects]
48,80,711,2,4,B|104:80,3,55
144,80,1910,6,8,B|176:128|144:200,1,110
144,280,3109,2,8,B|192:304|256:280,1,110
344,280,4308,2,8,B|312:224|344:160,1,110
432,168,5507,2,8,B|456:120|432:48,1,110
344,56,6706,5,4
256,56,7306,1,0
168,56,7905,1,0
168,232,9105,5,0
168,144,9704,1,0
168,56,10304,1,4
16,144,11503,6,0,B|16:200,4,55,0|8|0|8|0
16,56,13302,1,0
16,56,13601,1,8
16,56,13901,1,4
64,56,16300,5,4
64,144,16899,1,0
64,232,17499,1,0
240,232,18698,5,0
328,232,19297,1,0
416,232,19897,1,4
416,56,21096,6,0,B|472:56,4,55,0|8|0|8|0
328,56,22895,1,0
328,56,23195,1,8
328,56,23495,1,4
64,56,25293,6,2,B|32:112|64:168,1,110
152,168,26492,2,2,B|200:184|264:168,1,110
352,168,27692,2,2,B|376:232|352:280,1,110
440,278,28891,5,2
440,190,29490,1,8
440,102,30090,1,2
352,104,30690,6,0,B|352:48,3,55,0|0|2|0
264,48,32188,1,0
264,48,32488,1,2
264,48,32788,1,0
264,48,33088,1,0
0,48,34887,6,2,B|56:32|112:48,1,110
112,136,36086,2,2,B|96:192|112:248,1,110
112,336,37285,2,2,B|176:352|232:336,1,110
312,336,38484,1,2
400,336,39084,1,8
488,336,39683,1,2
488,248,40283,6,0,B|432:248,3,55
256,192,41782,12,8,43580
200,40,44480,6,0,B|216:88|200:152,1,110
112,152,45679,1,0
24,152,46279,1,0
184,232,47478,6,2,B|240:232,3,55,4|2|2|2
328,232,48977,2,2,B|328:176,2,55
416,232,50176,2,2,B|416:288,2,55
504,232,51375,2,2,B|504:176,2,55
504,320,52574,6,0,B|440:320,2,55
448,248,53773,2,0,B|448:192,2,55
360,248,54973,1,8
360,160,55572,1,8
360,72,56172,5,8
360,72,56471,1,8
360,72,56771,1,8
360,72,57071,6,2,B|288:72,3,55,4|2|2|2
304,160,58570,2,2,B|304:232,2,55
216,160,59769,2,2,B|216:104,2,55
128,160,60968,2,2,B|128:216,2,55
128,72,62167,6,0,B|128:16,2,55
216,72,63367,2,0,B|272:72,2,55
216,160,64566,1,8
304,160,65165,1,8
392,160,65765,5,8
392,160,66065,1,8
392,160,66365,1,8
256,192,66664,12,4,67863
256,192,69063,12,4,70262
256,192,71461,5,8
344,192,72061,1,8
432,192,72660,1,8
432,192,72960,1,8
256,192,73859,12,4,76258
