osu file format v9

[General]
AudioFilename: Honoo no Running Back.mp3
AudioLeadIn: 2007
PreviewTime: 47476
Countdown: 1
SampleSet: Normal
StackLeniency: 0.7
Mode: 0
LetterboxInBreaks: 1

[Editor]
DistanceSpacing: 0.9
BeatDivisor: 4
GridSize: 8

[Metadata]
Title:Honoo no Running Back
Artist:Short Leg Summer
Creator:Neko_Ray
Version:Fast
Source:Eyeshield 21
Tags:opening OP 5 Kobayakawa Sena Deimon Devil Bats

[Difficulty]
HPDrainRate:4
CircleSize:4
OverallDifficulty:5
ApproachRate:6
SliderMultiplier:1.7
SliderTickRate:4

[Events]
//Background and Video events
0,0,"user100138_pic152115_1238783510.jpg"
//Break Periods
2,14101,15250
//Storyboard Layer 0 (Background)
//Storyboard Layer 1 (Fail)
//Storyboard Layer 2 (Pass)
//Storyboard Layer 3 (Foreground)
Sprite,Foreground,Centre,"viento.png",320,240 F,0,11428,11503,0,1 S,0,11503,,0.8054399 F,0,11503,11803,1,0
Sprite,Foreground,Centre,"viento.png",320,240 F,0,21021,21096,0,1 S,0,21096,,0.8054399 F,0,21096,21396,1,0
Sprite,Foreground,Centre,"viento.png",320,240 F,0,30615,30690,0,1 S,0,30690,,0.8 F,0,30690,31589,1,0
Sprite,Foreground,Centre,"viento.png",320,240 F,0,40208,40283,0,1 S,0,40283,,0.8 F,0,40283,41182,1,0
Sprite,Foreground,Centre,"ghost.png",320,240 F,0,47403,47478,0,1 F,0,47478,48602,1,0 S,0,47478,73859,0.8 F,0,48602,48677,0,0.5 F,0,48677,49801,1,0 F,0,49801,49876,0,0.5 F,0,49876,51000,1,0 F,0,51000,51075,0,0.5 F,0,51075,52199,1,0 F,0,52199,52274,0,1 F,0,52274,53399,1,0 F,0,53399,56996,0 F,0,56996,57071,0 F,0,57071,58195,1,0 F,0,58195,58270,0,0.5 F,0,58270,59394,1,0 F,0,59394,59469,0,0.5 F,0,59469,60594,1,0 F,0,60594,60669,0,0.5 F,0,60669,61793,1,0 F,0,61793,61868,0,0.5 F,0,61868,63067,0.5,0 F,0,63067,66365,0 F,0,66365,67789,0 F,0,67789,67863,0,0.3292799 F,0,67863,69063,0.41632,0 F,0,67863,70187,0.3292799,0 F,0,70187,70262,0,0.5631999 F,0,70262,71461,0.5631999,0 F,0,71461,73784,0 F,0,73784,73859,0,0.62624 F,0,73859,74459,0.62624,0 S,0,73859,74459,0.8,0.8512 S,0,74459,75058,0.8512,0.7999999
//Storyboard Sound Samples
//Background Colour Transformations
3,100,163,162,255

[TimingPoints]
711,599.580293794344,4,1,1,70,1,0
47476,-100,4,1,1,70,0,1
66363,-100,4,1,1,70,0,0

[Colours]
Combo1 : 202,162,79
Combo2 : 117,196,11
Combo3 : 29,72,99
Combo4 : 214,31,31

[HitObjects]
48,336,711,1,0
128,336,1010,1,0
208,336,1310,1,0
288,336,1610,1,0
368,336,1910,6,8,B|416:320|408:272,2,85
320,272,2809,1,0
240,272,3109,2,8,B|192:256|200:208,2,85
200,206,4008,1,0
280,208,4308,2,8,B|328:192|320:144,2,85
200,206,5207,1,0
120,208,5507,2,8,B|72:192|80:144,2,85
80,144,6407,1,0
112,80,6706,6,0,B|216:56|264:128,1,170,4|0
344,128,7606,1,0
424,128,7905,2,0,B|416:184|376:192,3,85,8|8|2|2
320,240,9105,6,0,B|232:288|160:240,1,170
88,208,10004,1,0
88,128,10304,2,0,B|88:40,3,85,8|8|2|2
88,128,11503,5,4
88,208,11803,1,8
144,264,12103,1,0
224,264,12402,1,8
272,208,12702,1,0
424,208,13302,1,0
424,128,13601,1,8
424,48,13901,1,0
64,56,16300,6,4,B|64:144|152:192,1,170,4|0
224,192,17199,1,0
304,192,17499,1,8
304,112,17799,1,8
384,112,18098,1,8
384,192,18398,1,2
464,192,18698,6,0,B|480:288|400:352,1,170
328,344,19597,1,0
248,344,19897,1,8
280,272,20197,1,8
200,272,20497,1,2
168,344,20796,1,2
88,344,21096,5,4
56,272,21396,1,8
88,200,21696,1,0
168,200,21996,1,8
200,128,22295,1,0
336,56,22895,1,0
416,56,23195,1,8
416,136,23495,1,0
472,336,25293,6,2,B|432:368|392:336,1,85
392,264,25893,2,0,B|392:176,1,85
312,176,26492,1,0
272,176,26642,1,0
232,176,26792,2,0,B|144:176,2,85
232,136,27542,1,0
232,96,27692,1,0
232,56,27842,1,0
344,56,28291,5,0
416,32,28591,1,0
488,56,28891,1,8
512,128,29191,1,0
488,200,29490,1,0
336,208,30090,1,8
184,208,30690,6,0,B|136:208,6,42.5
72,208,32039,1,0
72,168,32188,1,0
88,136,32338,1,0
120,112,32488,1,0
200,112,32788,1,0
200,72,32938,1,0
184,40,33088,1,0
152,16,33238,1,0
40,48,34887,6,2,B|80:16|120:48,1,85,8|4
120,120,35486,2,0,B|120:208,1,85,0|4
200,208,36086,1,0
240,208,36236,1,0
280,208,36386,2,0,B|368:208,2,85
280,248,37135,1,0
280,288,37285,1,0
280,328,37435,1,0
168,328,37884,5,0
96,352,38184,1,0
24,328,38484,1,8
0,256,38784,1,0
24,184,39084,1,0
176,176,39683,1,8
256,176,39983,1,8
336,176,40283,6,8,B|384:176,6,42.5
448,176,41632,1,0
448,216,41782,1,0
448,296,42082,1,0
408,296,42231,1,0
256,192,42531,12,0,43880
256,288,44480,6,0,B|256:112,1,170
184,128,45379,1,2
192,88,45529,1,2
216,56,45679,1,2
256,48,45829,1,2
296,56,45979,1,2
320,88,46129,1,2
328,128,46279,1,2
40,224,47478,5,4
120,224,47778,1,2
136,256,47927,1,2
176,264,48077,1,2
216,256,48227,1,2
232,224,48377,1,2
312,224,48677,5,4
392,224,48977,1,2
408,256,49127,1,2
448,264,49277,1,2
488,256,49426,1,2
504,224,49576,1,2
504,144,49876,5,4
424,144,50176,1,2
408,112,50326,1,2
368,104,50476,1,2
328,112,50626,1,2
312,144,50775,1,2
232,144,51075,5,4
152,144,51375,1,2
136,112,51525,1,2
96,104,51675,1,2
56,112,51825,1,2
40,144,51975,1,2
96,288,52574,6,0,B|96:344,4,42.5
248,288,53773,2,0,B|304:288,4,42.5
328,288,54673,5,0
408,288,54973,1,8
440,216,55272,1,0
360,216,55572,1,8
288,208,55872,5,0
336,152,56172,1,8
336,72,56471,1,2
296,8,56771,1,8
256,72,57071,5,4
176,72,57371,1,2
144,88,57521,1,2
136,128,57671,1,2
144,168,57821,1,2
176,184,57970,1,2
256,192,58270,5,4
336,192,58570,1,2
368,208,58720,1,2
376,248,58870,1,2
368,288,59020,1,2
336,304,59170,1,2
256,304,59469,5,4
176,304,59769,1,2
144,288,59919,1,2
136,248,60069,1,2
144,208,60219,1,2
176,192,60369,1,2
256,192,60669,5,4
336,192,60968,1,2
368,176,61118,1,2
376,136,61268,1,2
368,96,61418,1,2
336,80,61568,1,2
184,80,62167,6,0,B|128:80,4,42.5
184,232,63367,2,0,B|184:280,4,42.5
264,232,64266,5,0
344,232,64566,1,8
424,232,64866,1,0
504,232,65165,1,8
496,312,65465,5,0
424,344,65765,1,8
344,344,66065,1,2
272,312,66365,1,8
256,192,66664,12,4,67863
184,160,68163,6,8,B|224:128|304:128|344:160,1,170
256,192,69063,12,4,70262
343,224,70562,6,8,B|304:256|224:256|184:224,1,170
104,224,71461,5,8
24,224,71761,1,0
24,144,72061,2,0,B|104:104|192:152,1,170
264,152,72960,1,8
304,152,73110,2,0,B|352:152,3,42.5
256,192,73859,12,4,76258
