osu file format v9

[General]
AudioFilename: jubeat Long Ver..mp3
AudioLeadIn: 0
PreviewTime: -1
Countdown: 0
SampleSet: Soft
StackLeniency: 0.7
Mode: 0
LetterboxInBreaks: 1

[Editor]
Bookmarks: 128506,134881,139006,142193,175193,182131,207631,226942,236506
DistanceSpacing: 0.8
BeatDivisor: 1
GridSize: 16

[Metadata]
Title:Space Carnival
Artist:Shooting star
Creator:tenno-krs
Version:BigBang
Source:jubeat
Tags:happy new nyaa

[Difficulty]
HPDrainRate:0
CircleSize:3
OverallDifficulty:0
ApproachRate:10
SliderMultiplier:1.4
SliderTickRate:1

[Events]
//Background and Video events
0,0,"Caniko.jpg"
//Break Periods
2,178393,179243
//Storyboard Layer 0 (Background)
//Storyboard Layer 1 (Fail)
//Storyboard Layer 2 (Pass)
//Storyboard Layer 3 (Foreground)
//Storyboard Sound Samples
//Background Colour Transformations
3,100,163,162,255

[TimingPoints]
1194,375,4,2,0,100,1,0
15537,-100,4,1,0,100,0,0
15912,-100,4,2,0,100,0,0
17319,-100,4,1,0,100,0,0
32600,-100,4,2,0,100,0,0
35600,-50,4,2,0,100,0,0
38787,-50,4,1,0,100,0,0
40194,187.5,4,2,0,100,1,0
40944,375,4,1,0,100,1,0
40944,-100,4,1,0,100,0,1
41694,-100,4,1,0,50,0,1
42444,-100,4,1,0,100,0,1
44506,187.5,4,2,0,50,1,1
47506,375,4,2,0,100,1,1
53131,187.5,4,2,0,100,1,0
53131,-50,4,2,0,100,0,0
57724,-50,4,1,0,100,0,0
67290,-50,4,2,1,100,0,0
71599,-50,4,1,0,100,0,0
72912,-50,4,2,1,100,0,0
78068,-50,4,2,0,100,0,0
101787,-50,4,2,0,5,0,0
101974,-50,4,1,0,100,0,0
103131,-50,4,1,0,5,0,0
103256,-50,4,1,0,100,0,0
103849,-50,4,2,0,100,0,0
128506,-50,4,1,0,100,0,0
142099,-50,4,2,2,100,0,0
142193,375,4,2,2,100,1,0
163006,-50,4,2,0,100,0,0
166006,-50,4,2,2,100,0,0
178943,-200,4,2,2,100,0,0
182130,187.5,4,1,0,100,1,0
182130,-50,4,1,0,100,0,0
185317,-50,4,2,0,100,0,0

[Colours]
Combo1 : 255,255,0
Combo2 : 255,255,255
Combo3 : 0,255,255
Combo4 : 255,128,255

[HitObjects]
368,96,1194,5,2
368,96,1287,5,2
368,96,1381,5,2
368,96,1475,5,2
368,96,1569,5,2
368,96,1662,5,2
368,96,1756,5,2
368,96,1850,5,2
368,96,1944,5,2
368,96,2037,5,2
368,96,2131,5,2
368,96,2225,5,2
368,96,2319,5,2
368,96,2412,5,2
368,96,2506,5,2
368,96,2600,5,2
352,304,2694,5,2
352,304,2787,5,2
352,304,2881,5,2
352,304,2975,5,2
352,304,3069,5,2
352,304,3162,5,2
352,304,3256,5,2
352,304,3350,5,2
352,304,3444,5,2
352,304,3537,5,2
352,304,3631,5,2
352,304,3725,5,2
352,304,3819,5,2
352,304,3912,5,2
352,304,4006,5,2
352,304,4100,5,2
144,288,4194,5,2
142,288,4287,5,2
142,288,4381,5,2
142,288,4475,5,2
142,288,4569,5,2
142,288,4662,5,2
142,288,4756,5,2
142,288,4850,5,2
142,288,4944,5,2
144,288,5037,5,2
144,288,5131,5,2
144,288,5225,5,2
144,288,5319,5,2
144,288,5412,5,2
144,288,5506,5,2
144,288,5600,5,2
160,80,5694,5,2
160,80,5787,5,2
160,80,5881,5,2
160,80,5975,5,2
160,80,6069,5,2
160,80,6162,5,2
160,80,6256,5,2
160,80,6350,5,2
160,80,6444,5,2
160,80,6537,5,2
160,80,6631,5,2
160,80,6725,5,2
160,80,6819,5,2
160,80,6912,5,2
160,80,7006,5,2
160,80,7100,5,2
368,96,7194,1,2
160,80,7287,1,2
352,304,7381,1,2
368,96,7475,1,2
160,80,7569,1,2
144,288,7662,1,2
352,304,7756,1,2
368,96,7850,1,2
368,96,7944,1,2
144,288,8037,1,2
368,96,8131,1,2
368,96,8225,1,2
160,80,8319,1,2
368,96,8412,1,2
160,80,8506,1,2
144,288,8600,1,2
352,304,8694,1,2
368,96,8787,1,2
352,304,8881,1,2
144,288,8975,1,2
352,304,9069,1,2
352,304,9162,1,2
144,288,9256,1,2
368,96,9350,1,2
160,80,9444,1,2
368,96,9537,1,2
352,304,9631,1,2
352,304,9725,1,2
160,80,9819,1,2
352,304,9912,1,2
352,304,10006,1,2
368,96,10100,1,2
160,80,10194,1,2
368,96,10287,1,2
160,80,10381,1,2
144,288,10475,1,2
352,304,10569,1,2
144,288,10662,1,2
368,96,10756,1,2
160,80,10850,1,2
368,96,10944,1,2
144,288,11037,1,2
352,304,11131,1,2
160,80,11225,1,2
144,288,11319,1,2
352,64,11412,5,2
304,160,11506,5,0
288,256,11506,5,0
198,239,11506,5,0
208,144,11506,5,0
192,192,11881,5,0
256,144,12069,5,0
304,208,12256,5,0
240,256,12444,5,0
248,198,12631,5,0
248,198,12819,5,0
268,36,13006,5,2
80,176,13006,5,2
232,354,13006,5,2
432,208,13006,5,2
64,352,13381,5,0
448,32,13381,5,0
64,272,13569,5,0
448,112,13569,5,0
64,192,13756,5,0
448,192,13756,5,0
64,112,13944,5,0
448,272,13944,5,0
448,352,14131,5,0
64,32,14131,5,0
128,80,14319,5,0
384,304,14319,5,0
256,272,14506,5,2
512,384,14506,5,2
336,192,14506,5,2
256,112,14506,5,2
512,0,14506,5,2
0,384,14506,5,2
0,0,14506,5,2
176,192,14506,5,2
256,0,14881,5,0
256,384,14881,5,0
512,192,14881,5,0
0,192,14881,5,0
384,16,15069,5,0
128,368,15069,5,0
128,16,15069,5,0
384,368,15069,5,0
464,304,15256,5,0
32,80,15256,5,0
32,304,15256,5,0
464,96,15256,5,0
384,368,15444,5,0
128,16,15444,5,0
128,368,15444,5,0
32,304,15444,5,0
384,16,15444,5,0
32,80,15444,5,0
464,304,15444,5,0
464,96,15444,5,0
0,0,15631,1,0
0,0,15819,5,0
104,160,16006,5,8
44,116,16006,5,8
60,48,16006,5,8
136,40,16006,5,8
160,112,16006,5,8
412,140,16381,5,8
348,84,16381,5,8
280,140,16381,5,8
392,216,16381,5,8
308,216,16381,5,8
128,256,16756,5,0
208,280,16756,5,0
180,192,16756,5,0
48,152,16756,5,8
76,192,16756,5,0
48,280,16756,5,0
132,384,16756,5,8
4,300,16756,5,8
208,156,16756,5,0
248,296,16756,5,8
132,336,16756,5,0
96,76,17506,5,0
396,88,17694,1,0
104,192,17881,1,0
372,216,18069,1,0
224,300,18256,1,0
248,104,18444,1,0
0,192,17506,6,0,B|0:384|0:384|260:384,1,420
408,32,18631,5,0
64,108,19006,1,0
416,236,19569,1,0
84,300,19944,1,0
224,180,20131,1,0
284,384,19006,6,0,B|512:384|512:384|512:192,1,420
56,24,20506,5,0
308,192,20881,1,0
432,228,21069,1,0
316,264,21256,1,0
384,160,21444,1,0
512,192,20506,6,0,B|512:0|512:0|252:0,1,420
388,288,21631,1,0
92,100,22006,5,0
260,100,22569,1,0
320,100,22756,1,0
384,96,22944,1,0
384,184,23131,1,0
228,0,22006,6,0,B|0:0|0:0|0:192,1,420
500,8,23506,1,0
80,228,23600,1,0
500,8,23694,1,0
108,280,23787,1,0
500,8,23881,1,0
156,320,23975,1,0
500,8,24069,1,0
80,228,24162,1,0
108,280,24256,1,0
108,280,24350,1,0
500,8,24444,1,0
156,320,24537,1,0
0,192,23506,6,0,B|0:384|0:384|260:384,1,420
16,0,25006,5,0
360,328,25100,1,0
16,0,25194,1,0
404,288,25287,1,0
16,0,25381,1,0
428,228,25475,1,0
16,0,25569,1,0
360,328,25662,1,0
16,0,25756,1,0
404,288,25850,1,0
16,0,25944,1,0
428,228,26037,1,0
284,384,25006,6,0,B|512:384|512:384|512:192,1,420
148,96,26506,5,0
188,328,26600,1,0
292,128,26694,1,0
88,220,26787,1,0
312,268,26881,1,0
148,96,26975,1,0
188,328,27069,1,0
292,128,27162,1,0
88,220,27256,1,0
312,268,27350,1,0
148,96,27444,1,0
188,328,27537,1,0
512,192,26506,6,0,B|512:0|512:0|252:0,1,420
292,128,27631,1,0
364,288,28006,5,0
324,56,28100,1,0
220,256,28194,1,0
424,164,28287,1,0
200,116,28381,1,0
364,288,28475,1,0
324,56,28569,1,0
220,256,28662,1,0
424,164,28756,1,0
200,116,28850,1,0
364,288,28944,1,0
324,56,29037,1,0
220,256,29131,1,0
228,0,28006,6,0,B|0:0|0:0|0:192,1,420
312,64,30069,5,8
416,228,30069,5,8
272,200,30069,5,8
0,32,30069,5,0
444,100,30069,5,8
184,88,30256,5,0
340,80,30444,5,8
0,160,30444,5,0
396,264,30444,5,8
272,200,30444,5,8
464,144,30444,5,8
176,216,30631,5,0
368,104,30819,1,8
272,200,30819,1,8
360,288,30819,1,8
456,196,30819,1,8
0,288,30819,5,0
184,344,31006,5,0
0,348,31194,5,8
464,40,31194,5,8
424,48,31240,5,0
384,60,31287,5,0
348,84,31334,5,0
184,296,31381,5,0
324,124,31381,5,0
320,168,31428,5,0
344,208,31475,5,0
384,224,31522,5,0
0,232,31569,5,8
416,236,31569,5,8
452,264,31615,5,0
440,308,31662,5,0
408,332,31709,5,0
184,168,31756,5,0
368,332,31756,5,0
332,312,31803,5,0
320,276,31850,5,0
312,236,31897,5,0
0,112,31944,5,8
324,196,31944,5,8
352,168,31990,5,0
388,156,32037,5,0
428,148,32084,5,0
184,68,32131,5,0
460,176,32131,5,0
480,208,32178,5,0
480,208,32225,5,0
492,240,32272,5,0
68,200,32319,5,8
492,280,32319,5,8
480,316,32365,5,0
460,348,32412,5,0
428,372,32459,5,0
72,12,32506,5,0
392,376,32506,5,0
256,56,32694,5,2
388,192,32694,5,2
384,56,32694,5,2
256,192,32694,5,2
256,328,32881,5,2
388,192,32881,5,2
256,192,32881,5,2
392,328,32881,5,2
112,192,33069,5,2
256,328,33069,5,2
256,192,33069,5,2
112,324,33069,5,2
256,56,33256,5,2
112,192,33256,5,2
256,192,33256,5,2
124,56,33256,5,2
512,0,33444,5,2
256,192,33444,5,2
256,0,33444,5,2
512,192,33444,5,2
256,192,33631,5,2
512,192,33631,5,2
256,384,33631,5,2
512,384,33631,5,2
256,192,33819,5,2
256,384,33819,5,2
0,384,33819,5,2
0,192,33819,5,2
0,0,34006,5,2
0,192,34006,5,2
256,0,34006,5,2
256,192,34006,5,2
384,56,34194,5,6
256,192,34194,5,6
256,56,34194,5,6
320,192,34194,5,4
256,120,34194,5,4
316,56,34194,5,4
388,192,34194,5,6
384,128,34194,5,4
324,328,34381,5,4
320,192,34381,5,4
392,328,34381,5,6
256,264,34381,5,4
392,264,34381,5,4
256,192,34381,5,6
388,192,34381,5,6
256,328,34381,5,6
256,264,34569,5,4
184,192,34569,5,4
112,324,34569,5,6
184,324,34569,5,4
112,256,34569,5,4
256,192,34569,5,6
256,328,34569,5,6
112,192,34569,5,6
256,192,34756,5,6
124,56,34756,5,6
256,120,34756,5,0
188,56,34756,5,4
184,192,34756,5,4
112,192,34756,5,6
256,56,34756,5,6
120,128,34756,5,4
512,0,34944,5,14
256,192,34944,5,14
512,192,34944,5,14
256,0,34944,5,14
256,96,34944,5,12
384,0,34944,5,12
384,192,34944,5,12
508,100,34944,5,12
384,192,35131,5,12
256,288,35131,5,12
512,288,35131,5,12
388,384,35131,5,12
512,192,35131,5,14
512,384,35131,5,14
256,384,35131,5,14
256,192,35131,5,14
128,384,35319,5,12
0,288,35319,5,12
128,192,35319,5,12
256,288,35319,5,12
256,192,35319,5,14
0,384,35319,5,14
0,192,35319,5,14
256,384,35319,5,14
128,192,35506,5,12
128,0,35506,5,12
256,120,35506,5,12
0,96,35506,5,12
0,0,35506,5,14
256,0,35506,5,14
256,192,35506,5,14
0,192,35506,5,14
512,0,36069,5,2
0,384,36069,5,2
512,384,36069,5,2
0,0,36069,5,2
392,144,36069,6,0,B|48:144,1,280
512,384,36444,5,2
512,0,36444,5,2
0,384,36444,5,2
0,0,36444,5,2
512,384,36819,5,2
512,0,36819,5,2
0,384,36819,5,2
112,144,36444,6,0,B|360:344,1,280
0,0,36819,5,2
512,0,37194,5,2
0,384,37194,5,2
512,384,37194,5,2
329,319,36819,6,0,B|255:39,1,280
0,0,37194,5,2
258,49,37194,6,0,B|175:319,1,280
512,0,37569,5,2
0,384,37569,5,2
512,384,37569,5,2
0,0,37569,5,2
176,316,37569,6,0,B|399:135,1,280
0,384,37944,5,2
512,384,37944,5,2
0,0,37944,5,2
512,0,37944,5,2
392,144,37944,6,0,B|104:144,1,280
0,384,38319,5,2
512,384,38319,5,2
0,0,38319,5,2
512,0,38319,5,2
288,228,38694,5,0
216,280,38694,5,0
240,240,38694,5,0
0,0,38694,5,0
256,48,38694,5,0
72,0,38694,5,0
0,72,38694,5,0
512,308,38694,5,0
284,280,38694,5,0
220,144,38694,5,0
176,312,38694,5,0
344,180,38694,5,0
0,304,38694,5,0
256,188,38694,5,0
76,380,38694,5,0
344,144,38694,5,0
512,76,38694,5,0
200,212,38694,5,0
112,144,38694,5,0
296,144,38694,5,0
280,104,38694,5,0
436,380,38694,5,0
332,316,38694,5,0
172,264,38694,5,0
232,104,38694,5,0
512,0,38694,5,0
512,384,38694,5,0
304,192,38694,5,0
392,144,38694,5,0
168,132,38694,5,0
168,184,38694,5,0
440,0,38694,5,0
332,252,38694,5,0
0,192,38881,1,0
88,108,39069,1,0
128,268,39256,1,0
192,16,39444,1,0
264,352,39631,1,0
328,80,39819,1,0
384,240,40006,1,0
512,0,40194,5,0
480,384,40217,1,0
352,0,40240,1,0
320,384,40264,1,0
192,0,40287,1,0
160,384,40311,1,0
32,0,40334,1,0
0,384,40358,1,0
512,0,40569,5,0
0,0,40592,1,0
512,128,40615,1,0
0,128,40639,1,0
512,256,40662,1,0
0,256,40686,1,0
512,384,40709,1,0
0,384,40733,1,0
0,0,40756,5,0
512,384,40779,1,0
160,0,40803,1,0
352,384,40826,1,0
352,0,40850,1,0
160,384,40873,1,0
512,0,40897,1,0
0,384,40920,1,0
112,192,41131,5,0
272,64,41319,1,0
320,256,41506,1,0
64,192,41881,5,0
128,160,41881,5,0
120,228,41881,5,0
248,32,42069,5,0
312,60,42069,5,0
256,100,42069,5,0
308,292,42256,5,0
288,224,42256,5,0
356,240,42256,5,0
444,324,42631,5,0
428,160,43006,5,0
380,184,43006,5,0
248,32,43381,5,0
312,60,43381,5,0
256,100,43381,5,0
80,132,43756,5,0
44,84,43756,5,0
96,48,43756,5,0
132,96,43756,5,0
48,292,44131,5,0
88,344,44131,5,0
152,324,44131,5,0
88,232,44131,5,0
152,256,44131,5,0
256,0,44506,5,0
256,384,44529,1,0
256,0,44552,1,0
304,384,44576,1,0
128,384,44599,1,0
256,0,44623,1,0
192,384,44646,1,0
256,0,44670,1,0
368,384,44693,1,0
256,0,44716,1,0
416,384,44740,1,0
256,0,44763,1,0
192,384,44787,1,0
256,0,44810,1,0
64,384,44834,1,0
256,0,44857,1,0
464,384,44881,1,0
256,0,44904,1,0
16,384,44927,1,0
256,0,44951,1,0
192,384,44974,1,0
256,0,44998,1,0
512,384,45021,1,0
256,0,45045,1,0
368,384,45068,1,0
256,0,45091,1,0
304,384,45115,1,0
256,0,45138,1,0
128,384,45162,1,0
256,0,45185,1,0
64,384,45209,1,0
464,384,45232,1,0
256,0,45256,1,0
256,0,45279,1,0
256,384,45302,1,0
128,384,45326,1,0
256,0,45349,1,0
416,384,45373,1,0
256,0,45396,1,0
16,384,45420,1,0
256,0,45443,1,0
512,384,45466,1,0
256,0,45490,1,0
256,0,45513,1,0
368,384,45537,1,0
256,0,45560,1,0
192,384,45584,1,0
256,0,45607,1,0
304,384,45631,1,0
256,0,45654,1,0
128,384,45677,1,0
256,0,45701,1,0
192,384,45724,1,0
256,0,45748,1,0
416,384,45771,1,0
256,0,45795,1,0
464,384,45818,1,0
256,0,45841,1,0
368,384,45865,1,0
256,0,45888,1,0
128,384,45912,1,0
256,0,45935,1,0
256,384,45959,1,0
256,384,45982,1,0
0,0,46006,1,0
464,384,46029,1,0
512,0,46052,1,0
64,384,46076,1,0
0,0,46099,1,0
368,384,46123,1,0
512,0,46146,1,0
192,384,46170,1,0
0,0,46193,1,0
416,384,46216,1,0
512,0,46240,1,0
16,384,46263,1,0
0,0,46287,1,0
512,384,46310,1,0
512,0,46334,1,0
192,384,46357,1,0
0,0,46381,1,0
304,384,46404,1,0
512,0,46427,1,0
16,384,46451,1,0
0,0,46474,1,0
416,384,46498,1,0
512,0,46521,1,0
64,384,46545,1,0
0,0,46568,1,0
368,384,46591,1,0
512,0,46615,1,0
16,384,46638,1,0
0,0,46662,1,0
304,384,46685,1,0
512,0,46709,1,0
256,384,46732,1,0
0,0,46756,1,0
16,384,46779,1,0
512,0,46802,1,0
512,384,46826,1,0
0,0,46849,1,0
304,384,46873,1,0
512,0,46896,1,0
128,384,46920,1,0
0,0,46943,1,0
64,384,46966,1,0
512,0,46990,1,0
464,384,47013,1,0
0,0,47037,1,0
304,384,47060,1,0
512,0,47084,1,0
192,384,47107,1,0
0,0,47131,1,0
368,384,47154,1,0
512,0,47177,1,0
16,384,47201,1,0
0,0,47224,1,0
192,384,47248,1,0
512,0,47271,1,0
416,384,47295,1,0
0,0,47318,1,0
256,384,47341,1,0
512,0,47365,1,0
416,384,47388,1,0
0,0,47412,1,0
128,384,47435,1,0
512,0,47459,1,0
464,384,47482,1,0
188,376,47506,5,0
260,176,47506,5,0
428,304,47506,5,0
332,0,47506,5,0
204,208,47506,5,0
92,64,47506,5,0
316,144,47506,5,0
364,168,47881,5,0
496,192,47881,5,0
420,24,47881,5,0
284,80,47881,5,0
344,264,47881,5,0
424,128,47881,5,0
148,216,48256,5,0
8,168,48256,5,0
68,352,48256,5,0
144,112,48256,5,0
220,280,48256,5,0
88,256,48256,5,0
0,0,48631,5,0
4,68,48677,1,0
72,16,48724,1,0
56,112,48771,1,0
152,24,48818,1,0
44,192,48865,1,0
236,52,48912,1,0
88,256,48959,1,0
316,76,49006,1,0
112,336,49052,1,0
388,60,49099,1,0
192,340,49146,1,0
448,100,49193,1,0
264,364,49240,1,0
472,172,49287,1,0
328,356,49334,1,0
456,252,49381,1,0
388,368,49427,1,0
512,316,49474,1,0
456,384,49521,1,0
208,280,49756,5,8
132,384,49756,5,8
208,156,49756,5,8
128,256,49756,5,8
48,280,49756,5,8
132,336,49756,5,8
48,152,49756,5,8
248,296,49756,5,8
180,192,49756,5,8
76,192,49756,5,8
4,300,49756,5,8
428,196,50131,5,8
324,196,50131,5,8
456,232,50131,5,8
496,92,50131,5,8
380,52,50131,5,8
296,236,50131,5,8
296,108,50131,5,8
380,4,50131,5,8
456,108,50131,5,8
252,88,50131,5,8
376,132,50131,5,8
512,0,50506,5,0
0,384,50599,1,0
0,0,50693,5,0
512,384,50787,1,0
0,384,50881,5,0
512,0,50974,1,0
512,384,51068,5,8
0,0,51162,1,0
512,0,51256,5,0
0,384,51349,1,0
0,0,51443,5,0
512,384,51537,1,0
0,384,51631,5,0
512,0,51724,1,0
512,384,51818,5,8
0,0,51912,1,0
0,384,52006,5,0
512,0,52099,1,0
0,0,52193,5,0
512,384,52287,1,0
512,0,52381,5,0
0,384,52474,1,0
512,384,52568,5,8
0,0,52662,1,0
512,0,52756,5,0
0,384,52849,1,0
0,0,52943,1,8
512,0,52943,5,8
0,384,52943,1,8
512,384,52943,1,8
256,192,50506,12,0,52943
256,36,53131,2,0,B|108:284,1,280
392,280,53131,2,0,B|251:37,1,280
107,277,53131,2,0,B|419:277,1,280
391,117,53318,2,0,B|79:117,1,280
112,112,53318,2,0,B|252:354,1,280
252,356,53318,2,0,B|400:108,1,280
392,280,53881,5,0
106,114,53881,1,0
108,276,54068,5,0
392,116,54068,1,0
256,36,54256,5,0
256,356,54256,1,0
144,32,54631,5,2
64,32,54631,5,2
144,112,54631,5,2
64,112,54631,5,2
496,80,54818,5,2
496,0,54818,5,2
416,0,54818,5,2
416,80,54818,5,2
0,304,55006,5,2
80,304,55006,5,2
80,384,55006,5,2
0,384,55006,5,2
416,176,55381,5,2
336,176,55381,5,2
336,256,55381,5,2
416,256,55381,5,2
224,48,55756,5,2
144,48,55756,5,2
144,128,55756,5,2
224,128,55756,5,2
256,304,56131,5,2
336,384,56131,5,2
336,304,56131,5,2
256,384,56131,5,2
56,314,56506,5,0
459,216,56881,1,0
93,60,57068,1,0
287,384,57256,1,0
327,7,57443,1,0
68,306,57631,1,0
295,90,57818,5,0
158,116,57818,5,0
373,202,57818,5,0
141,257,57818,5,0
268,305,57818,5,0
269,149,58006,5,0
261,246,58006,5,0
199,225,58006,5,0
302,205,58006,5,0
209,165,58006,5,0
500,276,58381,5,0
24,92,58381,5,0
376,296,58381,5,0
108,0,58381,5,0
136,68,58381,5,0
32,16,58381,5,0
412,360,58381,5,0
488,348,58381,5,0
92,124,58381,5,0
428,236,58381,5,0
432,20,58756,5,0
80,316,58756,5,0
488,72,58756,5,0
36,376,58756,5,0
508,0,58756,5,0
8,308,58756,5,0
200,136,59131,5,0
304,68,59131,5,0
344,184,59131,5,0
392,184,59131,5,0
288,268,59131,5,0
264,188,59131,5,0
308,312,59131,5,0
288,108,59131,5,0
200,240,59131,5,0
164,108,59131,5,0
160,268,59131,5,0
72,64,59131,2,0,B|0:192|84:372,2,280
440,320,59131,2,0,B|512:192|428:12,2,280
96,384,59881,2,0,B|384:384,1,280
416,0,59881,2,0,B|128:0,1,280
136,0,60068,2,0,B|352:192,1,280
376,384,60068,2,0,B|160:192,1,280
32,288,60631,2,0,B|192:160|192:160|96:64,1,280
480,96,61006,2,0,B|320:224|320:224|416:320,1,280
0,96,61381,2,0,B|128:0|128:0|256:96,1,280
512,288,61756,2,0,B|384:384|384:384|256:288,1,280
204,381,62131,6,0,B|32:384|0:224,2,280
352,288,62506,1,0
512,224,62131,6,0,B|480:384|288:384,2,280
307,2,62131,6,0,B|480:0|512:160,2,280
0,160,62131,6,0,B|32:0|224:0,2,280
96,224,62693,1,0
384,96,62881,1,0
0,384,63068,1,0
512,0,63256,1,0
256,192,63443,1,0
128,96,63631,1,0
448,256,63818,1,0
96,320,64006,1,0
192,352,64099,1,0
320,320,64193,1,0
416,192,64287,1,0
352,64,64381,1,0
160,32,64474,1,0
32,192,64568,1,0
256,288,64662,1,0
448,64,64756,1,0
64,32,64849,1,0
256,384,64943,1,0
512,0,65037,1,0
0,128,65131,1,0
512,384,65224,1,0
256,0,65318,1,0
256,192,65412,5,0
192,256,65506,5,0
320,128,65506,5,0
192,128,65506,5,0
320,256,65506,5,0
384,64,65881,5,0
128,320,65881,5,0
384,320,65881,5,0
128,64,65881,5,0
0,0,66256,1,0
512,0,66256,1,0
512,384,66256,5,0
0,384,66256,1,0
0,384,67006,1,0
512,384,67006,1,0
0,0,67006,1,0
256,320,66631,2,0,B|0:256|0:128|64:32|160:32|224:32|256:128,1,560
256,320,66631,2,0,B|512:256|512:128|448:32|352:32|288:32|256:128,1,560
512,0,67006,1,0
32,32,67381,5,0
368,176,67568,1,8
0,224,67662,1,0
240,16,67756,1,0
192,320,67943,1,0
32,32,68131,1,0
464,208,68318,1,8
32,352,68506,1,0
320,0,68881,1,0
304,384,68974,1,0
32,32,69068,1,8
464,208,69162,1,8
32,352,69256,1,0
320,0,69349,1,0
304,384,69443,1,8
32,32,69537,1,8
464,208,69631,1,0
32,352,69724,1,0
320,0,69818,1,8
304,384,70006,1,4
512,0,70381,5,0
288,0,70568,1,8
512,192,70756,1,8
64,0,70943,1,0
512,368,71131,1,0
0,176,71318,1,8
192,384,71506,1,0
16,48,71693,5,2
112,48,71693,5,2
16,144,71693,5,2
112,144,71693,5,2
288,112,72068,5,2
384,112,72068,5,2
288,16,72068,5,2
384,16,72068,5,2
80,352,72443,5,2
176,352,72443,5,2
80,256,72443,5,2
176,256,72443,5,2
448,224,72818,5,2
352,224,72818,5,2
352,320,72818,5,2
448,320,72818,5,2
256,192,73006,5,4
128,80,73380,1,0
384,304,73474,1,0
384,80,73568,1,0
128,304,73661,1,0
256,192,73756,1,8
256,16,73943,1,8
64,192,74131,1,8
480,192,74318,1,0
256,352,74506,1,0
128,80,74693,1,8
384,80,74787,1,8
128,304,74881,1,0
384,304,75068,1,8
480,192,75162,1,8
384,80,75256,1,0
256,16,75443,1,8
128,80,75537,1,8
64,192,75631,1,0
128,304,75818,1,8
256,352,76006,1,4
16,384,76381,1,0
512,0,76568,1,8
512,384,76756,1,8
0,0,76943,1,0
144,192,77131,1,0
368,192,77318,1,8
432,96,77506,5,4
80,96,77506,5,4
80,288,77506,5,4
432,288,77506,5,4
336,160,77881,5,4
176,160,77881,5,4
176,240,77881,5,4
336,240,77881,5,4
0,0,78256,5,8
512,192,78256,5,8
512,384,78256,5,8
256,384,78256,5,8
0,192,78256,5,8
0,384,78256,5,8
512,0,78256,5,8
256,0,78256,5,8
256,192,78256,5,8
512,384,79006,2,0,B|512:80,1,280
0,0,79381,2,0,B|0:288,1,280
512,0,79756,2,0,B|192:0,1,280
0,384,80131,2,0,B|304:384,1,280
112,0,80506,2,0,B|352:224,1,280
400,384,80881,2,0,B|176:176,1,280
400,256,81256,2,0,B|480:176|480:80|400:0,1,280
112,128,81631,2,0,B|32:208|32:304|112:384,1,280
160,272,82006,2,0,B|336:272,1,140
224,176,82193,2,0,B|384:176,1,140
480,176,82287,2,0,B|480:0,1,140
32,176,82381,2,0,B|32:16,1,140
400,16,82474,2,0,B|288:112,1,140
256,0,82568,2,0,B|144:112,1,140
112,0,82662,2,0,B|-16:112,1,140
368,336,82849,5,0
240,336,82943,5,0
96,336,83037,5,0
480,304,82756,2,0,B|352:160|128:160|-16:320,1,560
0,318,83131,6,0,B|-16:160,1,140
0,178,83224,6,0,B|32:96|128:80,1,140
89,89,83318,6,0,B|160:48|256:48,1,140
221,49,83412,6,0,B|320:48|384:80,1,140
359,69,83506,6,0,B|448:112|480:144,1,140
478,142,83693,6,0,B|304:176,1,140
478,142,83787,6,0,B|368:272,1,140
478,142,83881,6,0,B|480:304,1,140
478,142,83974,6,8,B|480:-16,6,140
0,368,84631,2,0,B|32:224,1,140
112,288,84724,2,0,B|176:144,1,140
256,240,84818,6,0,B|368:128,1,140
384,336,84912,2,0,B|512:272,1,140
464,0,85006,2,0,B|400:0|400:0|400:64|400:64|400:80,1,140
480,144,85099,2,0,B|416:144|416:144|416:208|416:208|416:224,1,140
416,224,85193,2,0,B|352:224|352:224|352:288|352:288|352:304,1,140
352,304,85287,2,0,B|352:368|352:368|288:368|288:368|272:368,1,140
272,368,85381,2,0,B|272:304|272:304|208:304|208:304|192:304,1,140
256,224,85474,2,0,B|192:224|192:224|192:288|192:288|192:304,1,140
256,224,85568,2,0,B|256:212|256:212|256:148|256:148|192:148,1,140
256,64,85662,2,0,B|192:64|192:64|192:128|192:128|192:144,1,140
256,64,85756,2,0,B|268:64|268:64|332:64|332:64|332:0,1,140
332,0,85849,2,0,B|176:0,1,140
192,0,85943,2,0,B|180:0|180:0|116:0|116:0|116:64,1,140
128,64,86037,2,0,B|128:128|128:128|64:128|64:128|48:128,1,140
48,128,86131,2,0,B|48:140|48:140|48:204|48:204|112:204,1,140
112,208,86224,2,0,B|112:272|112:272|48:272|48:272|32:272,1,140
32,272,86318,2,0,B|32:336|32:336|96:336|96:336|112:336,1,140
108,336,86412,2,0,B|256:336,1,140
248,336,86506,2,0,B|144:224,1,140
248,336,86599,2,0,B|247:196,1,140
248,336,86693,2,0,B|368:208,1,140
248,336,86787,2,0,B|400:336,1,140
384,336,86881,2,0,B|384:272|384:272|448:272|448:272|464:272,1,140
464,272,86974,2,0,B|464:208|464:208|400:208|400:208|384:208,1,140
384,208,87068,2,0,B|384:196|384:196|384:132|384:132|448:132,1,140
448,132,87162,2,0,B|448:-48,1,140
448,0,87256,2,0,B|306:-8,1,140
448,0,87349,2,0,B|336:112,1,140
308,0,87443,2,0,B|176:128,1,140
352,94,87537,2,0,B|208:96,1,140
210,92,87631,2,0,B|80:0,1,140
210,92,87724,2,0,B|192:240,1,140
96,11,87818,2,0,B|64:176,1,140
193,231,87912,2,0,B|64:144,1,140
69,148,88006,2,0,B|-16:272,1,140
0,263,88099,2,0,B|96:368,1,140
89,361,88193,2,0,B|144:384|208:384|256:320,1,140
223,352,88287,2,0,B|320:368|400:256,1,140
351,310,88381,2,0,B|448:288|464:208,1,140
458,229,88474,2,0,B|512:112|448:64,1,140
473,94,88568,2,0,B|320:96,1,140
333,95,88662,2,0,B|208:0,1,140
222,10,88756,2,0,B|384:32,1,140
361,29,88849,2,0,B|208:112,1,140
238,95,88943,2,0,B|368:208,1,140
344,187,89037,2,0,B|192:192,1,140
204,191,89131,2,0,B|320:272,1,140
319,271,89224,2,0,B|160:272,1,140
179,271,89318,2,0,B|320:368,1,140
294,350,89412,2,0,B|144:368,1,140
155,366,89506,2,0,B|32:272,1,140
44,281,89599,2,0,B|144:160,1,140
133,173,89693,2,0,B|160:32,1,140
159,35,89787,2,0,B|48:144,1,140
58,133,89881,2,0,B|208:112,1,140
197,113,89974,2,0,B|64:48,1,140
71,51,90068,2,0,B|144:192,1,140
133,173,90162,2,0,B|160:32,1,140
352,224,90256,2,0,B|480:288,1,140
477,286,90349,2,0,B|320:320,1,140
340,315,90443,2,0,B|432:208,1,140
431,209,90537,2,0,B|432:352,1,140
431,349,90631,2,0,B|352:224,1,140
352,224,90724,2,0,B|512:304,1,140
64,384,91568,5,0
112,384,91591,5,0
432,0,91592,5,0
160,384,91615,5,0
384,0,91615,5,0
208,384,91638,5,0
336,0,91639,5,0
288,0,91662,5,0
256,384,91662,5,0
304,384,91685,5,0
240,0,91686,5,0
352,384,91709,5,0
192,0,91709,5,0
400,384,91732,5,0
144,0,91733,5,0
96,0,91756,5,0
0,0,91943,5,0
0,48,91966,5,0
480,384,91967,5,0
480,336,91990,5,0
0,96,91990,5,0
0,144,92013,5,0
480,288,92014,5,0
480,240,92037,5,0
0,192,92037,5,0
0,240,92060,5,0
480,192,92061,5,0
480,144,92084,5,0
0,288,92084,5,0
0,336,92107,5,0
480,96,92108,5,0
480,48,92131,5,0
408,56,92318,5,0
88,56,92318,5,0
360,96,92341,5,0
136,96,92341,5,0
312,128,92365,5,0
184,128,92365,5,0
272,168,92388,5,0
224,168,92388,5,0
232,208,92412,5,0
264,208,92412,5,0
184,240,92435,5,0
312,240,92435,5,0
128,280,92459,5,0
368,280,92459,5,0
80,320,92482,5,0
416,320,92482,5,0
0,384,92693,1,0
48,384,92716,1,0
96,384,92740,1,0
144,384,92763,1,0
192,384,92787,1,0
240,384,92810,1,0
288,384,92834,1,0
336,384,92857,1,0
384,384,92881,1,0
432,384,92904,1,0
480,384,92927,1,0
480,336,92951,1,0
480,288,92974,1,0
480,240,92998,1,0
480,192,93021,1,0
480,192,93045,1,0
480,144,93068,1,0
480,96,93091,1,0
480,48,93115,1,0
480,0,93138,1,0
416,0,93162,1,0
368,0,93185,1,0
320,0,93209,1,0
272,0,93232,1,0
224,0,93256,1,0
224,0,93279,1,0
176,0,93302,1,0
136,0,93326,1,0
96,0,93349,1,0
56,0,93373,1,0
0,0,93396,1,0
0,48,93420,1,0
0,96,93443,1,0
0,144,93466,1,0
0,192,93490,1,0
0,192,93513,1,0
0,240,93537,1,0
0,240,93560,1,0
0,288,93584,1,0
0,336,93607,1,0
0,336,93631,1,0
368,312,93654,1,0
112,200,93677,1,0
368,96,93701,1,0
112,96,93724,1,0
240,136,93748,1,0
112,304,93771,1,0
368,200,93795,1,0
240,288,93818,1,0
88,96,94569,5,8
56,64,94569,5,8
96,56,94569,5,8
320,96,94756,5,8
304,56,94756,5,8
344,64,94756,5,8
40,312,94943,5,8
80,336,94943,5,8
40,360,94943,5,8
200,200,95131,5,8
224,240,95131,5,8
176,240,95131,5,8
456,216,95318,5,8
408,200,95318,5,8
416,248,95318,5,8
256,360,95693,5,8
232,320,95693,5,8
280,320,95693,5,8
480,328,95693,5,0
440,368,95693,5,0
488,384,95693,5,0
400,200,95881,5,0
448,168,95881,5,0
448,224,95881,5,0
280,320,95881,5,8
256,360,95881,5,8
232,320,95881,5,8
280,320,96068,5,8
232,320,96068,5,8
256,360,96068,5,8
224,112,96068,5,0
280,112,96068,5,0
256,56,96068,5,0
280,320,96256,5,8
232,320,96256,5,8
256,360,96256,5,8
72,168,96256,5,0
64,216,96256,5,0
112,200,96256,5,0
232,320,96443,5,8
280,320,96443,5,8
256,360,96443,5,8
48,360,96443,5,0
0,376,96443,5,0
8,320,96443,5,0
0,384,97381,6,0,B|128:224|256:384,6,280
512,384,97381,6,0,B|384:224|256:384,6,280
512,384,97381,6,0,B|512:0,6,280
0,384,97381,6,0,B|0:0,6,280
256,384,98693,1,8
256,384,99068,1,8
256,384,99443,1,8
256,384,99818,1,8
160,160,98693,2,0,B|128:96|160:32|224:0|320:0|352:32|384:128|352:192|256:192|256:192|256:320|256:320|320:352,3,560
112,320,100006,1,0
432,160,100193,1,0
256,192,100006,12,0,100193
88,128,100381,1,0
256,192,100193,12,0,100381
352,352,100568,1,0
256,192,100381,12,0,100568
288,24,100756,1,0
256,192,100568,12,0,100756
112,320,100943,1,0
256,192,100756,12,0,100943
256,192,101131,1,0
256,192,100943,12,0,101131
256,192,101131,12,0,101318
256,192,101318,12,0,101506
512,128,101693,2,0,B|288:160|224:192,1,280
512,256,101693,2,0,B|288:256|192:288,1,280
512,0,101693,6,0,B|256:64|160:128,1,280
104,160,102068,1,0
120,208,102068,1,0
64,200,102068,1,0
120,280,102256,5,0
144,88,102256,5,0
208,200,102256,5,0
24,112,102256,5,0
16,248,102256,5,0
157,192,102256,5,0
124,136,102256,5,0
116,233,102256,5,0
64,152,102256,5,0
54,212,102256,5,0
192,216,102631,2,0,B|192:368|192:368|336:368,1,280,8|0
312,80,102818,2,0,B|312:232|312:232|456:232,1,280,8|0
48,24,103006,2,0,B|48:176|48:176|192:176,1,280,8|0
184,256,103381,1,0
192,112,103381,1,0
328,256,103381,5,0
464,160,103568,1,0
328,16,103568,1,0
320,160,103568,1,0
192,352,103756,1,0
56,208,103756,1,0
48,352,103756,1,0
472,360,104131,1,8
40,24,104131,1,8
200,360,104506,1,8
192,24,104506,1,8
472,24,104881,1,8
40,360,104881,1,8
336,24,105256,1,8
344,360,105256,1,8
41,361,105631,1,0
471,22,105631,1,8
0,0,106006,1,0
0,128,106193,1,0
176,0,106193,1,0
0,264,106381,1,0
336,0,106381,1,0
168,128,106381,1,0
512,0,106568,1,0
336,128,106568,1,0
0,384,106568,1,0
168,264,106568,1,0
512,128,106756,1,0
336,264,106756,1,0
168,384,106756,1,0
512,264,106943,1,0
336,384,106943,1,0
512,384,107131,1,0
512,384,107318,1,0
0,0,107693,5,0
176,0,107787,1,0
8,128,107881,1,0
336,0,107974,1,0
176,128,108068,1,0
0,264,108162,1,0
512,0,108256,1,0
336,128,108349,1,0
176,264,108443,1,0
0,384,108537,1,0
512,128,108631,1,0
336,264,108724,1,0
176,384,108818,1,0
512,264,108912,1,0
504,384,109006,1,8
336,376,109006,1,0
0,304,109381,5,0
416,0,109381,5,0
480,64,109381,5,0
72,368,109381,5,0
64,304,109568,5,0
416,56,109568,5,0
480,0,109568,5,0
0,368,109568,5,0
256,80,109381,6,0,B|280:152|272:224|184:264|96:232,2,280
448,32,109756,1,0
32,336,109756,1,0
48,184,109381,6,0,B|24:112|32:40|120:0|208:32,2,280
208,216,110131,5,8
280,216,110131,5,8
280,144,110131,5,8
208,144,110131,5,8
352,192,110318,5,8
280,192,110318,5,8
280,264,110318,5,8
352,264,110318,5,8
32,336,110131,6,0,B|16:72|112:-8|384:-16,1,560
360,320,110506,5,8
432,320,110506,5,8
360,251,110506,5,8
432,248,110506,5,8
480,0,110693,5,8
304,32,110881,5,8
160,152,111068,5,8
80,248,111256,5,8
120,264,111256,5,8
80,288,111256,5,8
24,192,111631,5,8
16,336,111631,5,8
144,336,111631,5,8
144,192,111631,5,8
64,384,111818,2,0,B|224:128,1,280
471,373,112006,2,0,B|279:117,1,280
256,352,112193,2,0,B|512:128,1,280
256,352,112381,2,0,B|0:128,1,280
466,167,112568,2,0,B|256:32|224:64|320:160,1,280
45,167,112756,2,0,B|256:32|288:64|192:160,1,280
256,192,113131,2,8,B|96:192|96:192|96:352,1,280
256,192,113318,2,8,B|256:32|256:32|128:32,1,280
256,192,113506,2,8,B|416:192|416:192|416:64,1,280
256,192,113693,2,8,B|256:352|256:352|384:352,1,280
256,192,113881,2,8,B|96:192|96:192|96:320,1,280
256,192,114068,2,8,B|256:32|256:32|128:32,1,280
0,8,114443,1,8
512,384,114443,1,8
48,280,114443,1,8
0,384,114443,1,8
256,320,114443,1,8
432,328,114443,1,8
192,192,114443,1,8
488,16,114443,1,8
304,192,114443,1,8
256,8,114443,1,8
512,384,114631,5,0
0,0,114631,5,0
512,256,114818,5,0
0,128,114818,5,0
512,136,115006,5,8
0,256,115006,5,8
0,384,115381,5,0
512,0,115381,5,0
360,0,115568,5,0
152,384,115568,5,0
432,384,115756,1,8
80,0,115756,1,8
272,208,116131,5,0
224,184,116131,5,0
272,152,116131,5,0
320,280,116318,5,0
320,88,116318,5,0
144,176,116318,5,0
64,160,116506,5,8
376,344,116506,5,8
368,16,116506,5,8
256,0,116881,5,0
256,384,116881,5,0
0,192,116881,5,0
512,192,116881,5,0
512,384,117256,5,8
0,384,117256,5,8
0,0,117256,5,8
512,0,117256,5,8
368,160,117631,5,8
128,160,117631,5,8
256,80,117631,5,8
256,192,117631,5,8
320,296,117631,5,8
192,296,117631,5,8
256,136,118006,1,0
304,168,118099,1,0
288,208,118193,1,0
232,208,118287,1,0
216,168,118381,1,0
256,80,118474,1,0
368,160,118568,1,0
320,280,118662,1,0
200,280,118756,1,0
144,160,118849,1,0
256,16,118943,1,0
440,144,119037,1,0
352,344,119131,1,0
168,344,119224,1,0
64,144,119318,1,0
256,80,119412,1,0
368,160,119506,1,0
320,280,119599,1,0
200,280,119693,1,0
144,160,119787,1,0
256,184,119881,1,0
512,104,120256,6,0,B|512:0|512:0|336:0,1,280
176,0,120256,6,0,B|0:0|0:0|0:184,1,280
336,384,120256,6,0,B|512:384|512:384|512:200,1,280
0,280,120256,6,0,B|0:384|0:384|176:384,1,280
332,252,120631,5,8
112,144,120631,5,0
284,280,120631,5,8
168,132,120631,5,8
344,144,120631,5,8
172,264,120631,5,8
392,144,120631,5,0
256,188,120631,5,8
168,184,120631,5,8
256,48,120631,5,0
176,312,120631,5,0
296,144,120631,5,8
280,104,120631,5,8
220,144,120631,5,8
216,280,120631,5,8
200,212,120631,5,8
232,104,120631,5,8
304,192,120631,5,8
288,228,120631,5,8
344,180,120631,5,8
332,316,120631,5,0
240,240,120631,5,8
72,0,120631,2,0,B|0:0|0:0|0:96,1,140
440,384,120818,2,0,B|512:384|512:384|512:288,1,140
512,68,120818,2,0,B|512:0|512:0|440:0,1,140
0,316,120912,2,0,B|0:384|0:384|72:384,1,140
72,0,121006,1,0
256,384,121381,5,8
448,240,121568,5,8
0,80,121756,5,8
400,8,122131,5,8
400,56,122131,5,8
352,32,122131,5,8
120,168,122318,5,8
80,136,122318,5,8
128,120,122318,5,8
464,280,122506,5,8
464,232,122506,5,8
416,256,122506,5,8
48,352,122881,5,8
0,376,122881,5,8
8,320,122881,5,8
168,232,123256,5,8
272,224,123631,5,8
352,200,123631,5,8
392,16,123631,5,8
240,144,123631,5,8
416,96,123631,5,8
432,176,123631,5,8
304,32,123631,5,8
216,56,123631,5,8
328,112,123631,5,8
64,32,124006,1,0
56,296,124381,1,0
248,344,124568,1,0
472,296,124756,1,0
480,56,124943,1,0
256,16,125131,1,0
104,80,125318,1,0
96,184,125506,2,0,B|152:368|496:368|504:80|432:16|368:0,1,560
304,128,125881,2,0,B|208:8|208:8|8:80|8:80|32:272,1,560
336,384,126256,2,0,B|504:384|504:384|504:232|504:232|328:232|328:232|328:336,1,560
512,128,127006,5,8
0,256,127006,5,8
0,384,127006,5,8
136,256,127006,5,8
376,128,127006,5,8
376,0,127006,5,8
368,32,126631,2,0,B|32:32|32:32|32:280,1,560
512,0,127006,5,8
136,384,127006,5,8
136,128,127381,5,8
512,384,127381,5,8
376,256,127381,5,8
0,0,127381,5,8
376,384,127381,5,8
136,0,127381,5,8
512,256,127381,5,8
0,128,127381,5,8
208,144,127756,5,8
208,240,127756,5,8
304,240,127756,5,8
304,144,127756,5,8
256,192,128131,5,0
128,288,128506,5,0
0,384,128506,5,0
0,288,128506,5,0
128,96,128506,5,0
384,288,128506,5,0
128,384,128506,5,0
256,384,128506,5,0
256,0,128506,5,0
512,0,128506,5,0
256,288,128506,5,0
384,96,128506,5,0
512,96,128506,5,0
384,192,128506,5,0
384,384,128506,5,0
128,192,128506,5,0
0,96,128506,5,0
384,0,128506,5,0
128,0,128506,5,0
512,192,128506,5,0
256,192,128506,5,0
0,192,128506,5,0
0,0,128506,5,0
512,384,128506,5,0
256,96,128506,5,0
512,288,128506,5,0
512,112,128693,5,0
176,0,128881,1,0
0,280,129068,1,0
344,384,129256,1,0
336,0,129443,1,0
0,112,129631,1,0
184,384,129818,1,0
512,280,130006,1,0
0,0,130193,1,0
512,112,130381,1,0
0,272,130568,1,0
512,384,130756,1,0
336,0,130943,1,0
184,384,131131,1,0
0,0,131318,1,0
512,192,131506,1,0
0,384,131693,1,0
512,0,131881,1,0
0,192,132068,1,0
512,384,132256,1,0
256,0,132443,1,0
0,384,132631,1,0
512,0,132818,1,0
256,384,133006,1,0
0,0,133193,1,0
0,384,133381,1,0
256,0,133568,1,0
512,384,133756,1,0
512,0,133943,1,0
256,384,134131,1,0
256,0,134318,1,0
256,384,134506,1,0
256,0,134693,1,0
256,192,134881,5,0
0,0,135068,1,0
256,192,135256,1,0
256,0,135443,1,0
256,192,135631,1,0
512,0,135818,1,0
256,192,136006,1,0
512,192,136193,1,0
256,192,136381,1,0
512,384,136568,1,0
256,192,136756,1,0
256,384,136943,1,0
256,192,137131,1,0
0,384,137318,1,0
256,192,137506,1,0
0,192,137693,1,0
256,192,137881,1,0
0,0,138068,1,0
256,192,138256,1,0
256,0,138443,1,0
256,192,138631,1,0
512,0,138818,1,0
256,192,139006,1,0
512,192,139099,1,0
256,192,139193,1,0
512,384,139287,1,0
256,192,139381,1,0
256,384,139474,1,0
256,192,139568,1,0
0,384,139662,1,0
256,192,139756,1,0
0,192,139849,1,0
256,192,139943,1,0
0,0,140037,1,0
256,192,140131,1,0
256,0,140224,1,0
512,192,140318,1,0
256,384,140412,1,0
0,192,140506,1,0
512,0,140599,1,0
0,384,140693,1,0
256,192,140787,1,0
0,0,140881,1,0
512,384,140974,1,0
256,192,141068,1,0
512,0,141162,1,0
0,384,141256,1,0
256,192,141349,1,0
320,128,141443,1,4
192,128,141443,1,4
192,256,141443,1,4
320,256,141443,1,4
0,192,142193,5,8
256,192,142287,1,0
512,192,142381,1,0
256,0,142568,5,0
256,192,142662,1,0
256,384,142756,1,0
0,0,142943,5,8
256,192,143037,1,0
512,384,143131,1,0
512,0,143318,5,0
256,192,143412,1,0
0,384,143506,1,0
512,384,143693,5,8
0,192,143787,1,0
512,0,143881,1,0
0,0,144068,5,0
512,192,144162,1,0
0,384,144256,1,0
256,0,144443,5,8
0,384,144537,1,0
512,384,144631,1,0
512,0,144818,5,0
256,384,144912,1,0
0,0,145006,1,0
256,96,145193,5,8
160,272,145287,1,0
352,272,145381,1,0
160,96,145568,5,0
256,272,145662,1,0
352,96,145756,1,0
64,272,145943,5,8
448,96,146037,1,0
256,272,146131,1,0
448,272,146318,5,0
64,96,146412,1,0
256,272,146506,1,0
112,192,146693,5,8
416,192,146787,1,0
256,192,146881,1,0
512,0,147068,5,0
512,384,147162,1,0
0,384,147256,1,0
512,0,147443,5,8
0,0,147537,1,0
0,384,147631,1,0
0,192,147818,5,0
256,0,147912,1,0
512,192,148006,1,0
0,192,148193,5,8
256,384,148287,1,0
512,192,148381,1,0
256,192,148568,5,0
336,112,148662,1,0
256,192,148756,1,0
256,192,148943,5,8
368,272,149037,1,0
256,192,149131,1,0
256,192,149318,5,0
112,288,149412,1,0
256,192,149506,1,0
256,192,149693,5,8
0,0,149787,1,0
256,192,149881,1,0
128,96,150068,5,0
384,160,150162,1,0
144,272,150256,1,0
288,32,150443,5,8
304,304,150537,1,0
128,96,150631,1,0
384,160,150818,5,0
144,272,150912,1,0
288,32,151006,1,0
0,0,151193,5,8
176,0,151287,1,0
352,0,151381,1,0
512,0,151474,1,0
512,192,151568,1,0
512,384,151662,1,0
256,384,151756,1,0
0,384,151849,1,0
0,192,151943,1,8
0,0,152037,1,0
256,192,152131,1,0
512,384,152224,1,0
512,192,152318,1,0
512,0,152412,1,0
256,192,152506,1,0
0,384,152599,1,0
0,192,152693,1,8
352,0,152787,1,0
0,192,152881,1,0
448,192,152974,1,0
0,192,153068,1,0
368,384,153162,1,0
0,192,153256,1,0
432,80,153349,1,0
0,192,153443,1,8
432,304,153537,1,0
0,192,153631,1,0
0,192,153724,1,0
352,0,153818,1,0
368,384,153912,1,0
0,192,154006,1,0
352,0,154193,5,8
368,384,154287,1,0
0,192,154381,1,0
128,0,154568,5,0
512,192,154662,1,0
128,384,154756,1,0
0,0,154943,5,8
256,0,155037,1,0
256,192,155131,1,0
512,384,155318,5,0
256,384,155412,1,0
256,192,155506,1,0
512,0,155693,5,8
512,192,155787,1,0
256,192,155881,1,0
0,384,156068,5,0
0,192,156162,1,0
256,192,156256,1,0
0,0,156443,5,8
256,0,157193,5,8
256,192,157287,1,0
512,192,157381,1,0
256,384,157568,5,0
256,192,157662,1,0
0,192,157756,1,0
0,192,157943,5,8
256,0,158037,1,0
256,192,158131,1,0
256,384,158318,5,0
512,192,158412,1,0
256,192,158506,1,0
512,192,158693,5,8
0,192,158787,1,0
256,0,158881,1,0
512,192,159068,5,0
256,384,159162,1,0
256,0,159256,1,0
512,0,159443,5,8
0,384,160193,5,8
256,384,160287,1,0
512,192,160381,1,0
512,0,160568,5,0
256,0,160662,1,0
0,192,160756,1,0
0,0,160943,5,8
256,192,161037,1,0
512,384,161131,1,0
512,0,161318,5,0
256,192,161412,1,0
0,384,161506,1,0
0,192,161693,5,8
80,48,161787,1,0
256,0,161881,1,0
432,48,161974,1,0
512,192,162068,1,0
432,336,162162,1,0
256,384,162256,1,0
80,336,162349,1,0
0,192,162443,1,8
256,192,162818,5,0
32,112,163193,5,2
128,16,163193,5,2
128,112,163193,5,2
32,16,163193,5,2
416,144,163568,5,2
416,48,163568,5,2
320,48,163568,5,2
320,144,163568,5,2
112,304,163943,5,2
112,208,163943,5,2
208,304,163943,5,2
208,208,163943,5,2
384,336,164131,5,2
480,240,164131,5,2
384,240,164131,5,2
480,336,164131,5,2
448,176,164506,1,2
48,208,164693,1,2
480,96,165068,2,2,B|192:16|176:16,1,280
0,96,165443,5,0
400,384,165443,5,0
112,0,165443,5,4
32,288,165068,2,2,B|320:368|336:368,1,280
512,288,165443,5,0
192,112,166193,5,8
336,128,166381,1,0
320,272,166568,1,0
176,256,166756,1,0
96,32,166943,1,8
432,48,167131,1,0
416,368,167318,1,0
80,352,167506,1,0
48,176,167693,1,8
272,32,167881,1,0
464,208,168068,1,8
240,352,168256,1,0
256,192,168443,1,8
176,144,168631,5,0
288,96,168818,1,0
352,192,169006,1,0
288,288,169193,1,8
176,256,169381,1,0
288,96,169568,1,0
288,288,169756,1,0
176,144,169943,1,8
352,192,170131,1,0
176,256,170318,1,0
496,0,170506,1,0
464,384,170693,1,8
0,384,170881,1,0
48,0,171068,1,8
496,0,171256,1,0
0,384,171443,1,8
16,192,172193,1,8
256,0,172380,1,0
496,208,172568,1,0
256,384,172755,1,0
16,192,172943,1,8
496,208,173130,1,0
256,0,173318,5,0
256,384,173505,1,0
0,0,173693,5,8
512,0,174068,1,8
512,384,174443,1,8
0,384,174818,1,8
416,16,175193,1,8
224,96,175380,1,0
0,192,175568,1,8
80,384,175755,1,0
304,384,175943,1,8
496,256,176130,1,0
416,96,176318,1,8
192,32,176505,1,0
80,224,176693,1,8
240,384,176880,1,0
432,288,177068,1,8
192,32,177255,1,0
240,384,177443,1,8
416,96,177630,1,0
80,224,177818,1,8
416,96,178193,5,8
240,384,178193,5,8
432,288,178193,5,8
80,224,178193,5,8
192,32,178193,5,8
288,160,179693,6,8,B|416:48|416:48|528:64,1,280
224,160,179693,6,8,B|32:112|32:112|32:16,1,280
224,224,179693,6,8,B|96:336|96:336|-16:320,1,280
288,224,179693,6,8,B|480:272|480:272|480:368,1,280
336,344,182131,6,0,B|480:344|480:344|480:240|480:240|448:240,2,280
472,136,182131,6,0,B|328:136|328:136|328:240|328:240|360:240,2,280
64,144,182131,6,0,B|32:144|32:144|32:40|32:40|176:40,2,280
152,144,182131,6,0,B|184:144|184:144|184:248|184:248|40:248,2,280
296,240,182881,6,0,B|440:240|440:240|440:136|440:136|408:136,2,280
432,32,182881,6,0,B|288:32|288:32|288:136|288:136|320:136,2,280
56,264,182881,6,0,B|24:264|24:264|24:160|24:160|168:160,2,280
144,264,182881,6,0,B|176:264|176:264|176:368|176:368|32:368,2,280
96,304,183630,1,0
416,192,183723,1,0
96,80,183817,1,0
320,352,183911,1,0
304,16,184005,1,0
96,304,184098,1,0
416,192,184192,1,0
96,80,184286,1,0
320,352,184380,1,0
304,16,184473,1,0
96,304,184567,1,0
416,192,184661,1,0
0,384,184755,5,8
0,0,184755,5,8
512,0,184755,5,8
512,384,184755,5,8
352,384,185130,1,8
160,384,185130,1,8
0,192,185130,1,8
256,192,185130,1,8
352,0,185130,1,8
160,0,185130,1,8
512,192,185130,1,8
96,80,185505,1,0
136,96,185551,1,0
176,112,185598,1,0
224,128,185645,1,0
264,144,185692,1,0
296,160,185739,1,0
336,176,185786,1,0
368,184,185833,1,0
416,192,185880,1,0
376,208,185926,1,0
344,224,185973,1,0
304,232,186020,1,0
272,248,186067,1,0
240,264,186114,1,0
208,280,186161,1,0
176,296,186208,1,0
144,312,186255,1,0
112,328,186301,1,0
133,287,186348,1,0
151,258,186395,1,0
168,226,186442,1,0
189,193,186489,1,0
205,167,186536,1,0
229,130,186583,1,0
248,104,186630,1,0
272,64,186676,1,0
288,40,186723,1,0
296,88,186770,1,0
296,128,186817,1,0
304,160,186864,1,0
304,192,186911,1,0
312,232,186958,1,0
312,264,187005,1,0
320,304,187051,1,0
328,336,187098,1,0
288,312,187145,1,0
264,288,187192,1,0
240,264,187239,1,0
216,240,187286,1,0
184,192,187333,1,0
160,176,187380,1,0
136,144,187426,1,0
112,112,187473,1,0
88,80,187520,1,0
32,0,187755,5,0
0,32,187778,1,0
480,384,187778,5,0
512,352,187801,1,0
0,72,187801,1,0
512,312,187824,1,0
0,112,187825,1,0
0,152,187848,1,0
512,272,187848,1,0
512,232,187871,1,0
0,192,187872,1,0
512,192,187895,1,0
0,232,187895,1,0
512,152,187918,1,0
0,272,187919,1,0
0,312,187942,1,0
512,112,187942,1,0
0,352,187965,1,0
512,72,187965,1,0
512,32,187988,1,0
168,160,188130,1,8
144,112,188130,1,8
200,112,188130,1,8
480,0,188130,1,0
32,384,188153,1,0
432,0,188153,1,0
384,0,188176,1,0
80,384,188176,1,0
128,384,188199,1,0
336,0,188200,1,0
288,0,188223,1,0
176,384,188223,1,0
224,384,188246,1,0
240,0,188247,1,0
200,0,188270,1,0
272,384,188270,1,0
312,384,188293,1,0
152,0,188294,1,0
360,384,188317,1,0
112,0,188317,1,0
360,104,188318,1,8
408,80,188318,1,8
408,136,188318,1,8
400,384,188340,1,0
480,0,188459,5,0
512,32,188482,1,0
32,384,188482,5,0
512,72,188505,1,0
304,248,188505,1,0
0,352,188505,1,0
336,296,188505,1,8
360,240,188505,1,8
0,312,188528,1,0
512,112,188529,1,0
0,272,188552,1,0
512,152,188552,1,0
0,232,188575,1,0
512,192,188576,1,0
512,232,188599,1,0
0,192,188599,1,0
0,152,188622,1,0
512,272,188623,1,0
0,112,188646,1,0
512,312,188646,1,0
512,352,188669,1,0
0,72,188669,1,0
0,32,188692,1,0
32,0,188857,1,0
128,280,188880,1,8
480,384,188880,1,0
80,0,188880,1,0
432,384,188903,1,0
128,0,188903,1,0
384,384,188926,1,0
176,0,188927,1,0
224,0,188950,1,0
336,384,188950,1,0
288,384,188973,1,0
272,0,188974,1,0
240,384,188997,1,0
312,0,188997,1,0
200,384,189020,1,0
360,0,189021,1,0
152,384,189044,1,0
400,0,189044,1,0
440,296,189067,1,8
112,384,189067,1,0
264,96,189255,1,8
32,0,189255,5,0
0,32,189278,1,0
480,384,189278,5,0
512,352,189301,1,0
0,72,189301,1,0
512,312,189324,1,0
0,112,189325,1,0
512,272,189348,1,0
0,152,189348,1,0
512,232,189371,1,0
0,192,189372,1,0
512,192,189395,1,0
0,232,189395,1,0
512,152,189418,1,0
0,272,189419,1,0
512,112,189442,1,0
0,312,189442,1,0
512,72,189465,1,0
0,352,189465,1,0
512,32,189488,1,0
176,80,189630,1,8
144,112,189630,1,8
480,0,189630,1,0
32,384,189653,1,0
432,0,189653,1,0
80,384,189676,1,0
384,0,189676,1,0
128,384,189699,1,0
336,0,189700,1,0
176,384,189723,1,0
288,0,189723,1,0
224,384,189746,1,0
240,0,189747,1,0
272,384,189770,1,0
200,0,189770,1,0
312,384,189793,1,0
152,0,189794,1,0
336,80,189817,1,8
368,112,189817,1,8
112,0,189817,1,0
360,384,189817,1,0
400,384,189840,1,0
480,0,189959,5,0
512,32,189982,1,0
32,384,189982,5,0
144,264,190005,1,8
176,296,190005,1,8
0,352,190005,1,0
512,72,190005,1,0
0,312,190028,1,0
512,112,190029,1,0
512,152,190052,1,0
0,272,190052,1,0
0,232,190075,1,0
512,192,190076,1,0
512,232,190099,1,0
0,192,190099,1,0
0,152,190122,1,0
512,272,190123,1,0
0,112,190146,1,0
512,312,190146,1,0
512,352,190169,1,0
0,72,190169,1,0
0,32,190192,1,0
32,0,190357,1,0
328,296,190380,1,8
368,264,190380,1,8
80,0,190380,1,0
480,384,190380,1,0
128,0,190403,1,0
432,384,190403,1,0
384,384,190426,1,0
176,0,190427,1,0
336,384,190450,1,0
224,0,190450,1,0
288,384,190473,1,0
272,0,190474,1,0
240,384,190497,1,0
312,0,190497,1,0
200,384,190520,1,0
360,0,190521,1,0
152,384,190544,1,0
400,0,190544,1,0
112,384,190567,1,0
288,192,190755,1,8
216,192,190755,1,8
256,240,190755,1,8
256,144,190755,1,8
32,0,190755,5,0
480,384,190778,5,0
0,32,190778,1,0
0,72,190801,1,0
512,352,190801,1,0
512,312,190824,1,0
0,112,190825,1,0
512,272,190848,1,0
0,152,190848,1,0
512,232,190871,1,0
0,192,190872,1,0
0,232,190895,1,0
512,192,190895,1,0
512,152,190918,1,0
0,272,190919,1,0
0,312,190942,1,0
512,112,190942,1,0
512,72,190965,1,0
0,352,190965,1,0
512,32,190988,1,0
256,320,191130,1,8
128,192,191130,1,8
376,192,191130,1,8
480,0,191130,1,0
256,56,191130,1,8
432,0,191153,1,0
32,384,191153,1,0
384,0,191176,1,0
80,384,191176,1,0
128,384,191199,1,0
336,0,191200,1,0
176,384,191223,1,0
288,0,191223,1,0
224,384,191246,1,0
240,0,191247,1,0
200,0,191270,1,0
272,384,191270,1,0
312,384,191293,1,0
152,0,191294,1,0
500,12,191317,1,0
112,0,191317,1,0
400,384,191340,1,0
448,336,191505,5,8
416,184,191692,1,0
168,272,191880,1,0
104,72,192067,1,8
80,296,192255,1,0
336,224,192442,1,0
176,120,192630,1,0
456,72,192817,1,8
296,368,193005,1,0
184,56,193192,1,0
512,288,193380,1,0
120,272,193567,1,8
456,72,193755,1,0
120,272,193942,1,8
456,72,193942,1,8
512,288,193942,1,8
296,368,193942,1,8
184,56,193942,1,8
56,56,194130,6,0,B|288:224,1,280
282,220,194317,2,0,B|496:0,1,280
477,19,194505,2,0,B|208:128,1,280
217,123,194692,2,0,B|88:384,1,280
92,374,194880,2,0,B|416:352,1,280
372,355,195067,2,0,B|520:80,1,280
504,108,195255,2,0,B|504:392,1,280
504,388,195442,2,0,B|256:192,1,280
284,214,195630,2,0,B|48:368,1,280
49,366,195817,2,0,B|-8:80,1,280
0,92,196005,2,0,B|288:0,1,280
264,8,196192,2,0,B|349:305,1,280
343,275,196380,2,0,B|128:88,1,280
136,96,196567,2,0,B|440:128,1,280
416,128,196755,2,0,B|160:288,1,280
176,272,196942,2,0,B|264:0,1,280
262,5,197130,2,0,B|352:296,1,280
344,273,197317,2,0,B|320:384|160:384|112:288,1,280
122,304,197505,2,0,B|16:176|80:88|120:8,1,280
104,48,197692,2,0,B|176:136|176:136|264:112|264:112|344:128,1,280
336,128,197880,2,0,B|384:208|384:208|472:272|472:272|480:352,1,280
480,352,198067,2,0,B|344:384|344:384|152:304,1,280
214,330,198255,2,0,B|40:360|40:360|32:256,1,280
32,256,198442,2,0,B|160:208|160:208|32:152|32:152|48:152,1,280
32,144,198630,2,0,B|336:16,1,280
302,33,198817,2,0,B|440:96,1,140
429,91,198911,2,0,B|288:144,1,140
298,140,199005,2,0,B|440:224,1,140
419,211,199098,2,0,B|288:256,1,140
286,256,199192,2,0,B|416:336,1,140
405,329,199286,2,0,B|88:368|0:200|16:80,1,420
35,198,199567,2,0,B|96:56,1,140
90,69,199661,2,0,B|144:208,1,140
140,200,199755,2,0,B|200:56,1,140
194,70,199848,2,0,B|248:216,1,140
242,201,199942,2,0,B|304:48,1,140
294,71,200036,2,0,B|360:216,1,140
352,199,200130,2,0,B|464:0|464:0|496:48,1,280
492,42,200317,2,0,B|488:224|488:224|424:320,1,280
433,306,200505,2,0,B|272:368|136:352,1,280
160,352,200692,2,0,B|24:272|32:144|104:16,1,280
62,115,200880,2,0,B|120:16|208:0|336:16,1,280
303,12,201067,2,0,B|424:48|480:160|448:256,1,280
455,220,201255,2,0,B|368:312|288:320|192:320,1,280
204,319,201442,2,0,B|56:304|0:216|72:96,1,280
49,142,201630,2,0,B|352:192,1,280
326,187,201817,2,0,B|544:384,1,280
512,375,202005,2,0,B|248:336,1,280
256,337,202380,2,0,B|0:192,1,280
13,199,202567,2,0,B|312:224,1,280
292,222,202755,2,0,B|32:64,1,280
52,76,202942,2,0,B|360:104,1,280
400,152,203505,5,8
176,240,203880,1,8
320,32,204067,1,8
312,264,204442,1,8
176,80,204630,1,8
400,152,204817,1,8
88,224,205005,5,8
176,240,205005,5,8
176,152,205005,5,8
256,232,205005,5,8
224,320,205005,5,8
128,320,205005,5,8
16,256,206506,5,8
120,64,206506,5,8
152,0,206506,5,8
48,192,206506,5,8
88,128,206506,5,8
80,296,206506,1,8
144,336,206506,5,8
392,160,206881,5,8
432,40,206881,5,8
328,136,206881,5,8
304,88,206881,5,8
368,0,206881,5,8
456,144,206881,5,8
360,72,206881,5,8
304,24,206881,5,8
296,248,207256,5,8
208,352,207256,5,8
256,184,207256,5,8
176,216,207256,5,8
240,232,207256,5,8
224,288,207256,5,8
448,288,207443,5,8
472,360,207443,5,8
432,216,207443,5,8
392,256,207443,5,8
496,200,207443,5,8
408,384,207443,5,8
504,312,207443,5,8
336,0,207631,6,8,B|432:0|432:0|384:0|384:0|384:152|384:152|320:152|320:152|448:152|448:152|352:152,1,560
440,224,207631,6,8,B|304:224|304:224|304:384|304:384|440:384|440:384|440:304|440:304|368:304,1,560
32,384,207631,6,8,B|48:216|48:216|184:384|184:384|200:208,1,560
168,0,207631,6,8,B|40:0|40:0|16:72|16:72|192:72|192:72|144:144|144:144|40:144,1,560
8,0,208192,1,0
256,48,208286,1,0
8,0,208380,1,0
232,112,208473,1,0
8,0,208567,1,0
216,176,208661,1,0
8,0,208755,1,0
176,216,208848,1,0
8,0,208942,1,0
112,256,209036,1,0
8,0,209130,1,0
48,272,209223,1,0
8,0,209317,1,0
488,16,209411,1,0
472,144,209505,1,0
8,0,209598,1,0
448,272,209692,1,0
8,0,209786,1,0
336,352,209880,1,0
8,0,209973,1,0
184,360,210067,1,0
8,0,210161,1,0
24,368,210255,1,0
256,48,210348,1,0
168,176,210442,1,0
8,0,210536,1,0
488,16,210630,1,0
8,0,210723,1,0
48,272,210817,1,0
8,0,210911,1,0
184,360,211005,1,0
8,0,211098,1,0
336,352,211192,1,0
8,0,211286,1,0
216,176,211380,1,0
472,144,211473,1,0
8,0,211567,1,0
24,368,211661,1,0
8,0,211755,1,0
504,384,211848,1,0
488,16,211942,1,0
8,0,212036,1,0
0,192,212130,1,0
256,312,212223,1,0
496,288,212317,1,0
432,96,212411,1,0
208,48,212505,1,0
96,224,212598,1,0
248,376,212692,1,0
376,288,212786,1,0
264,200,212880,1,0
160,264,212973,1,0
64,176,213067,1,0
128,80,213161,1,0
256,48,213255,1,0
368,120,213348,1,0
256,160,213442,1,0
192,256,213536,1,0
176,352,213630,1,0
64,312,213723,1,0
128,200,213817,1,0
24,104,213911,1,0
136,32,214005,1,0
200,128,214098,1,0
320,48,214192,1,0
464,112,214286,1,0
320,200,214380,1,0
464,256,214473,1,0
320,336,214567,1,0
208,208,214661,1,0
176,352,214755,1,0
64,208,214848,1,0
64,64,214942,1,0
208,64,215036,1,0
368,64,215130,1,0
368,208,215223,1,0
360,368,215317,1,0
208,368,215411,1,0
64,368,215505,1,0
0,192,215598,1,0
64,64,215692,1,0
256,8,215786,1,0
424,72,215880,1,0
512,192,215973,1,0
432,312,216067,1,0
256,384,216161,1,0
72,336,216255,1,0
0,192,216348,1,0
424,72,216442,1,0
72,336,216536,1,0
256,8,216630,1,0
432,312,216723,1,0
64,64,216817,1,0
256,384,216911,1,0
512,192,217005,1,0
256,192,217098,1,0
176,112,217192,1,0
336,264,217286,1,0
256,192,217380,1,0
336,112,217473,1,0
176,264,217567,1,0
256,192,217661,1,0
336,192,217755,1,0
176,192,217848,1,0
256,192,217942,1,0
256,112,218036,1,0
256,264,218130,1,0
112,48,218223,1,0
256,192,218317,1,0
400,56,218411,1,0
256,192,218505,1,0
400,320,218598,1,0
256,192,218692,1,0
112,320,218786,1,0
256,192,218880,1,0
256,48,218973,1,0
256,192,219067,1,0
400,184,219067,1,0
256,320,219161,1,0
112,192,219255,1,0
256,48,219348,1,0
256,48,219630,1,0
112,48,219630,1,8
400,56,219630,1,8
400,320,219630,1,8
112,192,219630,1,0
256,192,219630,1,0
256,320,219630,1,0
400,184,219630,1,0
112,320,219630,1,8
432,368,220005,1,0
80,0,220005,5,0
40,120,220380,5,8
112,120,220380,5,8
392,256,220380,5,8
456,256,220380,5,8
360,144,220567,5,8
432,144,220567,5,8
504,144,220567,5,8
80,240,220567,5,8
152,240,220567,5,8
8,240,220567,5,8
464,0,220755,5,8
344,48,220755,5,8
392,0,220755,5,8
0,336,220755,5,8
512,48,220755,5,8
48,384,220755,5,8
168,336,220755,5,8
120,384,220755,5,8
432,312,220942,5,8
472,264,220942,5,8
496,352,220942,5,8
400,264,220942,5,8
368,352,220942,5,8
40,120,220942,5,8
80,72,220942,5,8
16,32,220942,5,8
32,104,220942,5,8
112,120,220942,5,8
0,192,221317,6,0,B|208:368|304:128|512:384,1,560
512,192,221317,6,0,B|304:16|208:256|0:0,1,560
320,0,221692,6,8,B|488:88|488:88|488:256|488:256|280:384,1,560
196,362,221692,6,8,B|24:256|24:256|24:88|24:88|192:0,1,560
192,0,222067,6,8,B|192:312,1,280,0|8
315,362,222067,6,8,B|314:53,1,280,0|8
80,232,222442,5,8
80,144,222442,5,8
432,232,222442,5,8
432,144,222442,5,8
256,0,223004,1,8
160,344,223098,1,0
432,144,223192,1,8
80,144,223285,1,0
376,344,223379,1,8
256,0,223473,1,8
160,344,223567,1,8
432,144,223660,1,8
80,144,223754,1,8
376,344,223848,1,8
256,0,223942,1,8
256,0,224505,5,8
96,272,224599,1,0
400,272,224693,1,8
256,0,224786,1,0
400,96,224880,5,8
256,344,224974,1,0
88,104,225068,1,8
400,96,225161,1,8
256,184,225255,1,8
96,272,225442,5,8
256,344,225442,5,8
400,96,225442,5,8
400,272,225442,5,8
256,0,225442,5,8
88,104,225442,5,8
0,64,225817,5,8
64,0,225817,5,8
0,0,225817,5,8
64,64,225817,5,8
448,384,226005,5,8
512,384,226005,5,8
448,320,226005,5,8
512,320,226005,5,8
448,0,226380,5,8
512,0,226380,5,8
448,64,226380,5,8
512,64,226380,5,8
64,384,226567,5,8
0,384,226567,5,8
64,320,226567,5,8
0,320,226567,5,8
200,96,226755,5,8
136,96,226755,5,8
200,160,226755,5,8
136,160,226755,5,8
376,280,226942,5,8
312,280,226942,5,8
376,216,226942,5,8
312,216,226942,5,8
352,40,227130,5,8
288,40,227130,5,8
352,104,227130,5,8
288,104,227130,5,8
224,336,227223,5,8
160,336,227223,5,8
224,272,227223,5,8
160,272,227223,5,8
288,160,227317,5,8
224,160,227317,5,8
288,224,227317,5,8
224,224,227317,5,8
64,160,227505,5,8
512,224,227505,5,8
64,224,227505,5,8
448,224,227505,5,8
0,224,227505,5,8
512,160,227505,5,8
0,160,227505,5,8
448,160,227505,5,8
448,384,227692,5,8
64,64,227692,5,8
448,320,227692,5,8
64,0,227692,5,8
512,320,227692,5,8
0,0,227692,5,8
512,384,227692,5,8
0,64,227692,5,8
128,48,227786,5,8
384,272,227786,5,8
128,112,227786,5,8
384,336,227786,5,8
192,112,227786,5,8
320,336,227786,5,8
192,48,227786,5,8
320,272,227786,5,8
256,88,227880,5,8
256,224,227880,5,8
256,152,227880,5,8
256,288,227880,5,8
320,152,227880,5,8
192,288,227880,5,8
320,88,227880,5,8
192,224,227880,5,8
512,0,228067,5,8
64,320,228067,5,8
512,64,228067,5,8
64,384,228067,5,8
448,64,228067,5,8
0,384,228067,5,8
448,0,228067,5,8
0,320,228067,5,8
152,64,228817,5,8
416,384,228817,5,8
416,320,228817,5,8
88,0,228817,5,8
152,0,228817,5,8
352,320,228817,5,8
88,64,228817,5,8
352,384,228817,5,8
200,288,229005,5,8
312,96,229005,5,8
312,32,229005,5,8
264,352,229005,5,8
200,352,229005,5,8
248,32,229005,5,8
264,288,229005,5,8
248,96,229005,5,8
32,256,229380,5,8
480,128,229380,5,8
480,64,229380,5,8
96,320,229380,5,8
32,320,229380,5,8
416,64,229380,5,8
96,256,229380,5,8
416,128,229380,5,8
8,256,229473,5,8
504,192,229473,5,8
504,128,229473,5,8
8,192,229473,5,8
72,256,229473,5,8
440,128,229473,5,8
72,192,229473,5,8
440,192,229473,5,8
0,192,229567,5,8
512,256,229567,5,8
512,192,229567,5,8
64,192,229567,5,8
0,128,229567,5,8
448,256,229567,5,8
64,128,229567,5,8
448,192,229567,5,8
168,72,229755,5,8
344,384,229755,5,8
344,312,229755,5,8
232,8,229755,5,8
168,8,229755,5,8
280,312,229755,5,8
232,72,229755,5,8
280,376,229755,5,8
192,240,229942,5,8
320,80,229942,5,8
320,144,229942,5,8
128,304,229942,5,8
192,304,229942,5,8
384,144,229942,5,8
128,240,229942,5,8
384,80,229942,5,8
464,16,230505,6,8,B|464:384|464:384|272:384,1,560
304,144,231067,5,0
56,296,231255,5,0
184,16,231442,5,0
224,304,231630,5,0
16,104,231817,5,0
48,368,232005,6,8,B|48:0|48:0|240:0,1,560
208,240,232567,5,0
456,88,232755,5,0
328,368,232942,5,0
288,80,233130,5,0
496,280,233317,5,0
464,16,233505,6,8,B|464:384|464:384|272:384,1,560
48,368,233505,6,8,B|48:0|48:0|240:0,1,560
312,104,234067,5,0
344,232,234255,5,0
240,296,234442,5,0
144,200,234630,5,0
192,80,234817,5,0
512,384,235005,5,2
512,0,235005,5,2
0,0,235005,5,2
0,384,235005,5,2
448,64,235380,5,0
72,328,235380,5,0
64,64,235380,5,0
440,328,235380,5,0
384,272,235755,5,8
128,120,235755,5,8
128,272,235755,5,8
392,120,235755,5,8
256,192,236130,5,0
216,232,236317,1,0
296,232,236317,1,0
296,152,236317,1,0
216,152,236317,1,0
332,316,236505,5,8
332,252,236505,5,8
112,144,236505,5,8
168,132,236505,5,8
72,0,236505,5,8
256,48,236505,5,8
392,144,236505,5,8
216,280,236505,5,8
344,144,236505,5,8
0,72,236505,5,8
512,308,236505,5,8
172,264,236505,5,8
288,228,236505,5,8
168,184,236505,5,8
284,280,236505,5,8
512,76,236505,5,8
436,380,236505,5,8
344,180,236505,5,8
512,384,236505,5,8
0,304,236505,5,8
296,144,236505,5,8
76,380,236505,5,8
512,0,236505,5,8
220,144,236505,5,8
200,212,236505,5,8
0,376,236505,1,8
0,0,236505,5,8
280,104,236505,5,8
256,188,236505,5,8
232,104,236505,5,8
176,312,236505,5,8
304,192,236505,5,8
240,240,236505,5,8
440,0,236505,5,8
