osu file format v7

[General]
AudioFilename: Shoko Nakagawa - Happily Ever After.mp3
AudioLeadIn: 3000
PreviewTime: 50531
Countdown: 0
SampleSet: Normal
StackLeniency: 0.7
Mode: 0
LetterboxInBreaks: 0

[Editor]
Bookmarks: 13753,32419,51086,67086,72086,90753,109418,125418,130418,138418,149084,175751,181084
DistanceSpacing: 1
BeatDivisor: 4
GridSize: 8

[Metadata]
Title:Happily Ever After
Artist:Shoko Nakagawa
Creator:Dangaard
Version:Hard
Source:Tengen Toppa Gurren Lagann
Tags:TTGL

[Difficulty]
HPDrainRate:6
CircleSize:4
OverallDifficulty:7
SliderMultiplier:1.6
SliderTickRate:1

[Events]
//Background and Video events
0,0,"BG.jpg"
//Break Periods
2,13953,18019
//Storyboard Layer 0 (Background)
//Storyboard Layer 1 (Fail)
//Storyboard Layer 2 (Pass)
//Storyboard Layer 3 (Foreground)
//Storyboard Sound Samples
//Background Colour Transformations
3,100,0,0,0

[TimingPoints]
420,333.333333333333,4,1,0,70,1,0
21919,-100,4,2,0,60,0,0
24169,-100,4,1,0,70,0,0
24669,-100,4,2,0,60,0,0
26836,-100,4,1,0,70,0,0
51086,-100,4,1,0,70,0,1
67086,-100,4,1,0,70,0,0
72086,333.333333333333,4,1,0,70,1,0
130419,333.333333333333,4,1,0,70,1,0

[Colours]
Combo1 : 70,70,255
Combo2 : 169,28,16
Combo3 : 251,189,4

[HitObjects]
64,64,420,1,0
64,64,586,1,0
192,64,919,1,0
320,64,1253,2,0,B|416:64,1,80
400,64,1586,5,0
464,176,1919,1,0
360,248,2253,1,0
296,136,2586,1,0
232,136,2753,2,0,B|176:136,2,40
296,248,3253,5,0
192,320,3587,1,0
128,208,3920,1,0
64,208,4086,1,0
16,168,4253,6,0,B|32:72|152:72,1,160,0|0
192,72,4753,2,0,B|184:120|192:160,1,80
248,184,5086,2,0,B|240:232|248:272,3,80
280,336,5753,6,0,B|364:341|444:262,1,160
472,216,6253,2,0,B|416:152|304:152,1,160
304,80,6753,1,0
256,144,6919,2,0,B|176:128|72:152,1,160
48,208,7419,1,0
128,224,7586,2,0,B|216:208|320:240,1,160
360,272,8086,2,0,B|376:328|344:376,1,80
440,352,8419,6,0,B|456:272|416:184,2,160
360,352,9253,1,0
288,312,9419,1,0
248,240,9586,2,0,B|232:200|264:128|248:64,1,160
200,16,10086,1,0
120,32,10253,2,0,B|80:104|88:192,1,160
96,264,10753,2,0,B|136:280|176:272,1,80
168,192,11086,6,0,B|160:152|176:112,1,80
256,256,11586,2,0,B|352:264|424:312,2,160
400,192,12586,1,0
288,80,12919,2,0,B|200:48|112:72,1,160
72,120,13419,1,0
184,232,13753,1,0
80,48,18919,5,0
80,48,19003,1,0
80,48,19086,2,0,B|56:128|88:224,1,160
216,288,19753,2,0,B|240:280|272:296|304:288,1,80
368,248,20086,1,0
392,168,20253,2,0,B|312:144|207:154,1,160
152,160,20753,1,0
128,80,20920,2,0,B|208:56|313:66,1,160
368,72,21419,1,0
448,88,21586,2,0,B|472:136|480:184,1,80
400,304,22086,6,0,B|320:328|232:312,1,160
168,280,22586,1,0
144,200,22753,1,0
224,200,22919,1,0
384,200,23253,1,0
360,120,23419,1,0
280,120,23586,1,0
120,120,23919,1,0
96,40,24086,1,0
176,40,24253,5,0
336,40,24586,1,0
416,40,24753,6,0,B|464:104|464:208,1,160
416,256,25253,2,0,B|368:264|320:256,1,80
264,296,25586,1,0
104,320,25919,2,0,B|104:280|128:240,1,80
120,160,26253,1,0
248,64,26586,1,0
328,88,26753,1,0
352,168,26919,5,0
352,168,27003,1,0
352,168,27086,2,0,B|280:208|176:200,1,160
144,48,27753,2,0,B|112:56|88:40|56:48,1,80
32,120,28086,2,0,B|8:200|32:296,2,160
112,136,28919,1,0
104,216,29086,2,0,B|104:272|128:312,1,80
192,328,29419,1,0
224,256,29586,1,0
176,192,29753,6,0,B|248:152|344:160,1,160
392,216,30253,1,0
400,56,30586,1,0
320,48,30753,1,0
240,56,30919,2,0,B|152:64|80:120,1,160
32,168,31419,5,0
48,248,31586,1,0
112,296,31753,1,0
192,272,31919,1,0
232,200,32086,1,0
304,168,32253,1,0
376,200,32419,6,0,B|432:128|350:44,1,160
288,24,32919,1,0
160,120,33253,1,0
192,272,33586,6,0,B|160:296|96:288,1,80
48,240,33919,1,0
120,200,34086,1,0
272,248,34419,6,0,B|352:280|432:272,1,160,0|0
312,160,35086,6,0,B|224:144|152:88,1,160
200,24,35586,1,0
360,8,35919,1,0
472,120,36253,6,0,B|480:160|464:208,1,80
408,256,36586,1,0
384,176,36753,1,0
240,248,37086,6,0,B|160:208|64:200,1,160
48,48,37753,6,0,B|144:56|216:80,1,160
168,144,38253,1,0
328,120,38586,1,0
320,280,38919,6,0,B|272:352|168:360,1,160
128,304,39419,1,0
248,200,39753,6,0,B|232:120|272:32,1,160
408,112,40419,6,0,B|376:208|408:288,1,160
328,304,40919,2,0,B|280:312|240:344,1,80
104,272,41419,2,0,B|144:240|184:232,1,80
176,152,41753,6,0,B|248:96|344:104,1,160
384,48,42253,1,0
312,16,42419,2,0,B|212:21|141:75,1,160
104,120,42919,1,0
64,192,43086,5,0
80,272,43253,1,0
144,320,43419,1,0
224,312,43586,2,0,B|264:240|224:224|248:136,1,160
280,88,44086,1,0
352,56,44253,1,0
432,72,44419,6,0,B|448:112|448:176,1,80
384,200,44753,2,0,B|392:248|384:288,1,80
464,304,45086,2,0,B|474:260|465:205,1,80
447,150,45419,2,0,B|408:125|356:128,1,80
288,120,45753,6,0,B|192:120|104:160,1,160
56,184,46253,1,0
144,56,46586,1,0
224,40,46753,1,0
304,32,46919,1,0
384,40,47086,6,0,B|440:112|448:208,1,160
392,248,47586,1,0
232,280,47919,1,0
72,248,48253,1,0
256,192,48419,12,0,49753
432,208,50586,6,0,B|384:192|312:208|256:184,1,160
192,168,51086,1,0
