osu file format v9

[General]
AudioFilename: Shoko Hakagawa - Tsuyogari.mp3
AudioLeadIn: 1996
PreviewTime: -1
Countdown: 0
SampleSet: Normal
StackLeniency: 0.7
Mode: 1
LetterboxInBreaks: 1

[Editor]
Bookmarks: 13757,31164,44966,67642
DistanceSpacing: 0.8
BeatDivisor: 4
GridSize: 4

[Metadata]
Title:Tsuyogari (TV Size)
Artist:Shoko Hakagawa
Creator:jdle07
Version:Taiko
Source:Beelzebub
Tags:beelezbub ending 2 shoko hakagawa tsuyogari

[Difficulty]
HPDrainRate:7
CircleSize:4
OverallDifficulty:6
ApproachRate:0
SliderMultiplier:2.00000000596046
SliderTickRate:0.5

[Events]
//Background and Video events
Video,0,"Video.avi"
0,0,"Taikobg.jpg"
//Break Periods
//Storyboard Layer 0 (Background)
//Storyboard Layer 1 (Fail)
//Storyboard Layer 2 (Pass)
//Storyboard Layer 3 (Foreground)
//Storyboard Sound Samples
//Background Colour Transformations
3,100,163,162,255

[TimingPoints]
-1681,605.449041372351,4,1,1,85,1,0
438,605.449041372351,4,1,1,85,1,0
46451,-100,4,1,1,85,0,1
63403,-100,4,1,1,85,0,0
65878,-100,4,1,1,85,0,1
87674,-100,4,1,1,85,0,0

[HitObjects]
256,196,438,1,0
256,196,740,1,0
256,196,1043,1,0
256,196,1194,1,0
256,196,1346,1,8
256,196,1648,1,0
256,196,1951,1,0
256,196,2254,1,8
256,196,2405,1,8
256,196,2557,1,0
256,196,2859,1,0
256,196,3162,1,0
256,196,3465,1,0
256,196,3768,1,0
256,196,4070,1,0
256,196,4222,1,0
256,196,4373,1,8
256,196,4676,1,8
256,196,4827,1,8
256,196,4978,1,0
256,196,5281,1,0
256,196,5433,1,0
256,196,5584,1,8
256,196,5735,1,0
256,196,5887,1,8
256,196,6189,1,0
256,196,6341,1,0
256,196,6492,1,8
256,196,6643,1,8
256,196,6795,1,8
256,196,7098,1,0
256,196,7400,1,0
256,196,7703,1,0
256,196,8006,1,0
256,196,8157,1,0
256,196,8308,1,8
256,196,8611,1,0
256,196,8914,1,0
256,196,9065,1,0
256,196,9217,1,0
256,196,9368,1,8
256,196,9519,1,0
256,196,9822,1,0
256,196,10125,1,8
256,196,10427,1,0
256,196,10730,1,8
256,196,11033,1,8
256,196,11184,1,8
256,196,11336,1,0
256,196,11638,1,0
256,196,11941,1,0
256,196,12092,1,0
256,196,12244,1,0
256,196,12547,1,0
256,196,12698,1,0
256,196,12849,1,8
256,196,13001,1,0
256,196,13152,1,8
256,196,13455,1,0
256,196,13757,1,0
256,196,14060,1,0
256,196,14212,1,0
256,196,14363,1,8
256,196,14514,1,0
256,196,14666,1,8
256,196,14968,1,4
256,196,15271,1,12
256,196,15574,1,4
256,196,15877,1,12
256,196,16179,1,4
256,196,16482,1,8
256,196,16633,1,8
256,196,16785,1,8
256,196,16936,1,0
256,196,17087,1,0
256,196,17390,1,8
256,196,17693,1,0
256,196,17996,1,0
256,196,18147,1,0
256,196,18298,1,8
256,196,18601,1,8
256,196,18904,1,0
256,196,19055,1,8
256,196,19206,1,0
256,196,19509,1,0
256,196,19812,1,8
256,196,19963,1,8
256,196,20115,1,0
256,196,20417,1,8
256,196,20720,1,0
256,196,20871,1,0
256,196,21023,1,8
256,196,21174,1,0
256,196,21326,1,0
256,196,21628,1,8
256,196,21931,1,0
256,196,22234,1,0
256,196,22385,1,0
256,196,22536,1,8
256,196,22839,1,0
256,196,23142,1,8
256,196,23445,1,0
256,196,23596,1,0
256,196,23747,1,8
256,196,23899,1,0
256,196,24050,1,8
256,196,24353,1,0
256,196,24656,1,0
256,196,24807,1,0
256,196,24958,1,8
256,196,25110,1,0
256,196,25261,1,0
256,196,25412,1,0
256,196,25564,1,8
256,196,25715,1,0
256,196,25866,1,0
256,196,26169,1,0
256,196,26472,1,8
256,196,26775,1,0
256,196,26926,1,0
256,196,27077,1,8
256,196,27380,1,0
256,196,27683,1,8
256,196,27986,1,0
256,196,28137,1,0
256,196,28288,1,8
256,196,28591,1,0
256,196,28894,1,8
256,196,29045,1,8
256,196,29196,1,0
256,196,29499,1,0
256,196,29802,1,8
256,196,30105,1,0
256,196,30407,1,0
256,196,30559,1,0
256,196,30710,1,8
256,196,30861,1,0
256,196,31013,1,0
256,196,31315,1,0
256,196,31618,1,8
256,196,31921,1,0
256,196,32072,1,0
256,196,32224,1,8
256,196,32526,1,0
256,196,32829,1,8
256,196,33132,1,8
256,196,33283,1,0
256,196,33435,1,8
256,196,33586,1,0
256,196,33737,1,0
256,196,34040,1,8
256,196,34343,1,0
256,196,34494,1,0
256,196,34645,1,8
256,196,34797,1,0
256,196,34948,1,0
256,196,35100,1,0
256,196,35251,1,8
256,196,35402,1,0
256,196,35554,1,0
256,196,35856,1,8
256,196,36159,1,0
256,196,36310,1,0
256,196,36462,1,8
256,196,36765,1,0
256,196,37067,1,8
256,196,37370,1,8
256,196,37521,1,8
256,196,37673,1,0
256,196,37975,1,0
256,196,38278,1,8
256,196,38581,1,0
256,196,38732,1,0
256,196,38884,1,8
256,196,39186,1,0
256,196,39489,1,0
256,196,39792,1,8
256,196,39943,1,8
256,196,40094,1,0
256,196,40246,1,0
256,196,40397,1,8
256,196,40700,1,0
256,196,41003,1,8
256,196,41305,1,0
256,196,41608,1,8
256,196,41911,1,0
256,196,42062,1,0
256,196,42214,1,8
256,196,42516,1,12
256,196,42819,1,12
256,196,43122,1,8
256,196,43273,1,8
256,196,43424,1,0
256,196,43727,1,0
256,196,44030,1,0
256,196,44181,1,0
256,196,44333,1,8
256,196,44484,1,0
256,196,44635,1,0
256,196,44787,1,0
256,196,44938,1,8
256,196,45241,1,4
256,196,45544,1,12
256,196,45846,1,4
256,196,46149,1,12
256,196,46452,1,0
256,196,46603,1,0
256,196,46754,1,8
256,196,47057,1,0
256,196,47360,1,8
256,196,47663,1,8
256,196,47814,1,8
256,196,47965,1,0
256,196,48268,1,0
256,196,48571,1,8
256,196,48873,1,0
256,196,49025,1,0
256,196,49176,1,8
256,196,49328,1,0
256,196,49479,1,8
256,196,49782,1,0
256,196,50084,1,8
256,196,50387,1,0
256,196,50690,1,0
256,196,50841,1,0
256,196,50993,1,8
256,196,51144,1,0
256,196,51295,1,8
256,196,51598,1,0
256,196,51901,1,8
256,196,52203,1,0
256,196,52506,1,8
256,196,52809,1,0
256,196,53112,1,8
256,196,53263,1,8
256,196,53414,1,0
256,196,53566,1,0
256,196,53717,1,8
256,196,54020,1,0
256,196,54323,1,8
256,196,54625,1,0
256,196,54928,1,0
256,196,55079,1,0
256,196,55231,1,8
256,196,55533,1,0
256,196,55836,1,8
256,196,56139,1,0
256,196,56290,1,0
256,196,56442,1,8
256,196,56744,1,0
256,196,57047,1,8
256,196,57350,1,8
256,196,57501,1,0
256,196,57653,1,8
256,196,57955,1,0
256,196,58258,1,8
256,196,58561,1,0
256,196,58712,1,0
256,196,58863,1,0
256,196,59015,1,8
256,196,59166,1,8
256,196,59469,1,0
256,196,59772,1,8
256,196,60074,1,0
256,196,60377,1,8
256,196,60680,1,0
256,196,60831,1,0
256,196,60982,1,8
256,196,61285,1,0
256,196,61588,1,8
256,196,61891,1,8
256,196,62042,1,8
256,196,62193,1,0
256,196,62496,1,8
256,196,62799,1,0
256,196,63102,1,0
256,196,63253,1,0
256,196,63404,1,8
256,196,63556,1,8
256,196,63707,1,0
256,196,63858,1,0
256,196,64010,1,8
256,196,64161,1,8
256,196,64312,1,0
256,196,64464,1,0
256,196,64615,1,8
256,196,64918,1,0
256,196,65221,1,0
256,196,65523,1,0
256,196,65826,1,8
256,196,65977,1,0
256,196,66129,1,8
256,196,66432,1,0
256,196,66734,1,8
256,196,66886,1,0
256,196,67037,1,8
256,196,67188,1,0
256,196,67340,1,0
256,196,67642,1,8
256,196,67945,1,8
256,196,68248,1,8
256,196,68399,1,8
256,196,68551,1,0
256,196,68853,1,0
256,196,69156,1,8
256,196,69459,1,0
256,196,69761,1,8
256,196,70064,1,0
256,196,70216,1,0
256,196,70367,1,8
256,196,70518,1,0
256,196,70670,1,8
256,196,70972,1,0
256,196,71275,1,8
256,196,71578,1,0
256,196,71881,1,8
256,196,72032,1,8
256,196,72183,1,0
256,196,72486,1,0
256,196,72789,1,8
256,196,73091,1,0
256,196,73394,1,8
256,196,73697,1,0
256,196,73848,1,0
256,196,74000,1,8
256,196,74151,1,0
256,196,74302,1,0
256,196,74605,1,8
256,196,74908,1,0
256,196,75211,1,8
256,196,75513,1,0
256,196,75665,1,0
256,196,75816,1,8
256,196,76119,1,0
256,196,76421,1,8
256,196,76724,1,0
256,196,76876,1,0
256,196,77027,1,8
256,196,77330,1,0
256,196,77632,1,8
256,196,77935,1,0
256,196,78086,1,0
256,196,78238,1,8
256,196,78389,1,0
256,196,78540,1,0
256,196,78692,1,0
256,196,78843,1,8
256,196,79146,1,0
256,196,79449,1,8
256,196,79751,1,0
256,196,79903,1,0
256,196,80054,1,8
256,196,80357,1,0
256,196,80660,1,8
256,196,80962,1,0
256,196,81114,1,0
256,196,81265,1,8
256,196,81416,1,0
256,196,81568,1,8
256,196,81870,1,0
256,196,82173,1,8
256,196,82325,1,0
256,196,82476,1,8
256,196,82627,1,0
256,196,82779,1,0
256,196,83081,1,8
256,196,83384,1,0
256,196,83535,1,0
256,196,83687,1,8
256,196,83838,1,8
256,196,83990,1,0
256,196,84292,1,8
256,196,84595,1,0
256,196,84746,1,0
256,196,84898,1,8
256,196,85200,1,0
256,196,85352,1,0
256,196,85503,1,8
256,196,85655,1,0
256,196,85806,1,0
256,196,85957,1,0
256,196,86109,1,8
256,196,86260,1,0
256,196,86411,1,0
256,196,86563,1,0
256,196,86714,1,8
