osu file format v9

[General]
AudioFilename: Shoko Hakagawa - Tsuyogari.mp3
AudioLeadIn: 1004
PreviewTime: -1
Countdown: 0
SampleSet: Normal
StackLeniency: 0.7
Mode: 0
LetterboxInBreaks: 1

[Editor]
Bookmarks: 44966
DistanceSpacing: 0.8
BeatDivisor: 8
GridSize: 4

[Metadata]
Title:Tsuyogari (TV Size)
Artist:Shoko Hakagawa
Creator:jdle07
Version:Normal
Source:Beelzebub
Tags:beelezbub ending 2 shoko hakagawa tsuyogari

[Difficulty]
HPDrainRate:5
CircleSize:3
OverallDifficulty:0
ApproachRate:6
SliderMultiplier:2.00000000596046
SliderTickRate:0.5

[Events]
//Background and Video events
0,0,"BG.jpg"
Video,0,"Video.avi"
//Break Periods
//Storyboard Layer 0 (Background)
//Storyboard Layer 1 (Fail)
//Storyboard Layer 2 (Pass)
//Storyboard Layer 3 (Foreground)
//Storyboard Sound Samples
//Background Colour Transformations
3,100,163,162,255

[TimingPoints]
740,605.449041372351,4,1,1,85,1,0
46451,-100,4,1,1,85,0,1
63403,-100,4,1,1,85,0,0
65878,605.449041372351,4,1,1,85,1,0
65878,-100,4,1,1,85,0,1
87674,-100,4,1,1,85,0,0

[Colours]
Combo1 : 16,39,199
Combo2 : 228,247,9
Combo3 : 243,243,248
Combo4 : 56,171,7

[HitObjects]
76,80,7097,1,0
76,80,7399,1,0
76,80,7702,1,0
156,76,8005,2,8,B|276:76|292:196,1,200.000000596046
212,196,8913,1,0
132,196,9216,1,8
52,196,9519,2,8,B|52:256|116:272,2,100.000000298023
48,116,10427,1,0
128,116,10729,1,8
208,116,11032,2,0,B|320:116,2,100.000000298023
208,196,11940,5,0
208,276,12243,2,8,B|272:280|292:204,1,100.000000298023
292,144,12848,2,0,B|356:140|376:216,1,100.000000298023
372,276,13454,2,8,B|488:276,2,100.000000298023
292,276,14362,1,0
212,276,14665,2,8,B|208:212|284:192,3,100.000000298023
344,200,15876,1,0
424,200,16178,2,8,B|424:100,1,100.000000298023
344,100,16784,5,0
264,100,17087,2,8,B|164:108,1,100.000000298023
56,260,17995,1,0
76,336,18298,2,8,B|176:336,1,100.000000298023
240,288,18903,1,0
296,228,19206,1,8
376,228,19508,2,8,B|444:228|444:160,2,100.000000298023
296,228,20417,1,0
216,228,20719,6,8,B|148:228|148:160,2,100.000000298023
296,228,21627,1,0
376,228,21930,1,8
456,224,22233,2,8,B|456:156|388:156,1,100.000000298023
320,160,22838,1,0
240,160,23141,2,0,B|240:92|308:92,2,100.000000298023
228,240,24049,1,0
160,284,24352,1,8
96,236,24655,5,0
64,164,24957,1,8
68,84,25260,1,0
144,60,25563,2,8,B|256:60,1,100.000000298023
392,140,26471,5,0
392,140,26774,2,8,B|392:256,1,100.000000298023
312,244,27379,1,0
232,244,27682,2,8,B|164:244|164:184,1,100.000000298023
164,108,28287,5,0
84,108,28590,2,8,B|84:40|144:40,2,100.000000298023
80,188,29498,1,0
80,268,29801,1,8
160,272,30104,2,8,B|228:272|228:212,1,100.000000298023
228,136,30709,2,0,B|328:136,1,100.000000298023
408,136,31315,1,8
408,216,31617,1,8
416,296,31920,6,0,B|344:340|224:232,1,200.000000596046
176,296,32828,1,8
116,240,33131,2,8,B|36:160,2,100.000000298023
196,240,34039,1,0
276,240,34342,2,8,B|388:240,3,100.000000298023
160,344,36158,5,8
160,344,36461,2,0,B|92:344|92:280,1,100.000000298023
152,236,37066,1,8
220,192,37369,1,0
292,156,37672,1,8
276,80,37975,6,8,B|172:80,1,100.000000298023
96,80,38580,2,8,B|96:196,1,100.000000298023
176,180,39186,2,8,B|248:180|248:256,1,100.000000298023
248,316,39791,1,0
168,316,40094,2,8,B|168:256|236:256,1,100.000000298023
312,136,41002,5,0
232,136,41305,1,0
152,136,41607,2,8,B|48:136,2,100.000000298023
152,216,42515,1,0
232,216,42818,1,0
312,216,43121,2,8,B|380:216|380:284,2,100.000000298023
256,192,44029,12,8,45240
232,192,45543,6,8,B|292:192,5,50.0000001490115
232,192,46451,5,0
152,196,46754,2,0,B|24:128|152:40,1,200.000000596046
224,40,47662,1,8
304,48,47965,1,0
384,64,48267,2,8,B|476:124|476:120,1,100.000000298023
472,196,48873,1,0
472,276,49175,1,8
396,300,49478,2,8,B|292:280,2,100.000000298023
276,196,50689,5,0
212,144,50992,1,0
144,100,51294,2,8,B|56:40,2,100.000000298023
212,144,52203,1,0
172,216,52505,1,0
332,192,53111,2,8,B|388:192,2,50.0000001490115
252,192,53716,1,0
172,192,54019,1,0
92,192,54322,2,8,B|36:236|96:288,2,100.000000298023
180,60,55533,6,8,B|284:60,1,100.000000298023
340,116,56138,1,0
392,176,56441,1,8
344,248,56744,2,8,B|240:288|136:240,1,200.000000596046
108,176,57652,2,8,B|192:116,2,100.000000298023
164,236,58560,1,0
224,292,58863,1,8
284,344,59165,1,0
224,292,59468,1,8
164,236,59771,1,0
84,100,60376,6,8,B|184:136,1,100.000000298023
252,160,60982,1,0
328,184,61284,2,8,B|416:236|416:236,2,100.000000298023
256,216,62193,1,0
184,248,62495,1,8
112,216,62798,1,0
56,156,63101,1,8
40,80,63403,2,8,B|156:108|224:184|224:184|292:108|404:84,1,400.000001192092
316,224,65296,5,0
236,224,65598,1,0
156,224,65878,2,8,B|56:224,2,100.000000298023
160,144,66786,2,0,B|200:108,1,50.0000001490115
228,84,67088,1,8
380,132,67694,5,0
452,172,67997,1,0
380,208,68299,2,8,B|276:232,2,100.000000298023
384,288,69207,1,0
304,288,69510,2,8,B|208:220,1,100.000000298023
156,188,70116,1,0
84,152,70418,1,8
56,228,70721,2,8,B|148:288,3,100.000000298023
192,220,71932,2,0,B|280:152|392:216,1,200.000000596046
456,232,72840,1,8
424,304,73143,2,8,B|320:248,1,100.000000298023
272,208,73748,6,0,B|196:132,2,100.000000298023
112,264,74959,1,8
180,308,75262,1,0
260,308,75565,2,8,B|360:264|280:120,1,200.000000596046
232,80,76473,1,0
152,84,76776,1,8
96,236,77381,1,8
176,236,77684,1,0
256,232,77986,6,8,B|360:232,2,100.000000298023
184,196,78895,1,0
112,164,79197,1,8
224,76,79803,2,8,B|124:24,2,100.000000298023
288,128,80711,1,0
332,60,81014,2,8,B|432:120,1,100.000000298023
366,172,81619,1,0
252,204,82149,2,0,B|140:204,1,100.000000298023
72,204,82754,2,0,B|68:104|264:116,1,200.000000596046
304,116,83663,1,0
384,116,83965,2,0,B|444:216|368:308,1,200.000000596046
292,304,84873,1,0
256,192,85176,12,14,86538
