osu file format v12

[General]
AudioFilename: .mp3
AudioLeadIn: 1996
PreviewTime: 96510
Countdown: 0
SampleSet: Soft
StackLeniency: 0.3
Mode: 0
LetterboxInBreaks: 0
WidescreenStoryboard: 1

[Editor]
Bookmarks: 26110,51710,77310
DistanceSpacing: 1.4
BeatDivisor: 4
GridSize: 16

[Metadata]
Title:Subete no Hitono Tamashiino Tatakai
TitleUnicode:全ての人の魂の戦い
Artist:Shoji Meguro
ArtistUnicode:目黒将司
Creator:Melt
Version:Hard
Source:Shin Megami Tensei: Persona 3
Tags:Aniplex smt fes
BeatmapID:285968
BeatmapSetID:105412

[Difficulty]
HPDrainRate:6
CircleSize:4
OverallDifficulty:5
ApproachRate:7
SliderMultiplier:1.6
SliderTickRate:1

[Events]
//Background and Video events
0,0,"night.jpg",0,0
//Break Periods
2,77488,89188
2,147888,153188
//Storyboard Layer 0 (Background)
//Storyboard Layer 1 (Fail)
//Storyboard Layer 2 (Pass)
//Storyboard Layer 3 (Foreground)
//Storyboard Sound Samples
//Background Colour Transformations
3,100,163,162,255

[TimingPoints]
488,400,4,2,1,50,1,0
488,-133.333333333333,4,2,1,50,0,0
5238,-133.333333333333,4,2,1,30,0,0
5638,-133.333333333333,4,2,1,35,0,0
6038,-133.333333333333,4,2,1,40,0,0
6438,-133.333333333333,4,2,1,45,0,0
6838,-133.333333333333,4,2,1,50,0,0
10138,-133.333333333333,4,2,1,30,0,0
12038,-133.333333333333,4,2,1,35,0,0
12438,-133.333333333333,4,2,1,40,0,0
13238,-133.333333333333,4,2,1,50,0,0
20238,-133.333333333333,4,2,2,70,0,0
22838,-200,4,2,1,40,0,0
23638,-200,4,2,1,30,0,0
24438,-200,4,2,1,20,0,0
25238,-200,4,2,1,10,0,0
26038,-111.111111111111,4,2,2,60,0,0
38838,-111.111111111111,4,2,0,50,0,0
39238,-111.111111111111,4,2,2,60,0,0
45238,-111.111111111111,4,2,0,50,0,0
45638,-111.111111111111,4,2,2,60,0,0
49438,-111.111111111111,4,2,2,50,0,0
50038,-111.111111111111,4,2,2,40,0,0
50638,-111.111111111111,4,2,2,30,0,0
51238,-111.111111111111,4,2,2,45,0,0
51638,-111.111111111111,4,2,1,60,0,0
54838,-111.111111111111,4,2,1,50,0,0
55638,-111.111111111111,4,2,1,55,0,0
56438,-111.111111111111,4,2,1,60,0,0
57238,-111.111111111111,4,2,1,65,0,0
58038,-111.111111111111,4,2,1,60,0,0
61238,-111.111111111111,4,2,1,50,0,0
62038,-111.111111111111,4,2,1,55,0,0
62838,-111.111111111111,4,2,1,60,0,0
63638,-111.111111111111,4,2,1,65,0,0
64438,-111.111111111111,4,2,1,60,0,0
70938,-111.111111111111,4,2,1,40,0,0
71688,-111.111111111111,4,2,1,30,0,0
72488,-111.111111111111,4,2,1,20,0,0
73638,-111.111111111111,4,2,1,10,0,0
74038,-111.111111111111,4,2,1,40,0,0
74138,-111.111111111111,4,2,1,40,0,0
74888,-111.111111111111,4,2,1,35,0,0
75688,-111.111111111111,4,2,1,30,0,0
76488,-111.111111111111,4,2,1,25,0,0
77238,-133.333333333333,4,2,1,40,0,0
90038,-133.333333333333,4,2,2,25,0,0
96438,-133.333333333333,4,2,1,30,0,0
98038,-133.333333333333,4,2,2,40,0,0
102888,-100,4,2,1,60,0,1
105238,-100,4,2,1,65,0,1
106038,-100,4,2,1,60,0,1
107638,-100,4,2,1,55,0,1
108238,-100,4,2,1,60,0,1
108438,-100,4,2,1,65,0,1
109238,-100,4,2,1,60,0,1
110838,-100,4,2,1,65,0,1
112438,-100,4,2,1,70,0,1
114038,-100,4,2,1,65,0,1
115638,-100,4,2,1,60,0,1
118038,-100,4,2,1,65,0,1
118838,-100,4,2,1,60,0,1
120438,-100,4,2,1,70,0,1
122038,-100,4,2,1,65,0,1
125238,-100,4,2,1,60,0,1
126838,-100,4,2,1,55,0,1
128438,-100,4,2,1,60,0,1
130838,-100,4,2,1,65,0,1
131638,-100,4,2,1,70,0,1
133038,-100,4,2,1,75,0,1
134838,-100,4,2,1,65,0,1
136438,-100,4,2,1,60,0,1
139838,-100,4,2,1,55,0,1
141288,-111.111111111111,4,2,1,60,0,0
141388,-111.111111111111,4,2,1,50,0,0
142888,-111.111111111111,4,2,1,45,0,0
144488,-111.111111111111,4,2,1,40,0,0
146088,-111.111111111111,4,2,1,35,0,0
147638,-111.111111111111,4,2,1,30,0,0
154038,-111.111111111111,4,2,1,40,0,0
154663,-133.333333333333,4,2,2,40,0,0
155738,-111.111111111111,4,2,1,40,0,0
157863,-133.333333333333,4,2,2,40,0,0
159063,-111.111111111111,4,2,1,40,0,0
161063,-133.333333333333,4,2,2,40,0,0
162038,-111.111111111111,4,2,2,40,0,0
162238,-111.111111111111,4,2,1,40,0,0
164263,-133.333333333333,4,2,2,40,0,0
165238,-133.333333333333,4,2,1,30,0,0
165463,-111.111111111111,4,2,1,40,0,0

[Colours]
Combo1 : 255,128,192
Combo2 : 134,255,134
Combo3 : 190,125,255
Combo4 : 121,188,255
Combo5 : 215,215,215
Combo6 : 46,46,46
Combo7 : 255,45,45
Combo8 : 255,158,62

[HitObjects]
365,293,488,54,0,L|402:355,2,60.0000022888184,2|0|0,0:0|0:0|0:0,0:0:0:0:
203,244,1288,1,8,0:0:0:0:
119,231,1488,2,0,P|47:253|-5:230,1,120.000004577637,2|0,0:0|0:0,0:0:0:0:
59,173,2088,2,0,P|131:151|183:174,1,120.000004577637,2|0,0:0|0:0,0:0:0:0:
333,206,2888,1,8,0:0:0:0:
492,154,3288,1,0,0:0:0:0:
333,206,3688,6,0,P|318:261|344:321,1,120.000004577637,2|0,0:0|0:0,0:0:0:0:
397,133,4488,2,0,P|412:78|386:18,1,120.000004577637,8|0,0:0|0:0,0:0:0:0:
238,96,5288,1,2,0:0:0:0:
142,234,5688,1,0,0:0:0:0:
120,67,6088,2,0,L|66:27,2,60.0000022888184,10|0|0,0:0|0:0|0:0,0:0:0:0:
47,219,6888,102,0,L|-1:183,2,60.0000022888184,2|0|0,0:0|0:0|0:0,0:0:0:0:
172,331,7688,1,8,0:0:0:0:
240,379,7888,2,0,P|255:331|225:265,1,120.000004577637,2|0,0:0|0:0,0:0:0:0:
271,196,8488,2,0,L|390:186,1,120.000004577637,2|0,0:0|0:0,0:0:0:0:
391,186,9288,1,8,0:0:0:0:
366,19,9688,1,0,0:0:0:0:
236,125,10088,1,2,0:0:0:0:
256,192,10188,12,0,12488,0:0:0:0:
453,65,13288,102,0,L|530:53,2,60.0000022888184,6|0|2,0:0|0:0|0:0,0:0:0:0:
395,125,13888,22,0,P|336:142|270:122,1,120.000004577637,2|0,0:0|0:0,0:0:0:0:
200,102,14488,2,0,P|144:88|85:105,1,120.000004577637
6,74,15088,2,0,P|-12:121|54:250,1,180.000006866455,2|8,0:0|0:0,0:0:0:0:
32,236,16088,1,0,0:0:0:0:
180,157,16488,102,0,P|232:182|309:164,1,120.000004577637,2|0,0:0|0:0,0:0:0:0:
450,115,17288,2,0,P|398:90|321:108,1,120.000004577637,8|0,0:0|0:0,0:0:0:0:
181,157,18088,2,0,P|166:210|193:276,1,120.000004577637,2|0,0:0|0:0,0:0:0:0:
36,343,18888,2,0,L|110:326,2,60.0000022888184,8|0|2,0:0|0:0|0:0,0:0:0:0:
203,363,19688,102,0,L|261:349,2,60.0000022888184,6|0|2,0:0|0:0|0:0,0:0:0:0:
145,301,20288,22,0,P|135:222|161:186,1,120.000004577637,2|0,0:0|0:0,0:0:0:0:
140,108,20888,2,0,L|220:124,1,60.0000022888184,2|0,0:0|0:0,0:0:0:0:
281,137,21288,1,2,0:0:0:0:
355,98,21488,2,0,P|415:115|479:92,1,120.000004577637,2|0,0:0|0:0,0:0:0:0:
411,37,22088,2,0,L|409:169,1,120.000004577637
451,260,22888,101,0,0:0:0:0:
451,275,23688,1,0,0:0:0:0:
451,290,24488,1,0,0:0:0:0:
451,306,25288,1,0,0:0:0:0:
106,337,26088,70,0,P|95:275|137:196,1,143.999995605469,2|8,0:0|0:0,0:0:0:0:
3,85,26888,2,0,P|70:71|163:117,1,143.999995605469,0|8,0:0|0:0,0:0:0:0:
255,223,27688,2,0,P|304:173|308:90,1,143.999995605469,2|8,0:0|0:0,0:0:0:0:
380,49,28288,2,0,P|465:110|480:219,1,215.999993408203,2|8,0:0|0:0,0:0:0:0:
371,348,29288,6,0,L|230:316,1,143.999995605469,2|8,0:0|0:0,0:0:0:0:
371,216,30088,2,0,L|531:248,1,143.999995605469,0|8,0:0|0:0,0:0:0:0:
421,96,30888,2,0,L|261:64,1,143.999995605469,2|8,0:0|0:0,0:0:0:0:
194,78,31488,2,0,P|173:156|218:225,1,143.999995605469,2|0,0:0|0:0,0:0:0:0:
275,251,32088,2,0,L|371:251,1,71.9999978027344,8|0,0:0|0:0,0:0:0:0:
374,332,32488,6,0,L|230:332,1,143.999995605469,2|8,0:0|0:0,0:0:0:0:
55,315,33288,2,0,P|19:253|51:171,1,143.999995605469,0|8,0:0|0:0,0:0:0:0:
101,28,34088,2,0,P|137:90|105:172,1,143.999995605469,2|8,0:0|0:0,0:0:0:0:
107,242,34688,2,0,P|196:266|299:165,1,215.999993408203,2|8,0:0|0:0,0:0:0:0:
442,117,35688,86,0,P|367:96|303:121,1,143.999995605469,2|8,0:0|0:0,0:0:0:0:
126,46,36488,2,0,P|201:67|265:42,1,143.999995605469,0|8,0:0|0:0,0:0:0:0:
442,117,37288,2,0,P|367:96|303:121,1,143.999995605469,2|8,0:0|0:0,0:0:0:0:
374,182,37888,2,0,P|446:206|513:178,1,143.999995605469,2|0,0:0|0:0,0:0:0:0:
487,275,38488,2,0,L|469:360,1,71.9999978027344,8|0,0:0|0:0,0:0:0:0:
385,349,38888,86,0,L|403:264,2,71.9999978027344,2|2|8,0:0|0:0|0:0,0:0:0:0:
214,323,39688,38,0,P|148:347|70:323,1,143.999995605469,0|8,0:0|0:0,0:0:0:0:
74,156,40488,2,0,P|140:132|218:156,1,143.999995605469,2|8,0:0|0:0,0:0:0:0:
255,76,41088,2,0,P|212:140|258:282,1,215.999993408203,2|8,0:0|0:0,0:0:0:0:
446,180,42088,6,0,P|382:201|308:175,1,143.999995605469,2|8,0:0|0:0,0:0:0:0:
121,74,42888,2,0,P|185:53|258:78,1,143.999995605469,0|8,0:0|0:0,0:0:0:0:
133,199,43688,2,0,P|69:220|-4:194,1,143.999995605469,2|8,0:0|0:0,0:0:0:0:
67,137,44288,2,0,L|62:298,1,143.999995605469,2|0,0:0|0:0,0:0:0:0:
148,295,44888,2,0,L|146:382,1,71.9999978027344,8|0,0:0|0:0,0:0:0:0:
228,337,45288,54,0,L|229:265,2,71.9999978027344,2|2|8,0:0|0:0|0:0,0:0:0:0:
400,352,46088,22,0,L|405:191,1,143.999995605469,0|8,0:0|0:0,0:0:0:0:
480,48,46888,2,0,P|408:25|328:54,3,143.999995605469,2|8|2|8,0:0|0:0|0:0|0:0,0:0:0:0:
190,123,48488,5,0,0:0:0:0:
23,77,48888,1,8,0:0:0:0:
42,335,49488,1,8,0:0:0:0:
287,271,50088,1,8,0:0:0:0:
110,81,50688,1,8,0:0:0:0:
154,336,51288,2,0,L|234:336,1,71.9999978027344,8|0,0:0|0:0,0:0:0:0:
287,271,51688,101,0,0:0:0:0:
449,211,52088,2,0,L|369:211,1,71.9999978027344,8|0,0:0|0:0,0:0:0:0:
294,186,52488,2,0,P|282:98|321:45,1,143.999995605469,0|8,3:0|0:0,0:0:0:0:
138,28,53288,1,0,0:0:0:0:
7,141,53688,2,0,L|7:216,1,71.9999978027344,8|0,0:0|0:0,0:0:0:0:
34,294,54088,2,0,P|86:332|178:318,1,143.999995605469,0|8,3:0|0:0,0:0:0:0:
333,319,54888,6,0,P|330:249|280:200,3,143.999995605469,0|8|0|8,0:0|0:0|0:0|0:0,0:0:0:0:
145,91,56488,1,0,0:0:0:0:
367,91,56888,1,8,0:0:0:0:
132,103,57288,2,0,L|99:194,1,71.9999978027344
380,103,57688,2,0,L|413:194,1,71.9999978027344,8|0,0:0|0:0,0:0:0:0:
379,263,58088,5,0,0:0:0:0:
485,383,58488,2,0,L|452:292,1,71.9999978027344,8|0,0:0|0:0,0:0:0:0:
379,263,58888,2,0,P|308:285|240:260,1,143.999995605469,0|8,3:0|0:0,0:0:0:0:
77,189,59688,1,0,0:0:0:0:
0,325,60088,2,0,L|6:251,1,71.9999978027344,8|0,0:0|0:0,0:0:0:0:
77,189,60488,2,0,P|107:117|66:37,1,143.999995605469,0|8,3:0|0:0,0:0:0:0:
258,42,61288,86,0,L|435:66,1,143.999995605469,0|8,0:0|0:0,0:0:0:0:
511,194,62088,2,0,L|334:170,1,143.999995605469,0|8,0:0|0:0,0:0:0:0:
94,285,62888,1,0,0:0:0:0:
418,285,63288,1,8,0:0:0:0:
77,259,63688,2,0,L|99:190,1,71.9999978027344
435,259,64088,2,0,L|412:190,1,71.9999978027344,8|0,0:0|0:0,0:0:0:0:
328,166,64488,6,0,L|305:97,1,71.9999978027344
240,155,64888,2,0,L|263:224,1,71.9999978027344,8|0,0:0|0:0,0:0:0:0:
217,76,65288,2,0,P|132:54|78:80,1,143.999995605469,0|8,3:0|0:0,0:0:0:0:
0,233,66088,2,0,L|22:301,1,71.9999978027344
91,248,66488,2,0,L|68:179,1,71.9999978027344,8|0,0:0|0:0,0:0:0:0:
102,329,66888,2,0,P|168:352|250:316,1,143.999995605469,0|8,3:0|0:0,0:0:0:0:
402,284,67688,6,0,L|473:292,1,71.9999978027344
511,215,68088,2,0,L|439:206,1,71.9999978027344,8|0,0:0|0:0,0:0:0:0:
352,212,68488,2,0,P|332:155|376:75,1,143.999995605469,0|8,3:0|0:0,0:0:0:0:
193,72,69288,2,0,L|108:91,1,71.9999978027344
282,227,69688,2,0,L|352:211,1,71.9999978027344,8|0,0:0|0:0,0:0:0:0:
70,168,70088,2,0,L|-15:187,1,71.9999978027344
159,323,70488,2,0,L|229:307,1,71.9999978027344,8|0,0:0|0:0,0:0:0:0:
313,287,70888,1,0,0:0:0:0:
256,192,70988,12,0,73688,0:0:0:0:
256,192,74088,101,0,0:0:0:0:
256,192,74188,12,4,77288,0:0:0:0:
256,32,90088,21,0,0:0:0:0:
256,352,90888,1,0,0:0:0:0:
256,112,91688,1,0,0:0:0:0:
256,272,92488,1,0,0:0:0:0:
256,192,93288,1,0,0:0:0:0:
256,192,94888,1,0,0:0:0:0:
256,192,96488,101,0,0:0:0:0:
256,192,98088,1,0,0:0:0:0:
256,192,99688,2,0,L|242:269,2,60.0000022888184,2|0|0,0:0|0:0|0:0,0:0:0:0:
396,60,100488,2,0,P|338:44|278:63,1,120.000004577637,2|0,0:0|0:0,0:0:0:0:
186,66,101088,1,0,0:0:0:0:
104,117,101288,2,0,L|43:95,2,60.0000022888184,2|0|0,0:0|0:0|0:0,0:0:0:0:
104,117,102088,1,0,0:0:0:0:
364,162,102888,54,0,P|447:199|531:169,2,160,4|0|8,0:0|0:0|0:0,0:0:0:0:
190,78,104088,1,0,0:0:0:0:
115,138,104288,1,0,0:0:0:0:
54,212,104488,2,0,P|123:233|197:186,1,160,0|0,3:0|0:0,0:0:0:0:
271,131,105088,1,0,0:0:0:0:
271,131,105288,2,0,L|380:116,1,80,8|0,0:0|0:0,0:0:0:0:
512,251,105688,2,0,L|416:265,1,80
366,197,106088,6,0,P|343:283|393:344,1,160,0|0,3:0|0:0,0:0:0:0:
189,356,106888,2,0,L|97:334,1,80,8|0,0:0|0:0,0:0:0:0:
79,250,107288,2,0,L|171:272,1,80
28,319,107688,2,0,P|-5:249|49:168,1,160,0|0,3:0|0:0,0:0:0:0:
3,87,108288,1,0,0:0:0:0:
93,54,108488,2,0,L|195:71,1,80,8|0,0:0|0:0,0:0:0:0:
285,243,108888,2,0,L|362:262,1,80
455,287,109288,85,0,3:0:0:0:
497,99,109688,1,0,0:0:0:0:
497,99,110088,2,0,L|392:115,1,80,8|0,0:0|0:0,0:0:0:0:
227,83,110488,1,0,0:0:0:0:
310,140,110688,1,0,0:0:0:0:
219,180,110888,1,0,3:0:0:0:
194,370,111288,1,0,0:0:0:0:
11,312,111688,1,8,0:0:0:0:
11,312,111888,2,0,L|107:342,2,80
0,206,112488,5,0,3:0:0:0:
42,119,112688,2,0,P|121:113|170:49,1,160
264,54,113288,2,0,L|344:54,1,80,8|0,0:0|0:0,0:0:0:0:
399,132,113688,2,0,L|303:132,1,80
240,186,114088,1,0,3:0:0:0:
328,222,114288,2,0,P|320:315|370:366,1,160
478,263,114888,2,0,L|397:279,1,80,8|0,0:0|0:0,0:0:0:0:
400,279,115288,1,0,0:0:0:0:
216,329,115688,6,0,P|141:355|61:321,2,160,0|0|8,3:0|0:0|0:0,0:0:0:0:
49,233,116888,2,0,L|35:154,1,80
21,58,117288,2,0,P|96:32|176:66,1,160,0|0,3:0|0:0,0:0:0:0:
227,135,117888,1,0,0:0:0:0:
214,230,118088,2,0,L|227:308,1,80,8|0,0:0|0:0,0:0:0:0:
432,350,118488,2,0,L|418:271,1,80
339,216,118888,86,0,P|394:177|494:208,3,160,0|0|8|0,3:0|0:0|0:0|0:0,0:0:0:0:
480,195,120288,1,0,0:0:0:0:
497,101,120488,2,0,L|509:21,1,80,0|0,3:0|0:0,0:0:0:0:
226,67,120888,2,0,L|214:147,1,80
350,234,121288,2,0,L|362:154,1,80,8|0,0:0|0:0,0:0:0:0:
79,200,121688,2,0,L|67:280,1,80
145,335,122088,6,0,P|225:366|300:322,1,160,0|0,3:0|0:0,0:0:0:0:
220,156,122888,1,8,0:0:0:0:
248,64,123088,1,0,0:0:0:0:
153,82,123288,2,0,L|57:66,1,80
8,139,123688,2,0,P|-2:216|40:281,1,160,0|0,3:0|0:0,0:0:0:0:
229,320,124488,1,8,0:0:0:0:
320,290,124688,2,0,L|400:306,1,80
490,278,125088,1,0,0:0:0:0:
422,209,125288,101,0,3:0:0:0:
486,137,125488,2,0,P|411:115|342:155,1,160
252,121,126088,2,0,P|214:129|166:117,3,80,8|0|0|0,0:0|0:0|0:0|0:0,0:0:0:0:
215,33,126888,1,0,3:0:0:0:
119,46,127088,2,0,P|83:126|117:200,1,160
19,229,127688,2,0,L|40:312,1,80,8|0,0:0|0:0,0:0:0:0:
120,272,128088,2,0,L|139:349,1,80,0|0,0:0|0:0,0:0:0:0:
235,338,128488,6,0,P|307:364|384:335,2,160,0|0|8,3:0|0:0|0:0,0:0:0:0:
379,211,129688,1,0,0:0:0:0:
472,234,129888,1,0,0:0:0:0:
379,211,130088,2,0,P|306:184|230:214,1,160,0|0,3:0|0:0,0:0:0:0:
306,280,130688,1,0,0:0:0:0:
147,261,130888,2,0,L|132:355,1,80,8|0,0:0|0:0,0:0:0:0:
0,181,131288,2,0,L|15:87,1,80
105,77,131688,6,0,P|158:58|263:122,2,160,0|0|8,3:0|0:0|0:0,0:0:0:0:
12,101,132688,2,0,L|0:181,1,80
52,261,133088,1,0,0:0:0:0:
113,335,133288,2,0,L|209:319,1,80,0|0,3:0|0:0,0:0:0:0:
512,176,133688,2,0,L|433:189,1,80
0,211,134088,2,0,L|96:195,1,80,8|0,0:0|0:0,0:0:0:0:
399,52,134488,2,0,L|320:65,1,80
79,198,134888,86,0,P|55:273|118:349,1,160,0|0,3:0|0:0,0:0:0:0:
287,340,135688,2,0,L|183:340,1,80,8|0,0:0|0:0,0:0:0:0:
151,261,136088,1,0,0:0:0:0:
203,180,136288,1,0,0:0:0:0:
297,204,136488,2,0,P|367:244|457:193,2,160,0|0|8,3:0|0:0|0:0,0:0:0:0:
374,147,137488,2,0,L|383:56,1,80
299,18,137888,1,0,0:0:0:0:
222,76,138088,5,0,3:0:0:0:
132,41,138288,2,0,P|135:129|203:174,1,160
276,207,138888,2,0,L|363:216,1,80,8|0,0:0|0:0,0:0:0:0:
393,303,139288,2,0,L|313:294,1,80
222,324,139688,5,0,3:0:0:0:
144,268,139888,2,0,P|74:305|-14:272,1,160
66,214,140488,2,0,L|55:123,2,80,8|0|8,0:0|0:0|0:0,0:0:0:0:
66,214,141288,1,4,0:0:0:0:
256,192,141388,12,4,147688,0:0:0:0:
273,118,154088,6,0,L|263:36,2,71.9999978027344,0|0|0,0:0|0:0|0:0,0:0:0:0:
273,118,154688,38,0,P|194:157|110:132,1,180.000006866455,2|0,0:0|0:0,0:0:0:0:
22,275,155688,69,0,0:0:0:0:
22,275,155888,2,0,L|42:365,2,71.9999978027344,0|0|0,0:0|0:0|0:0,0:0:0:0:
90,199,156488,2,0,L|110:289,2,71.9999978027344,0|0|0,0:0|0:0|0:0,0:0:0:0:
274,115,157288,22,0,L|254:25,2,71.9999978027344
274,115,157888,6,0,P|355:146|434:101,1,180.000006866455,2|0,0:0|0:0,0:0:0:0:
442,271,158888,101,0,0:0:0:0:
442,271,159088,2,0,L|525:252,2,71.9999978027344
360,211,159688,2,0,L|443:192,2,71.9999978027344
166,268,160488,102,0,L|153:357,2,71.9999978027344
166,268,161088,22,0,P|182:173|115:106,1,180.000006866455,2|0,0:0|0:0,0:0:0:0:
323,49,162088,85,0,0:0:0:0:
323,49,162288,2,0,L|245:64,2,71.9999978027344
416,85,162888,2,0,L|494:70,2,71.9999978027344
365,280,163688,102,0,L|435:266,2,71.9999978027344
365,280,164288,38,0,P|290:312|190:269,1,180.000006866455,2|0,0:0|0:0,0:0:0:0:
48,352,165288,69,0,0:0:0:0:
1,262,165488,2,0,L|14:188,1,71.9999978027344
87,122,165888,1,0,0:0:0:0:
165,184,166088,2,0,L|235:202,2,71.9999978027344
