osu file format v5

[General]
AudioFilename: Reach Out to the Truth.mp3
AudioLeadIn: 0
PreviewTime: -1
Countdown: 1
SampleSet: Soft
StackLeniency: 0.7
Mode: 0
LetterboxInBreaks: 1
EditorBookmarks: 54377,63376,65317,74669,75551,76963,85962,88785,133427,142426,144367

[Metadata]
Title:Reach Out to the Truth
Artist:Shoji Meguro
Creator:Mifune24
Version:Normal
Source:
Tags:

[Difficulty]
HPDrainRate:5
CircleSize:4
OverallDifficulty:5
SliderMultiplier:2.2
SliderTickRate:2

[Events]
//Background and Video events
0,0,"persona4.jpg"
//Break Periods
2,88985,98878
//Storyboard Layer 0 (Background)
//Storyboard Layer 1 (Failing)
//Storyboard Layer 2 (Passing)
//Storyboard Layer 3 (Foreground)
//Storyboard Sound Samples
//Background Colour Transformations
3,100,163,162,255

[TimingPoints]
1443,705.799317727326,4,2,0,100,1

[HitObjects]
160,96,1443,5,0
160,256,2148,1,0
320,256,2854,5,0
320,96,3560,1,0
496,92,4266,6,0,B|208:377,1,385
128,256,6030,1,0
64,192,6383,1,0
128,128,6736,1,0
192,192,7089,6,0,B|416:192,1,220
512,192,8148,1,2
512,96,8500,1,2
416,96,8853,1,2
320,96,9206,2,0,B|128:96,1,165
32,96,10265,5,0
32,192,10618,1,0
32,288,10971,1,0
32,288,11147,1,0
160,288,11677,5,0
160,192,12029,1,0
160,96,12382,1,0
160,96,12559,1,0
288,96,13088,5,0
384,96,13441,1,0
384,192,13794,1,0
384,192,13970,2,0,B|384:320,1,110
288,320,14676,2,0,B|160:320,1,220
64,192,15911,6,0,B|64:64|192:32|256:32,1,275
256,32,17323,2,0,B|416:32|448:160|448:224,1,275
448,192,18735,2,0,B|448:320|320:384|256:352,1,275
128,320,21028,5,0
256,320,21558,1,0
256,224,21911,1,0
256,128,22264,1,0
160,128,22616,2,0,B|32:128,1,110
64,32,23322,2,0,B|192:32,1,110
256,32,24028,5,0
320,96,24381,1,0
384,160,24734,1,0
448,224,25087,1,0
320,224,25616,2,0,B|128:224,1,165
64,224,26498,1,0
64,96,27028,6,2,B|256:96,1,165
320,96,27910,1,2
384,160,28263,2,2,B|480:256,1,110
416,320,28969,2,2,B|320:224,1,110
192,320,30204,5,0
193,188,30733,2,0,B|140:224|85:154,1,110
141,43,31615,2,0,B|218:10|288:99,1,165
384,320,32851,5,2
448,256,33203,1,2
480,128,33733,1,4
384,128,34086,1,4
288,128,34439,2,4,B|224:160|96:128,1,165
32,224,35497,6,0,B|32:320|160:320,1,165
224,320,36380,1,2
224,224,36732,1,2
320,224,37085,1,2
416,224,37438,2,0,B|416:96,1,110
287,144,38321,6,0,B|228:104|163:160,1,110
103,180,39026,1,0
35,236,39379,1,0
107,286,39732,2,0,B|196:335|316:322|381:278,1,275
256,192,41144,12,0,43438
160,96,43790,5,2
320,96,44496,1,4
320,256,45202,5,2
160,256,45908,1,4
0,226,46614,6,0,B|319:-3,1,385
384,96,48378,1,0
448,160,48731,1,0
384,224,49084,1,0
320,160,49437,6,0,B|96:160,1,220
0,160,50496,1,0
32,256,50848,1,0
96,320,51201,1,0
192,352,51554,1,0
288,352,51907,1,0
373,329,52260,2,0,B|476:269|500:203|492:125|459:48|371:2|286:-4|199:23|151:107|169:201,1,660
128,320,55083,5,0
128,224,55436,1,0
128,224,55613,1,0
352,224,56495,1,0
352,320,56848,1,0
352,320,57024,1,0
352,96,57906,5,2
256,96,58259,1,2
256,96,58436,1,2
160,96,58789,1,2
96,160,59142,1,2
160,274,59671,2,4,B|215:319|299:266,2,110
162,185,60730,2,4,B|249:145|344:199,1,165
448,160,61788,5,0
384,96,62141,1,0
288,64,62494,1,0
192,64,62847,1,0
64,64,63376,2,0,B|0:160|32:320|160:352|352:352|384:160,1,605
257,46,66376,6,0,B|321:44|356:113,1,110
347,98,66905,1,0
349,256,67788,2,0,B|349:320|268:325,1,110
277,324,68317,1,0
155,251,69199,2,0,B|95:243|78:166,1,110
81,178,69729,1,0
164,149,70081,6,0,B|315:81,1,110
386,54,70964,2,0,B|469:81|438:176,2,110
359,137,72022,2,0,B|303:207|390:303,1,165
253,334,73081,5,2
167,353,73434,1,2
78,351,73787,1,2
1,308,74140,1,2
40,182,74669,2,2,B|40:112|66:25|87:0|142:-11|194:-14|239:10|254:75|245:171|265:231|372:276|435:233|443:-2,1,715
261,56,77669,6,0,B|194:53|169:116,1,110
172,108,78198,1,0
160,258,79080,2,0,B|160:324|247:340,1,110
225,335,79610,1,0
396,276,80492,2,0,B|451:233|409:155,1,110
419,177,81021,1,0
337,143,81374,6,0,B|231:99,1,110
110,58,82257,2,0,B|38:90|66:149,2,110
155,133,83315,2,0,B|234:226|156:317,1,165
315,341,84374,5,2
393,300,84727,1,2
455,238,85080,1,2
454,149,85433,1,2
340,81,85962,2,4,B|263:29|170:8|87:38|26:106|24:218|29:279|61:322|118:363|197:371|285:348|368:298|358:137,1,880
160,320,100078,5,0
288,320,100607,1,0
352,256,100960,1,0
416,192,101313,1,0
480,128,101666,2,0,B|480:0,3,110
384,32,103078,5,2
320,96,103431,1,2
256,32,103783,1,2
192,96,104136,1,2
64,160,104666,2,0,B|192:288,1,165
256,320,105548,1,4
384,320,106077,5,0
384,192,106607,2,0,B|320:96,1,110
256,32,107312,1,0
160,32,107665,1,0
128,128,108018,1,0
224,128,108371,1,0
448,128,109253,5,0
448,256,109783,1,0
384,320,110136,2,0,B|288:352|192:320|128:288|96:256|64:224,1,330
96,96,111724,6,0,B|320:96,1,220
384,160,112782,1,4
384,256,113135,1,4
288,224,113488,1,4
192,192,113841,2,4,B|128:192|128:256|192:288,1,110
224,320,114547,6,0,B|288:352|416:352,1,165
448,288,115429,1,0
480,192,115782,2,0,B|480:64,1,110
384,64,116488,2,0,B|384:192,1,110
384,288,117370,5,0
384,288,117546,1,0
384,288,117723,1,0
288,256,118076,1,0
288,160,118429,1,0
288,64,118782,2,0,B|0:64,1,275
256,192,120193,12,0,122487
160,128,122840,5,2
160,288,123546,1,4
320,288,124252,5,2
320,128,124957,1,4
182,18,125663,6,0,B|15:370,1,385
160,320,127428,1,2
160,224,127781,1,2
256,224,128133,1,2
256,320,128486,2,0,B|448:320,1,165
480,192,129545,5,0
425,123,129898,1,0
363,60,130251,1,0
280,29,130604,1,0
192,19,130957,1,0
108,46,131310,1,0
30,203,132015,2,0,B|4:280|92:349|204:350|305:342|382:317|422:264,1,440
416,128,134133,5,2
320,128,134486,1,2
320,128,134662,1,2
96,128,135544,1,2
192,128,135897,1,2
192,128,136074,1,2
256,352,136956,5,4
352,352,137309,1,4
352,352,137485,1,4
384,256,137838,1,6
352,160,138191,1,6
220,160,138720,2,4,B|155:160|105:97,2,110
201,246,139779,2,4,B|258:278|332:266|349:186,1,165
283,328,140838,5,0
369,317,141191,1,0
440,265,141544,1,0
464,180,141897,1,0
356,103,142426,2,0,B|297:31|233:4|138:18|38:73|28:210|70:336|209:335,1,605
264,312,145426,6,0,B|191:314|164:254,1,110
170,266,145955,1,0
129,118,146837,2,0,B|126:51|237:30,1,110
195,40,147367,1,0
345,98,148249,2,0,B|411:145|350:210,1,110
364,192,148778,1,0
350,293,149131,6,2,B|286:197,1,110
227,84,150013,2,4,B|178:128|121:83,2,110
260,165,151072,2,4,B|325:127|402:195|359:271,1,165
256,320,152131,5,2
256,224,152484,1,2
256,128,152836,1,2
256,32,153189,1,2
256,192,153719,12,0,156718
