osu file format v5

[General]
AudioFilename: Reach Out to the Truth.mp3
AudioLeadIn: 0
PreviewTime: -1
Countdown: 1
SampleSet: Soft
StackLeniency: 0.7
Mode: 0
LetterboxInBreaks: 1
EditorBookmarks: 46614,47849,50496,52260,54377,63376,65317,74669,75551,76963,85962,88785,125663,126898,133427,142426,144367

[Metadata]
Title:Reach Out to the Truth
Artist:Shoji Meguro
Creator:Mifune24
Version:Hard
Source:
Tags:

[Difficulty]
HPDrainRate:7
CircleSize:5
OverallDifficulty:7
SliderMultiplier:2.6
SliderTickRate:2

[Events]
//Background and Video events
0,0,"persona4.jpg"
//Break Periods
2,88985,99028
//Storyboard Layer 0 (Background)
//Storyboard Layer 1 (Failing)
//Storyboard Layer 2 (Passing)
//Storyboard Layer 3 (Foreground)
//Storyboard Sound Samples
//Background Colour Transformations
3,100,163,162,255

[TimingPoints]
1443,705.799317727326,4,2,0,100,1

[HitObjects]
256,96,1443,5,0
256,96,2148,1,0
256,256,2854,5,0
256,256,3560,1,0
32,96,4266,6,0,B|512:96,1,455
480,256,6030,1,2
406,329,6383,1,2
330,256,6736,1,2
260,332,7089,2,2,B|184:368|77:341|66:326,1,195
64,160,8148,5,0
97,120,8324,1,0
135,85,8500,1,0
226,35,8853,1,0
329,49,9206,2,0,B|442:101|490:209,1,195
425,277,10089,6,0,B|389:314|349:273,1,65
380,237,10441,1,0
327,239,10618,2,0,B|322:199|372:176,2,65
315,289,11147,1,0
211,278,11500,6,2,B|173:295|127:256,1,65
124,317,11853,1,2
98,271,12029,2,2,B|61:292|67:333,2,65
125,226,12559,1,2
155,126,12912,6,0,B|174:87|222:79,1,65
222,35,13265,1,0
252,76,13441,2,0,B|285:99|334:63,2,65
227,121,13970,5,2
224,225,14323,1,2
220,328,14676,2,2,B|323:371|414:355|473:319,1,260
462,216,15735,6,0,B|461:172|414:159,1,65
376,163,16088,1,0
348,206,16264,2,0,B|306:170|332:128,2,65
398,221,16794,1,0
321,291,17147,6,2,B|293:314|252:295,1,65
231,254,17499,1,2
184,276,17676,1,2
219,313,17852,2,2,B|199:347|240:386,2,65
116,295,18558,6,0,B|71:287|59:241,1,65
16,239,18911,1,0
63,212,19087,2,0,B|65:175|124:172,2,65
110,234,19617,5,4
214,235,19970,1,4
317,232,20323,2,4,B|414:229|431:132|407:73|296:89,1,260
214,59,21381,5,0
162,68,21558,2,0,B|118:73|126:129,1,65
176,120,21911,2,0,B|235:111|220:200|145:167,1,130
62,225,22616,6,0,B|64:268|106:277,1,65
117,226,22969,1,0
148,267,23146,2,0,B|141:308|199:324,2,65
175,222,23675,1,0
279,222,24028,6,2,B|281:267|335:273,1,65
368,269,24381,2,2,B|406:268|390:205,1,65
340,219,24734,1,2
364,173,24910,2,2,B|316:148|286:196,1,65
151,213,25616,6,2,B|85:214|67:121,1,130
61,76,26145,1,2
91,33,26322,1,2
116,78,26498,1,2
264,30,27028,6,0,B|338:29|374:103,1,130
385,143,27557,1,0
372,193,27734,1,0
334,156,27910,1,0
295,252,28263,6,0,B|274:283|226:272,1,65
247,222,28616,1,0
224,175,28792,2,0,B|182:205|191:265,1,65
184,280,29145,1,0
213,323,29322,1,0
316,330,29674,5,0
472,323,30204,6,0,B|474:243|403:205,1,130
368,191,30733,1,2
342,236,30910,1,2
312,193,31086,2,4,B|250:246|175:182,1,130
179,145,31615,2,4,B|235:105|314:141,1,130
355,140,32145,1,4
241,32,32674,6,2,B|174:30|187:109,1,65
233,88,33027,1,2
183,102,33203,2,2,B|179:139|124:137,1,65
115,89,33556,1,2
80,128,33733,2,4,B|81:191|149:190,1,65
160,184,34086,2,4,B|196:217|152:259,1,65
143,288,34439,2,4,B|181:336|223:326,1,65
230,288,34792,2,4,B|259:252|314:300,1,65
334,304,35144,1,4
437,300,35497,6,2,B|477:166,1,130
487,124,36027,1,2
470,74,36203,1,2
438,115,36380,1,2
337,140,36732,6,0,B|210:185,1,130
164,198,37262,1,0
118,173,37438,1,0
162,145,37615,1,0
117,118,37791,1,0
37,252,38321,6,2,B|43:302|86:303,1,65
123,309,38673,1,2
227,308,39026,1,2
331,306,39379,1,2
426,265,39732,2,2,B|474:265|484:210,1,65
438,198,40085,2,2,B|403:196|384:157,1,65
430,133,40438,2,2,B|476:135|476:72,1,65
256,192,41144,12,0,43438
256,256,43790,5,2
256,256,44496,1,4
256,96,45202,5,2
256,96,45908,1,4
480,288,46614,6,0,B|0:288,1,455
32,128,48378,1,2
96,64,48731,1,2
160,128,49084,1,2
224,64,49437,2,4,B|305:22|423:70,1,195
483,176,50496,6,0,B|496:268|455:361|343:380|224:387|114:378|29:241|48:170,1,650
146,208,52966,2,0,B|146:141|251:87|342:101|382:152|402:242|372:318|292:333|202:306,1,520
103,323,54730,5,2
68,283,54907,1,2
40,239,55083,2,2,B|-6:155|47:46,1,195
198,28,56142,5,2
249,19,56318,1,2
297,36,56495,2,2,B|400:78|435:185,1,195
256,320,57554,5,0
219,283,57730,1,0
182,246,57906,2,0,B|86:150,1,130
131,122,58436,2,0,B|229:221,1,130
308,156,59142,2,2,B|483:19,1,195
471,139,60024,1,2
473,243,60377,1,2
474,347,60730,2,4,B|310:203,1,195
256,96,61788,5,0
220,134,61965,1,0
186,173,62141,1,0
273,229,62494,1,0
182,280,62847,1,0
256,192,63376,12,0,65494
53,43,66023,5,2
91,77,66200,1,2
132,108,66376,2,2,B|189:150|262:150,1,130
305,148,66905,1,2
460,129,67435,5,2
425,168,67612,1,2
384,199,67788,2,2,B|333:253|261:249,1,130
220,268,68317,1,2
65,250,68846,5,0
80,200,69023,1,0
101,152,69199,2,0,B|139:87|242:63,1,130
231,118,69729,2,0,B|164:137|132:211,1,130
240,204,70434,1,0
396,200,70964,2,0,B|460:263|388:336,2,130
304,150,72022,2,0,B|241:222|304:342,1,195
158,265,73081,5,0
111,240,73258,1,0
67,212,73434,1,0
138,136,73787,1,0
63,63,74140,1,0
256,192,74669,12,0,76963
176,63,77316,5,2
144,104,77492,1,2
122,151,77669,2,2,B|87:225|157:308,1,130
155,321,78198,1,2
336,321,78728,5,2
368,280,78904,1,2
390,233,79081,2,2,B|425:159|355:76,1,130
357,63,79610,1,2
188,41,80139,5,0
136,49,80316,1,0
91,74,80492,2,0,B|25:100|12:177,1,130
62,188,81021,2,0,B|78:109|163:103,1,130
253,102,81727,1,0
409,98,82257,2,0,B|471:167|408:248,2,130
311,134,83315,2,0,B|257:203|322:302|341:319,1,195
181,335,84374,5,2
140,302,84550,1,2
100,268,84727,1,2
22,198,85080,1,2
91,120,85433,1,2
236,64,85962,2,6,B|469:45|469:45|210:184|210:184|483:196|483:196|231:309,1,1040
189,53,100078,6,0,B|244:23|300:80|278:118,1,130
248,144,100607,1,0
211,106,100784,1,0
170,137,100960,2,0,B|191:210|291:204,1,130
369,175,101666,6,2,B|436:173|446:241,1,65
479,206,102019,1,2
446,246,102195,2,2,B|431:272|475:313,2,65
393,240,102725,1,2
288,242,103078,6,0,B|258:289|211:261,1,65
229,218,103431,1,0
181,239,103607,2,0,B|160:272|199:314,2,65
182,186,104136,1,0
200,30,104666,6,2,B|116:145,1,130
93,177,105195,1,2
51,207,105371,1,2
96,231,105548,1,2
229,310,106077,6,0,B|358:245,1,130
390,225,106607,1,0
435,199,106783,1,0
389,174,106959,1,0
351,77,107312,6,0,B|321:37|275:70,1,65
298,111,107665,1,0
251,87,107842,2,0,B|226:121|282:172,1,65
269,197,108195,2,0,B|235:213|202:168,1,65
123,123,108724,5,0
51,261,109253,6,2,B|110:321|192:271,1,130
216,257,109783,1,2
245,299,109959,1,2
272,254,110136,2,4,B|338:281|427:250,1,130
403,206,110665,2,4,B|335:166|271:197,1,130
226,197,111194,1,4
252,43,111724,6,0,B|207:40|192:97,1,65
247,96,112077,1,0
201,120,112253,2,0,B|207:159|137:175,1,65
132,125,112606,1,0
114,173,112782,2,2,B|100:199|148:230,1,65
185,197,113135,2,2,B|223:208|211:273,1,65
169,277,113488,2,2,B|185:315|236:329,1,65
257,292,113841,2,2,B|272:252|333:286,1,65
467,274,114547,6,0,B|406:150,1,130
383,112,115076,1,0
357,66,115253,1,0
333,112,115429,1,0
234,78,115782,6,2,B|162:190,1,130
134,230,116311,1,2
180,253,116488,1,2
136,280,116664,1,2
180,308,116841,1,2
318,236,117370,5,0
368,246,117546,2,0,B|401:251|427:215,1,65
470,126,118076,1,0
365,128,118429,1,0
261,123,118782,2,2,B|214:124|206:182,1,65
205,210,119135,2,2,B|205:252|143:248,1,65
129,207,119487,2,2,B|103:170|43:192,1,65
256,192,120193,12,0,122487
256,96,122840,5,2
256,96,123546,1,4
256,288,124252,5,2
256,288,124957,1,4
32,96,125663,6,2,B|512:96,1,455
480,256,127428,1,4
416,320,127781,1,4
352,256,128133,1,4
288,320,128486,2,4,B|173:368|57:302,1,195
29,208,129545,6,0,B|16:116|57:23|169:4|288:-3|398:6|483:143|464:214,1,650
366,208,132015,2,0,B|366:141|261:87|170:101|130:152|110:242|140:318|220:333|310:306,1,520
409,300,133780,5,2
439,257,133956,1,2
466,212,134133,2,4,B|488:149|473:48|392:33,1,195
260,59,135191,5,2
228,100,135368,1,2
204,146,135544,2,4,B|163:211|187:293|234:343,1,195
334,220,136603,5,2
373,185,136780,1,2
409,147,136956,2,4,B|516:51,1,130
471,20,137485,2,4,B|367:117,1,130
294,174,138191,2,4,B|130:28,1,195
73,116,139073,1,4
72,220,139426,1,4
77,323,139779,2,4,B|220:179,1,195
338,279,140838,5,0
385,257,141014,1,0
430,231,141191,1,0
506,160,141544,1,0
421,99,141897,1,0
256,192,142426,12,0,144543
53,43,145073,5,0
95,72,145250,1,0
136,102,145426,2,0,B|194:147|258:153,1,130
304,164,145955,1,0
460,164,146485,5,0
422,199,146662,1,0
385,235,146837,2,0,B|332:282|255:272,1,130
213,285,147367,1,0
58,261,147896,5,2
37,212,148073,1,2
11,166,148249,2,2,B|-10:76|9:18,1,130
56,40,148778,2,2,B|51:107|67:172,1,130
170,179,149484,1,2
325,179,150013,2,4,B|398:274|293:332,2,130
223,203,151072,2,4,B|166:253|191:325|243:376,1,195
352,192,152131,5,2
256,256,152484,1,2
160,192,152836,1,2
256,128,153189,1,2
256,192,153719,12,0,156718
