osu file format v5

[General]
AudioFilename: 101 Pursuing My True Self.mp3
AudioLeadIn: 3000
PreviewTime: -1
Countdown: 1
SampleSet: Normal
StackLeniency: 0.7
Mode: 0
LetterboxInBreaks: 1

[Metadata]
Title:Pursuing My True Self
Artist:Shoji Meguro
Creator:Tekante
Version:Experimental Easy
Source:Persona 4
Tags:Persona 4, Shoji Meguro

[Difficulty]
HPDrainRate:4
CircleSize:5
OverallDifficulty:5
SliderMultiplier:1.4
SliderTickRate:1

[Events]
//Background and Video events
0,0,"bbd67b2201b453c337abb654b3ee73aa.png"
1,0,"P4Opening.avi"
//Break Periods
//Storyboard Layer 0 (Background)
//Storyboard Layer 1 (Failing)
//Storyboard Layer 2 (Passing)
//Storyboard Layer 3 (Foreground)
//Storyboard Sound Samples
//Background Colour Transformations
3,100,0,0,0

[TimingPoints]
650,504.201680672269,4,1,0,50,1

[HitObjects]
140,118,2162,1,0
351,119,4242,1,0
277,234,6007,1,0
242,199,6196,1,0
374,137,8780,5,0
177,146,9662,1,0
410,148,10671,1,0
188,150,11679,1,0
188,359,12624,1,0
189,285,12939,1,0
193,162,13507,1,0
451,158,14704,1,0
451,84,15019,1,0
315,86,15586,5,0
69,82,16721,1,0
70,303,17729,1,0
303,303,18801,1,0
304,93,19683,1,0
306,314,20692,1,0
232,316,21070,1,0
229,192,21574,1,0
25,33,22771,1,0
98,29,23086,1,0
95,152,23654,1,0
426,150,25103,5,0
253,150,25923,1,0
68,154,26742,1,0
72,227,27057,1,0
317,218,28192,1,0
313,70,28822,1,0
202,70,29326,1,0
204,180,29830,1,0
142,182,30145,1,0
144,354,30902,1,0
340,347,31784,1,0
342,273,32099,1,0
343,235,32288,1,0
117,80,34872,5,0
240,82,35439,1,0
399,79,36133,1,0
362,79,36322,1,0
128,80,37393,1,0
226,79,37834,1,0
299,79,38150,1,0
471,80,38906,1,0
472,362,40166,1,0
257,198,41427,5,0
257,99,41868,1,0
146,103,42372,1,0
490,107,43885,1,0
490,33,44200,1,0
207,33,45523,1,0
208,119,45902,1,0
208,315,46784,1,0
210,204,47288,1,0
181,44,47666,2,0,B|40:131|55:337|71:345,1,315
215,316,49494,5,0
313,316,49935,1,0
423,316,50439,1,0
427,217,50881,1,0
423,69,51511,1,0
349,67,51889,1,0
263,66,52267,1,0
274,360,53591,1,0
271,261,54032,1,0
272,162,54473,1,0
272,75,54851,1,0
354,66,55229,2,0,B|409:216|234:268|130:199|130:202,1,315
52,103,57561,5,0
49,213,58065,1,0
270,212,59074,1,0
356,211,59452,1,0
491,216,60082,1,0
492,105,60586,1,0
381,104,61028,1,0
159,107,62036,1,0
159,279,62855,1,0
318,270,63549,1,0
317,159,64053,1,0
427,159,64557,1,0
192,233,65628,5,0
92,232,66070,1,0
93,133,66511,1,0
215,132,67078,1,0
448,126,68150,1,0
337,130,68654,1,0
103,126,69662,1,0
201,129,70103,1,0
274,127,70481,1,0
271,299,71238,1,0
172,300,71679,1,0
145,92,72624,2,0,B|311:18|645:102|317:343,1,560
266,233,75145,5,0
373,54,76091,1,0
127,63,77225,1,0
205,256,78171,1,0
404,112,79242,1,0
194,112,80187,1,0
368,267,81259,1,0
177,219,82141,1,0
