osu file format v5

[General]
AudioFilename: p4_opening.mp3
AudioLeadIn: 0
PreviewTime: -1
Countdown: 1
SampleSet: Normal
StackLeniency: 0.7
Mode: 0

[Metadata]
Title:Persona 4
Artist:Shoji Meguro
Creator:zima101
Version:Hard

[Difficulty]
HPDrainRate:5
CircleSize:5
OverallDifficulty:5
SliderMultiplier:1.4
SliderTickRate:1

[Events]
//Background and Video events
//Break Periods
//Storyboard Layer 0 (Background)
//Storyboard Layer 1 (Failing)
//Storyboard Layer 2 (Passing)
//Storyboard Layer 3 (Foreground)
//Storyboard Sound Samples
//Background Colour Transformations
3,100,163,162,255

[TimingPoints]
4590,349.472198792753,4,1,0,100

[HitObjects]
128,96,4590,1,0
192,96,5638,1,0
256,96,6686,1,0
352,96,7385,1,0
352,128,8084,1,0
288,128,8434,1,0
192,128,8783,1,0
128,128,9133,1,0
96,128,9482,1,0
96,96,12627,1,0
96,96,12977,1,0
96,96,13326,1,0
96,96,13676,1,0
128,96,14724,1,0
128,96,15074,1,0
128,96,15423,1,0
128,96,15773,1,0
192,96,16821,1,0
256,96,17170,1,0
288,96,17520,1,0
288,96,17869,1,0
96,256,20665,1,0
288,32,21015,1,0
160,192,21364,1,0
256,192,21714,1,0
224,128,22762,1,0
128,192,23112,1,0
224,192,23461,1,0
96,64,23810,1,0
288,160,24859,1,0
352,160,25208,1,0
192,160,25558,1,0
224,192,25907,1,0
288,256,26257,1,0
192,224,26606,1,0
160,192,26956,1,0
128,128,27305,1,0
256,128,27655,1,0
352,128,28004,1,0
352,288,28354,1,0
224,256,28703,1,0
128,160,29053,1,0
288,128,29402,1,0
288,256,29751,1,0
160,224,30101,1,0
192,160,30450,1,0
256,0,30800,1,0
224,128,31149,1,0
352,160,31499,1,0
320,256,31848,1,0
192,224,32198,1,0
128,160,32897,1,0
128,64,33246,1,0
256,96,33596,1,0
384,192,33945,1,0
384,256,34295,1,0
288,224,34644,1,0
192,224,34994,1,0
128,160,35343,1,0
224,128,35693,1,0
288,128,36042,1,0
352,224,36391,1,0
160,224,36741,1,0
96,96,37090,1,0
96,96,37440,1,0
192,96,37789,1,0
288,96,38139,1,0
288,96,38488,1,0
288,96,38838,1,0
288,160,39187,1,0
224,160,39537,1,0
224,160,39886,1,0
64,224,40236,1,0
224,96,40935,1,0
320,128,41634,1,0
320,128,41983,1,0
320,128,42332,1,0
256,224,42682,1,0
192,224,43031,1,0
96,192,43381,1,0
128,64,43730,1,0
288,64,44080,1,0
288,64,44429,1,0
288,64,44779,1,0
320,192,45128,1,0
320,192,45478,1,0
224,192,45827,1,0
288,288,46526,1,0
128,256,46876,1,0
96,128,47225,1,0
96,128,47575,1,0
256,96,47924,1,0
288,192,48972,1,0
160,160,49671,1,0
224,288,50021,1,0
256,128,50370,1,0
384,128,50720,1,0
192,96,51069,1,0
192,96,51419,1,0
256,224,51768,1,0
128,192,52118,1,0
320,128,53166,1,0
192,128,53516,1,0
96,64,53865,1,0
128,192,54564,1,0
320,128,54913,1,0
224,96,55612,1,0
384,256,55962,1,0
192,96,57010,1,0
128,128,57709,1,0
288,160,58059,1,0
128,256,58408,1,0
288,256,58758,1,0
160,128,59107,1,0
288,128,59457,1,0
192,64,59806,1,0
384,64,60156,1,0
384,160,60505,1,0
256,160,61204,1,0
192,128,61903,1,0
192,224,62602,1,0
352,256,62951,1,0
160,128,63650,1,0
320,128,64000,1,0
224,256,64349,1,0
256,96,65048,1,0
192,64,65747,1,0
384,192,66097,1,0
160,192,66446,1,0
352,256,66796,1,0
192,256,67145,1,0
352,256,67494,1,0
192,256,67844,1,0
352,256,68193,1,0
288,128,68543,1,0
192,64,69242,1,0
128,224,69591,1,0
352,256,69941,1,0
192,192,70290,1,0
416,192,70640,1,0
320,96,70989,1,0
192,224,71339,1,0
288,256,71688,1,0
416,288,72038,1,0
224,192,72737,1,0
192,64,75183,1,0
288,128,75532,1,0
224,192,75882,1,0
224,192,76231,1,0
448,224,77280,1,0
448,224,77629,1,0
448,224,77979,1,0
288,128,79027,1,0
128,128,79377,1,0
224,288,79726,1,0
288,192,80075,1,0
192,96,81124,1,0
288,96,81473,1,0
416,256,81823,1,0
192,224,82172,1,0
