osu file format v13

[General]
AudioFilename: Memories of You(Aethral Remix).mp3
AudioLeadIn: 1963
PreviewTime: 158081
Countdown: 1
SampleSet: Normal
StackLeniency: 0.7
Mode: 0
LetterboxInBreaks: 1
WidescreenStoryboard: 1

[Editor]
DistanceSpacing: 0.8
BeatDivisor: 4
GridSize: 8
TimelineZoom: 1

[Metadata]
Title:Memories of You(Aethral Remix)
TitleUnicode:Memories of You(Aethral Remix)
Artist:Shoji Meguro
ArtistUnicode:Shoji Meguro
Creator:jesus1412
Version:Insane
Source:
Tags:
BeatmapID:303026
BeatmapSetID:117639

[Difficulty]
HPDrainRate:7
CircleSize:5
OverallDifficulty:7
ApproachRate:9
SliderMultiplier:1.8
SliderTickRate:1

[Events]
//Background and Video events
0,0,"pers3.jpg",0,0
//Break Periods
//Storyboard Layer 0 (Background)
//Storyboard Layer 1 (Fail)
//Storyboard Layer 2 (Pass)
//Storyboard Layer 3 (Foreground)
//Storyboard Sound Samples
//Background Colour Transformations
3,100,163,162,255

[TimingPoints]
43728,352.9412,4,1,0,70,1,0
43728,-100,4,1,0,70,0,0
67728,-133.333333333333,4,1,0,70,0,0
77610,-100,4,1,0,70,0,0
79022,-100,4,1,0,70,0,1
101610,-100,4,1,0,70,0,0
124198,-100,4,1,0,70,0,0
146786,-133.333333333333,4,1,0,70,0,0
156669,-100,4,1,0,70,0,0
158080,-100,4,1,0,70,0,1
203257,-133.333333333333,4,1,0,70,0,0
224433,-100,4,1,0,70,0,0
225845,-100,4,1,0,70,0,1
248433,-100,4,1,0,70,0,0

[HitObjects]
96,104,43727,6,0,L|136:80,1,45
184,136,43904,2,0,L|280:136,1,90
240,200,44169,1,0,0:0:0:0:
280,224,44257,2,0,L|376:224,1,90
432,200,44522,1,0,0:0:0:0:
416,160,44610,2,0,L|320:160,1,90
256,184,44875,5,0,0:0:0:0:
216,208,44963,1,0,0:0:0:0:
176,232,45051,2,0,L|120:232,1,45
280,112,45316,1,0,0:0:0:0:
184,160,45492,1,0,0:0:0:0:
80,160,45668,1,0,0:0:0:0:
248,32,45845,1,0,0:0:0:0:
360,24,46022,1,0,0:0:0:0:
464,64,46198,6,0,B|480:80|480:80|480:168,1,90
376,336,46551,2,0,B|360:320|360:320|360:232,1,90
336,128,46904,1,0,0:0:0:0:
264,232,47080,2,0,B|264:336|264:336|232:360,1,135
208,352,47433,1,0,0:0:0:0:
88,176,47698,2,0,B|88:56|88:56|104:32,1,135
160,32,48051,1,0,0:0:0:0:
480,24,48316,2,0,B|496:40|496:40|496:168,1,135
448,192,48669,1,0,0:0:0:0:
344,264,48845,1,0,0:0:0:0:
216,256,49022,1,0,0:0:0:0:
208,240,49110,1,0,0:0:0:0:
200,224,49198,2,0,B|184:208|184:208|112:208,1,90
400,336,49551,2,0,B|416:352|416:352|488:352,2,90
272,368,50080,5,0,0:0:0:0:
184,272,50257,1,0,0:0:0:0:
56,280,50433,1,0,0:0:0:0:
40,256,50522,1,0,0:0:0:0:
56,232,50610,1,0,0:0:0:0:
40,208,50698,1,0,0:0:0:0:
56,184,50786,2,0,P|64:168|144:128,1,90
240,184,51139,1,0,0:0:0:0:
304,72,51316,1,0,0:0:0:0:
408,144,51492,2,0,L|320:176,1,90
408,288,51845,5,0,0:0:0:0:
152,240,52022,1,0,0:0:0:0:
400,168,52198,1,0,0:0:0:0:
208,344,52375,1,0,0:0:0:0:
224,88,52551,1,0,0:0:0:0:
304,336,52728,2,0,B|280:360|280:360|128:360,1,180
112,272,53169,6,0,B|136:296|136:296|240:296,1,135
232,232,53522,2,0,B|216:256|216:256|216:368,1,135
288,272,53875,2,0,B|304:248|304:248|304:136,1,135
240,144,54228,2,0,B|216:168|216:168|112:168,1,135
72,216,54580,6,0,B|88:240|88:240|88:352,1,135
144,352,54933,1,0,0:0:0:0:
192,368,55022,1,0,0:0:0:0:
240,352,55110,1,0,0:0:0:0:
272,216,55286,1,0,0:0:0:0:
320,200,55375,1,0,0:0:0:0:
368,216,55463,2,0,B|392:232|392:232|392:304,1,90
200,304,55728,1,0,0:0:0:0:
152,320,55816,1,0,0:0:0:0:
104,304,55904,2,0,B|80:288|80:288|80:216,1,90
184,120,56257,1,0,0:0:0:0:
272,216,56433,5,0,0:0:0:0:
376,288,56610,1,0,0:0:0:0:
496,248,56786,1,0,0:0:0:0:
376,288,56963,1,0,0:0:0:0:
272,360,57139,1,0,0:0:0:0:
184,264,57316,1,0,0:0:0:0:
64,224,57492,5,0,0:0:0:0:
56,208,57580,2,0,P|72:160|128:144,1,90
232,80,57845,2,0,P|216:128|160:144,1,90
192,320,58198,1,0,0:0:0:0:
184,304,58286,1,0,0:0:0:0:
456,352,58463,2,0,P|480:240|384:176,1,225
328,280,59080,5,0,0:0:0:0:
280,272,59169,1,0,0:0:0:0:
232,280,59257,1,0,0:0:0:0:
120,240,59433,1,0,0:0:0:0:
72,232,59522,1,0,0:0:0:0:
24,240,59610,1,0,0:0:0:0:
16,192,59698,1,0,0:0:0:0:
24,144,59786,6,0,L|72:144,1,45
232,240,60051,1,0,0:0:0:0:
280,232,60139,1,0,0:0:0:0:
328,240,60228,2,0,L|368:272,1,45
488,144,60492,1,0,0:0:0:0:
488,120,60580,2,0,L|392:72,1,90
128,96,60933,5,0,0:0:0:0:
88,96,61022,2,0,L|32:96,1,45
360,224,61286,1,0,0:0:0:0:
392,224,61375,2,0,L|440:224,1,45
128,288,61639,1,0,0:0:0:0:
88,288,61728,2,0,L|32:288,1,45
112,232,61904,2,0,L|160:232,1,45
136,176,62080,6,0,L|240:176,1,90
328,128,62433,1,0,0:0:0:0:
448,184,62610,1,0,0:0:0:0:
328,240,62786,1,0,0:0:0:0:
272,360,62963,1,0,0:0:0:0:
224,240,63139,5,0,0:0:0:0:
288,16,63316,1,0,0:0:0:0:
112,168,63492,1,0,0:0:0:0:
392,136,63669,1,0,0:0:0:0:
216,288,63845,1,0,0:0:0:0:
112,168,64022,2,0,P|152:136|264:176,1,180
376,176,64463,6,0,L|240:176,1,135
184,272,64816,2,0,L|328:272,1,135
200,176,65169,2,0,L|64:176,1,135
360,272,65522,2,0,L|504:272,1,135
288,96,65875,2,0,L|144:96,1,135
216,328,66228,6,0,L|240:384,1,45
296,328,66404,1,0,0:0:0:0:
280,296,66492,1,0,0:0:0:0:
392,152,66669,5,0,0:0:0:0:
384,176,66757,1,0,0:0:0:0:
376,200,66845,1,0,0:0:0:0:
216,56,67022,5,0,0:0:0:0:
240,64,67110,1,0,0:0:0:0:
264,72,67198,1,0,0:0:0:0:
120,144,67375,5,0,0:0:0:0:
120,184,67463,1,0,0:0:0:0:
120,224,67551,1,0,0:0:0:0:
120,264,67639,1,0,0:0:0:0:
120,304,67728,6,0,L|192:264,1,67.5000025749208
288,192,68080,1,0,0:0:0:0:
408,192,68257,1,0,0:0:0:0:
424,232,68345,1,0,0:0:0:0:
408,272,68433,1,0,0:0:0:0:
424,312,68522,2,0,L|464:312,1,33.7500012874604
256,272,68786,2,0,L|176:272,1,67.5000025749208
64,192,69139,5,0,0:0:0:0:
256,144,69316,1,0,0:0:0:0:
64,72,69492,1,0,0:0:0:0:
256,144,69669,1,0,0:0:0:0:
288,144,69757,1,0,0:0:0:0:
320,144,69845,1,0,0:0:0:0:
352,144,69933,1,0,0:0:0:0:
384,144,70022,2,0,L|400:176,1,33.7500012874604
408,240,70198,2,0,B|392:256|392:256|320:256,1,67.5000025749208
176,312,70551,5,0,0:0:0:0:
408,384,70728,1,0,0:0:0:0:
352,192,70904,1,0,0:0:0:0:
152,192,71080,2,0,L|112:160,1,33.7500012874604
88,192,71257,2,0,L|48:224,1,33.7500012874604
24,192,71433,2,0,B|16:176|16:176|16:112,1,67.5000025749208
120,24,71786,1,0,0:0:0:0:
208,192,71963,5,0,0:0:0:0:
120,360,72139,1,0,0:0:0:0:
24,192,72316,1,0,0:0:0:0:
208,192,72492,1,0,0:0:0:0:
240,192,72580,1,0,0:0:0:0:
272,192,72669,2,0,L|312:232,1,33.7500012874604
360,192,72845,1,0,0:0:0:0:
280,304,73022,1,0,0:0:0:0:
80,304,73198,1,0,0:0:0:0:
264,80,73375,6,0,L|336:80,1,67.5000025749208
176,304,73728,2,0,L|96:304,1,67.5000025749208
80,304,73992,1,0,0:0:0:0:
48,304,74080,2,0,L|8:304,1,33.7500012874604
64,240,74257,1,0,0:0:0:0:
208,240,74433,2,0,L|288:240,1,67.5000025749208
344,128,74786,1,0,0:0:0:0:
256,56,74963,1,0,0:0:0:0:
168,128,75139,1,0,0:0:0:0:
72,192,75316,1,0,0:0:0:0:
440,192,75492,5,0,0:0:0:0:
256,368,75669,1,0,0:0:0:0:
256,16,75845,1,0,0:0:0:0:
200,320,76022,5,0,0:0:0:0:
312,64,76198,1,0,0:0:0:0:
128,248,76375,1,0,0:0:0:0:
384,136,76551,1,0,0:0:0:0:
128,136,76728,5,0,0:0:0:0:
384,248,76904,1,0,0:0:0:0:
200,64,77081,1,0,0:0:0:0:
312,320,77257,1,0,0:0:0:0:
256,120,77433,1,0,0:0:0:0:
176,360,77610,6,0,L|200:320,1,45
256,360,77786,1,0,0:0:0:0:
320,192,77963,2,0,L|352:224,1,45
416,192,78139,1,0,0:0:0:0:
192,192,78316,2,0,L|160:224,1,45
96,192,78492,1,0,0:0:0:0:
256,136,78669,5,0,0:0:0:0:
256,184,78757,1,0,0:0:0:0:
256,232,78845,1,0,0:0:0:0:
256,280,78933,1,0,0:0:0:0:
256,328,79022,1,0,0:0:0:0:
224,360,79110,6,0,B|208:344|208:344|208:264,1,90
208,208,79375,1,0,0:0:0:0:
256,56,79551,1,0,0:0:0:0:
288,32,79639,2,0,B|304:48|304:48|304:128,1,90
336,176,79904,2,0,L|240:176,1,90
176,320,80169,2,0,L|272:320,1,90
288,240,80433,2,0,L|176:240,1,90
160,240,80698,5,0,0:0:0:0:
128,280,80786,1,0,0:0:0:0:
160,320,80875,1,0,0:0:0:0:
192,288,80963,2,0,L|136:208,1,90
144,64,81228,1,0,0:0:0:0:
312,320,81404,1,0,0:0:0:0:
368,320,81492,2,0,L|296:216,1,90
192,184,81757,5,0,0:0:0:0:
240,152,81845,1,0,0:0:0:0:
296,136,81933,1,0,0:0:0:0:
352,152,82022,1,0,0:0:0:0:
400,184,82110,2,0,L|400:232,1,45
240,344,82375,5,0,0:0:0:0:
240,312,82463,2,0,B|240:232|240:232|224:216,1,90
184,224,82728,1,0,0:0:0:0:
128,48,82904,1,0,0:0:0:0:
160,80,82992,1,0,0:0:0:0:
320,104,83169,1,0,0:0:0:0:
288,72,83257,1,0,0:0:0:0:
344,240,83433,1,0,0:0:0:0:
304,264,83522,1,0,0:0:0:0:
144,232,83698,1,0,0:0:0:0:
104,256,83787,1,0,0:0:0:0:
24,112,83963,5,0,0:0:0:0:
64,96,84051,1,0,0:0:0:0:
104,112,84139,1,0,0:0:0:0:
144,128,84228,1,0,0:0:0:0:
184,144,84316,2,0,B|192:160|192:160|192:232,1,90
328,240,84669,6,0,B|320:224|320:224|320:152,1,90
256,32,85022,2,0,B|184:104|256:192|256:192|256:384,1,360
352,200,85904,1,0,0:0:0:0:
304,192,85992,1,0,0:0:0:0:
256,192,86080,2,0,P|176:272|256:384,1,270
384,240,86786,5,0,0:0:0:0:
352,96,86963,1,0,0:0:0:0:
208,64,87139,1,0,0:0:0:0:
64,32,87316,1,0,0:0:0:0:
88,176,87492,2,0,L|272:176,1,180
480,296,88022,2,0,L|280:296,1,180
32,104,88551,2,0,L|224:104,1,180
416,248,89080,1,0,0:0:0:0:
416,248,89433,2,0,L|232:248,1,180
104,40,89963,2,0,B|128:56|128:56|128:216,1,180
128,232,90404,6,0,B|160:232|160:232|216:264,1,90
272,216,90669,1,0,0:0:0:0:
408,224,90845,1,0,0:0:0:0:
384,184,90933,1,0,0:0:0:0:
272,48,91110,1,0,0:0:0:0:
296,88,91198,1,0,0:0:0:0:
312,200,91375,1,0,0:0:0:0:
336,240,91463,1,0,0:0:0:0:
240,144,91639,1,0,0:0:0:0:
216,104,91727,1,0,0:0:0:0:
280,264,91904,1,0,0:0:0:0:
304,304,91992,1,0,0:0:0:0:
176,336,92169,1,0,0:0:0:0:
152,296,92257,1,0,0:0:0:0:
368,352,92433,5,0,0:0:0:0:
400,312,92522,1,0,0:0:0:0:
432,272,92610,1,0,0:0:0:0:
464,232,92698,1,0,0:0:0:0:
496,192,92786,2,0,B|472:176|472:176|400:176,1,90
256,32,93139,5,0,0:0:0:0:
232,48,93228,2,0,P|224:72|256:128,1,90
256,152,93492,1,0,0:0:0:0:
96,192,93669,1,0,0:0:0:0:
112,216,93758,2,0,P|136:224|192:192,1,90
216,192,94022,1,0,0:0:0:0:
253,351,94198,1,0,0:0:0:0:
277,336,94287,2,0,P|285:312|254:255,1,90
255,231,94551,1,0,0:0:0:0:
415,194,94728,5,0,0:0:0:0:
400,170,94816,1,0,0:0:0:0:
384,144,94904,1,0,0:0:0:0:
368,120,94992,1,0,0:0:0:0:
352,96,95080,2,0,B|328:96|328:96|264:136,1,90
256,192,95345,2,0,L|256:240,1,45
208,144,95522,2,0,L|160:144,1,45
128,288,95786,1,0,0:0:0:0:
232,32,95963,6,0,L|288:48,1,45
264,112,96139,2,0,L|220:99,1,45
336,64,96316,2,0,B|416:88|416:88|440:104|440:128|440:128|400:272,1,270
256,328,97022,1,0,0:0:0:0:
272,288,97110,1,0,0:0:0:0:
312,192,97286,1,0,0:0:0:0:
312,152,97375,2,0,B|288:136|288:136|32:136,1,270
160,208,98080,5,0,0:0:0:0:
144,24,98257,1,0,0:0:0:0:
160,208,98433,1,0,0:0:0:0:
144,24,98610,1,0,0:0:0:0:
312,24,98786,2,0,L|352:56,1,45
200,160,99051,2,0,L|240:192,1,45
272,304,99316,6,0,L|312:336,1,45
512,344,99580,2,0,L|472:312,1,45
416,248,99845,2,0,L|344:184,1,90
432,72,100198,5,0,0:0:0:0:
392,80,100286,2,0,L|336:96,1,45
136,16,100551,1,0,0:0:0:0:
144,56,100639,2,0,L|160:112,1,45
80,312,100904,1,0,0:0:0:0:
120,304,100992,2,0,L|176:288,1,45
376,368,101257,1,0,0:0:0:0:
368,328,101345,2,0,L|352:272,1,45
304,232,101522,1,0,0:0:0:0:
296,264,101610,5,0,0:0:0:0:
288,296,101698,2,0,P|240:320|200:304,1,90
224,240,101963,2,0,P|176:216|136:232,1,90
96,280,102228,2,0,P|72:232|88:192,1,90
32,152,102492,2,0,P|80:128|120:144,1,90
128,152,102757,1,0,0:0:0:0:
144,168,102845,1,0,0:0:0:0:
272,152,103022,1,0,0:0:0:0:
256,136,103110,1,0,0:0:0:0:
240,120,103198,1,0,0:0:0:0:
352,80,103375,5,0,0:0:0:0:
368,96,103463,1,0,0:0:0:0:
384,112,103551,1,0,0:0:0:0:
400,128,103639,1,0,0:0:0:0:
416,144,103728,2,0,B|424:160|424:160|424:240,1,90
352,344,104080,2,0,B|344:328|344:328|344:248,1,90
224,192,104433,5,0,0:0:0:0:
168,232,104522,2,0,L|168:336,1,90
168,352,104786,1,0,0:0:0:0:
256,160,104963,1,0,0:0:0:0:
216,104,105052,2,0,L|112:104,1,90
96,104,105316,1,0,0:0:0:0:
288,192,105492,5,0,0:0:0:0:
344,152,105581,2,0,L|344:48,1,90
344,32,105845,2,0,L|480:32,1,135
480,64,106198,2,0,B|480:144|480:144|464:160,1,90
432,152,106463,1,0,0:0:0:0:
336,288,106639,2,0,L|288:288,1,45
152,288,106904,1,0,0:0:0:0:
152,96,107080,1,0,0:0:0:0:
272,208,107257,5,0,0:0:0:0:
296,248,107345,2,0,B|320:224|320:224|320:160,1,90
320,104,107610,2,0,B|320:48|320:48|344:24,1,90
384,104,107875,1,0,0:0:0:0:
384,264,108051,1,0,0:0:0:0:
432,312,108139,2,0,B|448:296|448:296|448:224,1,90
448,208,108404,5,0,0:0:0:0:
360,32,108668,1,0,0:0:0:0:
360,64,108757,2,0,L|360:208,3,135
256,320,109728,1,0,0:0:0:0:
256,144,109904,1,0,0:0:0:0:
152,32,110080,5,0,0:0:0:0:
128,64,110169,2,0,P|120:128|152:152,1,90
184,224,110433,2,0,P|192:288|160:312,1,90
64,264,110698,2,0,P|56:200|88:176,1,90
136,136,110963,2,0,P|144:72|112:48,1,90
256,344,111492,1,0,0:0:0:0:
384,64,111845,1,0,0:0:0:0:
256,264,112110,1,0,0:0:0:0:
256,208,112198,2,0,P|288:160|328:160,1,90
360,184,112463,1,0,0:0:0:0:
360,240,112551,1,0,0:0:0:0:
360,296,112639,1,0,0:0:0:0:
360,352,112728,2,0,B|328:376|328:376|264:376,1,90
152,328,112992,6,0,B|184:304|184:304|248:304,1,90
496,216,113257,1,0,0:0:0:0:
152,328,113433,2,0,L|96:328,1,45
256,192,113698,2,0,L|320:192,1,45
112,72,113963,1,0,0:0:0:0:
112,72,114051,1,0,0:0:0:0:
168,232,114228,1,0,0:0:0:0:
168,232,114316,2,0,B|192:192|192:192|192:48,1,180
192,32,114757,1,0,0:0:0:0:
168,232,114933,2,0,L|128:280,1,45
296,312,115198,1,0,0:0:0:0:
376,184,115375,1,0,0:0:0:0:
248,104,115551,1,0,0:0:0:0:
472,200,115728,5,0,0:0:0:0:
456,224,115816,2,0,L|376:264,1,90
360,264,116080,1,0,0:0:0:0:
368,96,116257,1,0,0:0:0:0:
360,72,116345,2,0,L|280:32,1,90
264,32,116609,1,0,0:0:0:0:
104,192,116786,6,0,L|160:192,2,45
408,192,117139,2,0,L|360:192,2,45
256,336,117492,2,0,L|256:288,1,45
256,224,117669,2,0,L|256:160,1,45
256,112,117845,1,0,0:0:0:0:
88,304,118022,1,0,0:0:0:0:
256,336,118198,1,0,0:0:0:0:
424,304,118375,1,0,0:0:0:0:
216,112,118551,5,0,0:0:0:0:
192,96,118639,2,0,P|128:112|120:144,1,90
120,152,118904,2,0,L|120:248,1,90
120,264,119169,2,0,P|184:248|192:216,1,90
192,208,119434,2,0,L|192:112,1,90
336,80,119786,1,0,0:0:0:0:
266,329,119963,1,0,0:0:0:0:
159,93,120139,1,0,0:0:0:0:
392,205,120316,1,0,0:0:0:0:
24,328,120580,1,0,0:0:0:0:
24,288,120669,2,0,B|32:264|32:264|32:184,1,90
32,64,121022,1,0,0:0:0:0:
304,256,121198,1,0,0:0:0:0:
144,264,121375,6,0,L|200:264,1,45
352,136,121639,2,0,L|304:136,1,45
112,296,121904,2,0,L|160:296,1,45
384,104,122169,2,0,L|328:104,1,45
80,328,122433,6,0,L|184:328,1,90
416,72,122786,2,0,L|312:72,1,90
184,80,123139,1,0,0:0:0:0:
328,304,123316,2,0,L|384:304,2,45
328,80,123669,1,0,0:0:0:0:
184,304,123845,1,0,0:0:0:0:
256,32,124022,1,0,0:0:0:0:
176,120,124198,5,0,0:0:0:0:
248,216,124375,1,0,0:0:0:0:
336,168,124551,2,0,P|376:176|384:240,1,90
176,216,124904,2,0,P|136:208|128:144,1,90
336,40,125257,1,0,0:0:0:0:
336,288,125433,1,0,0:0:0:0:
168,88,125610,1,0,0:0:0:0:
424,192,125786,1,0,0:0:0:0:
168,296,125963,1,0,0:0:0:0:
96,232,126139,2,0,P|112:184|144:256,1,180
144,256,126580,5,0,0:0:0:0:
272,352,126757,1,0,0:0:0:0:
264,344,126845,1,0,0:0:0:0:
176,120,127022,1,0,0:0:0:0:
176,128,127110,1,0,0:0:0:0:
176,136,127198,1,0,0:0:0:0:
464,232,127375,1,0,0:0:0:0:
456,240,127463,1,0,0:0:0:0:
448,248,127551,1,0,0:0:0:0:
296,16,127728,1,0,0:0:0:0:
296,24,127816,1,0,0:0:0:0:
296,32,127904,2,0,L|272:72,1,45
248,192,128080,6,0,L|304:176,1,45
408,144,128257,2,0,L|384:192,2,45,0|0|0,0:0|0:0|0:0,0:0:0:0:
192,264,128610,1,0,0:0:0:0:
320,120,128786,1,0,0:0:0:0:
152,24,128963,1,0,0:0:0:0:
24,168,129139,2,0,B|40:192|40:192|104:192,1,90
256,264,129492,1,0,0:0:0:0:
256,264,129580,2,0,B|240:288|240:288|176:288,1,90
304,208,129845,6,0,B|320:184|320:184|384:184,1,90
128,264,130198,1,0,0:0:0:0:
344,264,130375,1,0,0:0:0:0:
88,208,130551,2,0,P|40:208|8:240,1,90
304,160,130904,1,0,0:0:0:0:
128,160,131080,1,0,0:0:0:0:
336,104,131257,2,0,P|384:104|416:136,1,90
216,264,131610,1,0,0:0:0:0:
152,24,131786,2,0,B|136:40|136:40|104:128|208:168,1,180
248,112,132228,6,0,B|264:128|264:128|288:200|232:232,1,135
336,232,132580,2,0,B|320:248|320:248|296:320|352:352,1,135
400,176,132933,2,0,B|416:160|416:160|440:88|384:56,1,135
320,152,133286,2,0,L|256:128,1,45,0|0,0:0|0:0,0:0:0:0:
160,296,133551,1,0,0:0:0:0:
352,88,133728,2,0,P|408:72|424:160,1,135
432,144,134080,5,0,0:0:0:0:
344,232,134257,1,0,0:0:0:0:
80,144,134433,1,0,0:0:0:0:
64,160,134522,1,0,0:0:0:0:
48,176,134610,2,0,L|96:208,1,45
48,248,134786,1,0,0:0:0:0:
80,280,134875,1,0,0:0:0:0:
112,304,134963,1,0,0:0:0:0:
168,176,135139,1,0,0:0:0:0:
272,272,135316,1,0,0:0:0:0:
368,168,135492,6,0,P|376:136|440:136,1,90
144,216,135845,2,0,P|136:248|72:248,1,90
208,88,136198,1,0,0:0:0:0:
344,136,136375,1,0,0:0:0:0:
280,264,136551,2,0,B|272:280|272:280|280:336|344:320,2,90,0|0|0,0:0|0:0|0:0,0:0:0:0:
344,136,137080,1,0,0:0:0:0:
408,240,137257,1,0,0:0:0:0:
472,112,137433,1,0,0:0:0:0:
248,192,137610,2,0,P|160:184|264:152,1,270
264,120,138228,5,0,0:0:0:0:
280,128,138316,2,0,L|320:88,1,45
400,88,138492,2,0,L|368:128,1,45
360,240,138669,2,0,L|384:200,1,45
512,176,138845,2,0,L|480:208,1,45
200,304,139110,1,0,0:0:0:0:
168,288,139198,2,0,L|104:288,1,45
208,208,139375,2,0,L|248:184,1,45
104,160,139551,2,0,L|56:128,1,45
376,24,139816,1,0,0:0:0:0:
192,312,139991,5,0,0:0:0:0:
200,288,140080,1,0,0:0:0:0:
224,272,140168,2,0,B|264:288|264:288|264:328|208:368,1,135
328,280,140522,2,0,B|328:248|328:248|368:208|424:264,1,135
216,168,140875,2,0,B|248:168|248:168|304:120|232:64,1,135
128,136,141316,1,0,0:0:0:0:
432,208,141492,1,0,0:0:0:0:
176,240,141669,1,0,0:0:0:0:
216,72,141845,1,0,0:0:0:0:
280,232,142022,1,0,0:0:0:0:
56,128,142198,6,0,P|64:80|120:64,1,90
152,288,142551,2,0,P|144:336|88:352,1,90
256,16,142904,1,0,0:0:0:0:
416,64,143080,2,0,P|432:104|328:104,1,180
264,112,143522,6,0,P|200:112|192:176,1,135
232,232,143875,2,0,P|219:292|157:291,1,135
96,256,144228,2,0,P|32:256|24:320,1,135
157,291,144580,2,0,P|219:292|232:232,1,135
189,171,144933,2,0,P|201:110|264:112,1,135
334,125,145286,2,0,P|411:143|376:48,1,225
336,256,145904,1,0,0:0:0:0:
240,104,146080,2,0,L|248:48,1,45
168,56,146257,1,0,0:0:0:0:
120,40,146345,1,0,0:0:0:0:
80,56,146433,2,0,L|56:144,1,90
120,240,146786,5,0,0:0:0:0:
144,272,146875,1,0,0:0:0:0:
176,240,146963,2,0,P|200:224|232:240,1,67.5000025749208,0|0,0:0|0:0,0:0:0:0:
392,144,147316,1,0,0:0:0:0:
368,112,147405,1,0,0:0:0:0:
336,144,147493,2,0,P|312:160|288:144,1,33.7500012874604,0|0,0:0|0:0,0:0:0:0:
272,160,147669,2,0,L|192:160,1,67.5000025749208
104,72,148022,1,0,0:0:0:0:
48,192,148198,6,0,L|8:248,1,67.5000025749208
104,312,148551,1,0,0:0:0:0:
160,192,148728,1,0,0:0:0:0:
192,168,148816,1,0,0:0:0:0:
224,192,148904,2,0,L|224:240,1,33.7500012874604
256,272,149080,2,0,L|256:192,1,67.5000025749208
320,64,149433,1,0,0:0:0:0:
368,336,149610,6,0,L|368:256,1,67.5000025749208
368,136,149963,1,0,0:0:0:0:
280,40,150139,1,0,0:0:0:0:
248,56,150228,1,0,0:0:0:0:
216,72,150316,2,0,L|216:120,1,33.7500012874604,0|0,0:0|0:0,0:0:0:0:
168,152,150493,2,0,L|168:240,1,67.5000025749208
168,328,150845,1,0,0:0:0:0:
168,152,151022,6,0,L|168:64,1,67.5000025749208
264,224,151375,1,0,0:0:0:0:
376,160,151551,2,0,L|416:136,1,33.7500012874604
304,152,151728,2,0,L|264:144,1,33.7500012874604
344,96,151904,2,0,L|264:64,1,67.5000025749208
144,72,152257,1,0,0:0:0:0:
96,160,152433,6,0,L|96:248,1,67.5000025749208
144,312,152786,1,0,0:0:0:0:
184,216,152963,1,0,0:0:0:0:
208,192,153051,1,0,0:0:0:0:
232,216,153139,2,0,L|256:184,1,33.7500012874604
288,272,153316,2,0,L|344:224,1,67.5000025749208
304,144,153669,1,0,0:0:0:0:
192,96,153845,6,0,B|200:80|200:80|256:80,1,67.5000025749208
392,104,154198,1,0,0:0:0:0:
256,256,154375,1,0,0:0:0:0:
320,56,154551,1,0,0:0:0:0:
344,280,154728,1,0,0:0:0:0:
232,56,154904,1,0,0:0:0:0:
384,176,155080,1,0,0:0:0:0:
184,224,155257,5,0,0:0:0:0:
368,40,155433,1,0,0:0:0:0:
296,336,155610,1,0,0:0:0:0:
264,112,155786,1,0,0:0:0:0:
384,296,155963,1,0,0:0:0:0:
192,304,156139,1,0,0:0:0:0:
448,176,156316,1,0,0:0:0:0:
112,128,156492,1,0,0:0:0:0:
