osu file format v9

[General]
AudioFilename: 11-Junesu_'s Theme.mp3
AudioLeadIn: 2007
PreviewTime: 55642
Countdown: 0
SampleSet: Soft
StackLeniency: 0.7
Mode: 0
LetterboxInBreaks: 0

[Editor]
DistanceSpacing: 0.9
BeatDivisor: 3
GridSize: 8

[Metadata]
Title:Junes Theme
Artist:Shoji Meguro
Creator:-kevincela-
Version:Normal
Source:Shin Megami Tensei: Persona 4
Tags:atlus p4 SMT

[Difficulty]
HPDrainRate:5
CircleSize:4
OverallDifficulty:4
ApproachRate:6
SliderMultiplier:0.85
SliderTickRate:1

[Events]
//Background and Video events
0,0,"1231117846507.jpg"
//Break Periods
//Storyboard Layer 0 (Background)
//Storyboard Layer 1 (Fail)
//Storyboard Layer 2 (Pass)
//Storyboard Layer 3 (Foreground)
//Storyboard Sound Samples
//Background Colour Transformations
3,100,163,162,255

[TimingPoints]
512,285.714285714286,4,2,0,100,1,0
32512,-100,4,2,0,100,0,1
41083,-100,4,2,0,100,0,0
73654,-100,4,2,0,100,0,1
82226,-100,4,2,0,100,0,0

[Colours]
Combo1 : 0,0,255
Combo2 : 255,243,13
Combo3 : 255,0,0
Combo4 : 0,217,0

[HitObjects]
112,192,512,1,2
168,144,797,1,0
224,192,1083,2,0,B|224:368,1,170,0|4
328,312,2083,1,8
360,200,2512,1,0
360,120,2797,5,8
264,240,3369,1,4
168,184,3797,1,4
40,40,4512,1,2
184,80,5083,6,0,B|272:48|368:88,1,170,8|0
280,216,6226,1,8
224,328,6702,1,8
328,328,7083,1,2
400,312,7369,6,0,B|456:272|456:200|384:152,1,170,8|2
344,120,8226,1,2
344,120,8512,1,8
224,168,8988,1,8
272,256,9369,1,2
344,224,9654,6,0,B|408:192|408:112|336:80,1,170,8|0
312,152,10512,1,0
312,152,10797,1,8
192,112,11273,1,2
192,216,11654,1,2
124,252,11940,6,0,B|148:308|244:308|268:236,1,170,8|0
208,104,13083,1,8
320,48,13559,1,2
320,152,13940,1,2
368,208,14226,5,4
312,256,14512,2,0,B|208:256,2,85,0|2|0
368,304,15369,2,0,B|424:224|360:136,2,170,8|0|8
288,304,16797,6,0,B|248:344|200:296,2,85,0|2|0
256,232,17654,2,0,B|312:160|272:64|168:16|64:88,1,340,8|8
64,160,19083,5,0
40,232,19369,1,2
64,304,19654,1,0
128,344,19940,2,0,B|304:344,1,170,8|0
400,264,20988,6,0,B|400:216,1,28.3333333333333,0|8
360,176,21369,1,0
304,224,21654,2,0,B|224:224,1,56.6666666666667,8|0
160,168,22226,2,4,B|88:160|40:216|72:296,2,170,8|0|4
128,96,23654,6,0,B|24:96,2,85,0|8|0
208,96,24512,1,2
264,144,24797,2,0,B|328:160|328:256|264:272,1,170
216,216,25654,5,8
168,272,25940,2,0,B|112:264|88:208,2,85,0|8|0
248,280,26797,2,0,B|296:240|328:280|360:328|408:272,1,170,0|8
416,136,27940,5,2
336,136,28226,2,0,B|232:136,2,85,0|8|0
376,200,29083,2,0,B|424:264|368:328|288:288,1,170,0|8
184,272,30131,6,0,B|184:224,1,28.3333333333333,0|2
184,168,30512,1,0
260,168,30797,2,0,B|364:168,2,85,8|0|8
260,320,31940,1,4
412,304,32512,5,8
448,232,32797,1,0
472,160,33083,1,2
432,96,33369,1,2
384,40,33654,2,0,B|256:40,1,127.5,8|0
416,144,34797,6,0,B|472:200|432:272|328:240,1,170,8|2
304,192,35654,1,2
248,240,35940,2,0,B|192:240|192:328|256:328,1,127.5,8|0
424,280,37083,6,0,B|456:240|432:200|432:200|400:160|432:112,1,170,8|0
360,88,37940,1,2
304,144,38226,2,0,B|296:200|224:200|216:144,1,127.5,4|0
24,144,39369,6,0,B|24:352,1,170,8|2
96,280,40226,1,2
160,320,40511,2,0,B|184:256|272:256|296:336,1,170,8|0
432,256,41654,5,2
376,200,41940,1,2
416,136,42226,2,0,B|416:64|320:32|264:88,1,170,4|0
184,112,43226,1,8
272,192,43654,5,0
272,192,43940,1,8
336,328,44511,2,4,B|192:328,1,127.5,4|4
272,144,45654,1,2
120,120,46226,6,0,B|80:200|128:296,2,170,8|0|8
224,192,47845,1,2
328,192,48226,1,2
368,128,48511,6,0,B|416:128|448:184|424:248|352:248,1,170,8|0
224,280,49654,1,8
144,184,50131,1,2
224,120,50511,1,2
296,104,50797,6,0,B|376:64|464:112,1,170,8|0
464,184,51654,1,2
464,184,51940,1,8
432,304,52416,1,2
336,264,52797,1,2
396,216,53083,6,0,B|372:144|284:144|268:232,2,170,8|2|8
440,280,54511,1,2
384,336,54797,2,0,B|200:336,1,170,0|4
168,272,55654,5,0
128,336,55940,1,2
88,272,56226,1,0
128,208,56511,2,0,B|128:32,2,170,8|0|8
64,256,57940,5,2
64,256,58226,2,0,B|128:312|128:312|200:240,1,170,2|8
312,256,59273,1,2
408,216,59654,1,0
448,152,59940,5,8
416,80,60226,1,0
368,136,60511,2,0,B|336:184|248:184|216:136,1,170,2|10
104,192,61559,1,2
224,280,62131,6,0,B|272:280,1,28.3333333333333,0|8
312,328,62511,1,2
392,328,62797,1,8
448,280,63083,1,2
400,216,63369,2,4,B|256:216,2,127.5,4|4|0
400,216,64511,5,2
464,176,64797,2,0,B|464:80,2,85,0|8|0
400,216,65654,2,0,B|336:264|256:200,2,127.5,8|0|0
344,160,66797,5,8
312,88,67083,2,0,B|312:-24,2,85,0|8|0
248,136,67940,1,2
128,96,68416,1,8
128,200,68797,1,2
128,200,69083,5,2
160,272,69369,2,0,B|272:272,2,85,0|8|0
80,264,70226,2,0,B|24:208|88:120,1,127.5,2|8
232,120,71273,6,0,B|280:120,1,28.3333333333333,0|8
336,120,71654,1,2
416,120,71940,2,0,B|456:168|424:192|384:224|432:296,1,170,0|8
288,352,73083,1,4
144,312,73654,5,8
96,256,73940,1,0
56,192,74226,1,2
24,124,74511,1,2
88,80,74797,2,0,B|144:32|216:80,1,127.5,0|8
384,144,75940,6,0,B|384:240,1,85,8|0
384,304,76512,1,2
320,344,76797,1,2
264,288,77083,2,0,B|202:264|138:288,1,127.5,0|8
288,168,78226,6,0,B|200:192|104:168,1,170,8|0
160,104,79083,1,2
112,40,79369,2,0,B|184:16|256:48,1,127.5,0|8
352,184,80511,5,8
416,232,80797,1,2
392,304,81083,1,2
312,304,81369,1,2
288,232,81654,1,4
80,120,82797,5,2
80,200,83083,1,2
16,240,83369,2,0,B|48:296|120:296|152:232,1,170,0|4
216,136,84369,1,8
320,176,84797,1,2
320,96,85083,5,8
464,136,85654,1,4
416,240,86083,1,4
304,264,86511,2,2,B|304:376,3,85,2|2|2|6
