osu file format v9

[General]
AudioFilename: 11-Junesu_'s Theme.mp3
AudioLeadIn: 2007
PreviewTime: 55642
Countdown: 0
SampleSet: Soft
StackLeniency: 0.7
Mode: 0
LetterboxInBreaks: 0

[Editor]
DistanceSpacing: 0.9
BeatDivisor: 3
GridSize: 8

[Metadata]
Title:Junes Theme
Artist:Shoji Meguro
Creator:-kevincela-
Version:Hard
Source:Shin Megami Tensei: Persona 4
Tags:atlus p4 SMT

[Difficulty]
HPDrainRate:7
CircleSize:5
OverallDifficulty:7
ApproachRate:8
SliderMultiplier:1.05
SliderTickRate:1

[Events]
//Background and Video events
0,0,"1231117846507.jpg"
//Break Periods
//Storyboard Layer 0 (Background)
//Storyboard Layer 1 (Fail)
//Storyboard Layer 2 (Pass)
//Storyboard Layer 3 (Foreground)
//Storyboard Sound Samples
//Background Colour Transformations
3,100,163,162,255

[TimingPoints]
512,285.714285714286,4,2,0,100,1,0
32512,-100,4,2,0,100,0,1
41083,-100,4,2,0,100,0,0
73654,-100,4,2,0,100,0,1
82226,-100,4,2,0,100,0,0

[Colours]
Combo1 : 0,0,255
Combo2 : 255,243,13
Combo3 : 255,0,0
Combo4 : 0,217,0

[HitObjects]
152,192,512,1,2
232,136,797,1,2
312,192,1083,2,0,B|400:168|464:264|384:328,1,210,4|0
256,328,2083,1,8
152,232,2512,1,2
152,232,2797,1,8
152,64,3369,5,4
296,64,3797,1,4
224,208,4226,1,2
192,296,4512,1,8
256,296,4702,1,2
256,296,4797,1,0
320,224,5083,6,0,B|376:200|448:232,1,105
424,320,5654,2,0,B|377:342|321:318,1,105,8|0
232,280,6226,1,2
152,328,6512,1,8
152,328,6702,1,2
152,232,6988,1,2
152,232,7083,1,8
96,152,7369,6,0,B|72:96|96:40,1,105
184,48,7940,2,0,B|204:94|180:150,1,105,8|0
152,232,8512,1,2
224,296,8797,1,8
224,296,8988,1,2
296,232,9273,1,2
296,232,9369,1,8
248,152,9654,6,0,B|304:120|368:160,2,105,0|0|8
248,248,10512,1,0
248,344,10797,2,0,B|176:392|80:344,2,157.5,0|2|8
344,344,11940,5,2
400,264,12226,1,0
400,200,12416,1,0
400,200,12512,1,8
320,152,12797,1,0
224,176,13083,2,0,B|176:136|120:184,1,105,0|8
128,240,13559,2,0,B|176:280|232:232,1,105,0|0
223,238,13940,1,8
256,328,14226,5,4
344,288,14512,2,0,B|456:288,2,105,0|8|0
344,192,15369,1,2
344,96,15654,1,8
344,96,15845,2,0,B|272:40|192:112,1,140,0|8
136,144,16512,5,2
176,232,16797,2,0,B|168:296|88:296,2,105,0|8|0
272,216,17654,2,0,B|320:248|388:208,1,105,0|8
368,152,18131,2,0,B|316:120|268:152,1,105,0|0
269,151,18512,1,8
268,56,18797,5,4
176,72,19083,2,0,B|128:40|56:80,2,105,0|8|0
128,152,19940,1,2
200,216,20226,1,8
200,216,20416,1,2
328,216,20797,1,2
392,216,20988,5,2
392,216,21083,1,8
472,168,21369,1,2
488,72,21654,1,8
488,72,21845,2,2,B|472:32|384:32|368:80,1,140,0|8
416,160,22512,1,0
392,216,22702,1,2
392,216,22797,1,8
296,216,23083,1,2
256,128,23369,5,4
168,104,23654,2,0,B|104:120|96:192,2,105,0|8|0
256,72,24512,1,2
344,112,24797,1,8
344,112,24988,2,0,B|416:128|456:200|424:264|336:288,1,245,0|8
256,296,25940,5,2
176,352,26226,1,8
96,296,26512,1,2
128,208,26797,1,2
224,208,27083,1,8
288,208,27273,2,0,B|440:208,1,140,0|8
400,120,27940,5,2
304,120,28226,2,0,B|192:120,2,105,0|8|0
368,192,29083,1,2
320,272,29369,1,2
320,272,29559,1,8
128,272,30131,5,2
128,272,30226,2,0,B|96:224|128:160,1,105,8|0
200,120,30797,1,10
200,120,30988,2,0,B|256:88|272:120|288:160|352:96,1,140,2|0
360,208,31654,1,2
360,272,31845,1,2
360,272,31940,1,2
264,280,32226,1,4
200,208,32512,6,0,B|168:160|208:96,3,105,0|8|0|8
296,96,33654,1,2
376,144,33940,1,8
376,144,34083,1,2
304,232,34416,1,2
304,232,34511,1,8
360,312,34797,6,0,B|304:336|232:304,1,105,0|8
256,216,35369,2,0,B|302:193|358:217,1,105,0|8
448,248,35940,1,2
480,160,36226,1,8
480,160,36369,1,2
408,72,36702,1,2
408,72,36797,1,8
312,96,37083,6,2,B|288:40|224:24|144:40|128:136,1,210
232,144,37940,1,8
160,208,38226,2,4,B|232:272|320:192,2,157.5,4|4|0
104,128,39369,5,2
184,80,39654,1,2
280,80,39940,1,8
360,136,40226,1,2
360,136,40511,2,0,B|432:136|456:208|440:272|328:272,1,210,8|0
224,232,41654,5,2
224,232,41940,1,2
152,296,42226,2,0,B|88:296|56:216|96:152|184:152,1,210,4|0
288,200,43226,1,8
240,336,43654,1,0
336,336,43940,1,8
408,160,44511,5,4
264,160,44940,1,4
336,280,45369,1,2
336,216,45559,1,0
336,216,45654,1,8
336,152,45845,1,0
336,152,45940,1,2
256,96,46226,5,2
192,168,46511,1,2
192,232,46702,1,2
192,232,46797,1,8
280,272,47083,1,0
368,312,47369,2,0,B|448:336|485:247|400:192,1,175,0|8
424,80,48226,1,2
344,136,48511,5,2
272,80,48797,1,2
224,120,48988,1,0
224,120,49083,2,0,B|120:120,1,105,8|0
40,168,49654,1,2
88,248,49940,1,8
88,248,50131,1,2
152,184,50416,1,2
152,184,50511,1,8
224,240,50797,6,0,B|224:344,2,105,0|0|8
288,168,51654,1,2
360,104,51940,2,0,B|280:56|176:120,2,157.5,0|8|0
440,152,53083,5,2
440,248,53369,1,2
416,304,53559,1,2
416,304,53654,1,8
320,288,53940,1,2
328,192,54226,2,0,B|280:160|224:192,1,105,0|8
232,256,54702,2,0,B|283:285|331:253,1,105,0|0
330,253,55083,1,8
424,240,55369,5,4
376,160,55654,2,0,B|428:128|480:164,2,105,0|8|0
328,240,56511,1,2
276,160,56797,1,8
276,160,56988,2,0,B|208:120|120:172,1,140,2|8
204,216,57654,5,2
204,216,57940,2,0,B|204:88,2,105,0|8|0
136,280,58797,1,2
204,344,59083,1,8
204,344,59273,1,2
272,280,59559,1,2
272,280,59654,1,8
272,184,59940,5,4
272,88,60226,1,2
368,88,60511,2,0,B|420:56|476:96,1,105,8|0
416,168,61083,1,2
416,264,61369,1,0
416,264,61559,1,8
224,264,62131,5,2
224,264,62226,2,0,B|168:296|112:256,1,105,8|0
176,184,62797,1,2
176,184,62988,2,0,B|176:144|224:112|272:144|272:208,1,140
352,240,63654,1,0
416,240,63845,1,2
416,240,63940,1,8
432,144,64226,1,2
352,96,64511,5,4
256,96,64797,2,0,B|128:96,2,105,0|8|0
208,176,65654,1,2
272,248,65940,1,8
272,248,66131,2,0,B|200:304|120:240,1,140,2|8
80,184,66797,5,2
136,104,67083,2,0,B|240:104,2,105,0|8|0
192,176,67940,2,0,B|192:336,2,157.5,0|8|0
192,80,69083,5,2
256,152,69369,1,0
304,232,69654,1,8
208,232,69940,1,2
256,312,70226,1,0
160,312,70511,1,2
160,312,70702,1,8
56,152,71273,5,2
56,152,71369,2,0,B|112:120|184:160,1,105,8|0
128,240,71940,2,0,B|184:272|256:232,2,105,2|2|8
184,160,72797,1,2
136,120,72988,1,2
136,120,73083,1,2
200,56,73369,1,4
296,64,73654,6,0,B|344:120|288:176,1,105,0|8
232,224,74226,2,0,B|192:168|232:104,1,105,0|8
128,96,74797,1,2
64,168,75083,1,8
64,168,75226,1,2
112,264,75559,1,2
112,264,75654,1,8
184,328,75940,6,0,B|136:368|72:336,2,105,0|8|0
248,256,76797,1,8
320,192,77083,1,0
336,288,77369,1,8
336,288,77512,1,2
432,240,77845,1,2
432,240,77940,1,8
488,160,78226,6,0,B|488:96|416:72|344:96|344:168,1,210,0|8
416,216,79083,1,2
344,272,79369,2,0,B|424:320|504:264,2,157.5,4|4|0
256,248,80511,5,2
184,184,80797,1,2
208,96,81083,1,8
304,96,81369,1,2
328,184,81654,2,0,B|328:248|256:272|184:248|184:176,1,210,8|0
256,128,82511,1,2
176,80,82797,5,4
256,32,83083,1,2
336,80,83369,2,0,B|416:120|408:224|280:224,1,210,4|0
168,224,84369,1,8
240,104,84797,1,2
240,104,85083,5,4
176,280,85654,1,4
320,280,86083,1,4
248,160,86511,1,2
248,64,86797,1,8
312,64,86988,1,2
312,64,87083,1,0
312,160,87369,1,4
