osu file format v9

[General]
AudioFilename: 11-Junesu_'s Theme.mp3
AudioLeadIn: 2007
PreviewTime: 55642
Countdown: 0
SampleSet: Soft
StackLeniency: 0.7
Mode: 0
LetterboxInBreaks: 0

[Editor]
Bookmarks: 7357
DistanceSpacing: 0.8
BeatDivisor: 3
GridSize: 8

[Metadata]
Title:Junes Theme
Artist:Shoji Meguro
Creator:-kevincela-
Version:Easy
Source:Shin Megami Tensei: Persona 4
Tags:atlus p4 SMT

[Difficulty]
HPDrainRate:2
CircleSize:3
OverallDifficulty:2
ApproachRate:3
SliderMultiplier:0.750000005960464
SliderTickRate:1

[Events]
//Background and Video events
0,0,"1231117846507.jpg"
//Break Periods
//Storyboard Layer 0 (Background)
//Storyboard Layer 1 (Fail)
//Storyboard Layer 2 (Pass)
//Storyboard Layer 3 (Foreground)
//Storyboard Sound Samples
//Background Colour Transformations
3,100,163,162,255

[TimingPoints]
512,285.714285714286,4,2,0,100,1,0
32512,-100,4,2,0,100,0,1
41083,-100,4,2,0,100,0,0
73654,-100,4,2,0,100,0,1
82226,-100,4,2,0,100,0,0

[Colours]
Combo1 : 0,0,255
Combo2 : 255,243,13
Combo3 : 255,0,0
Combo4 : 0,217,0

[HitObjects]
120,184,512,1,2
240,184,1083,2,0,B|312:144|400:192,1,150.000001192093
456,240,2083,1,8
312,280,2797,5,2
312,280,3369,2,0,B|256:336|208:272,1,112.50000089407,8|0
256,136,4512,1,2
368,104,5083,6,0,B|344:16|256:-8|168:16|144:112,1,300.000002384186,4|8
152,200,6702,1,8
296,248,7369,6,8,B|272:336|184:360|96:336|64:240,1,300.000002384186
152,200,8988,1,8
272,120,9654,6,0,B|336:96|376:144|432:112,2,150.000001192093,8|0|8
168,120,11273,1,8
152,264,11940,6,8,B|336:312|240:392|88:328|296:256,1,300.000002384186
384,256,13559,1,8
472,152,14226,5,4
384,72,14797,2,0,B|320:32|232:72,2,150.000001192093,8|2|8
312,168,16512,5,2
424,216,17083,2,8,B|400:296|312:328|232:304|192:208,1,300.000002384186
312,200,18797,5,2
248,96,19369,2,0,B|328:48|328:136|400:80,2,150.000001192093,8|2|8
128,88,21083,6,0,B|64:88|64:88|96:144|64:176|64:176|88:208|64:264|64:264|128:264,1,300.000002384186,0|2
200,216,22702,1,2
344,216,23369,5,4
440,144,23940,2,0,B|488:208|440:296,1,150.000001192093,8|0
352,248,24988,1,2
256,144,25654,5,8
328,48,26226,2,0,B|256:0|176:48,2,150.000001192093,2|8|2
416,136,27940,5,8
464,248,28512,2,0,B|400:280|328:208|328:208|368:296|288:336,1,300.000002384186,0|8
176,288,30226,5,2
104,192,30797,2,0,B|32:224,2,75.0000005960464,8|0|8
152,80,31940,1,4
272,80,32512,6,2,B|328:144|272:232,2,150,8|2|10
208,144,34083,1,2
120,264,34797,6,0,B|176:240|224:272|288:256,1,150,8|2
304,208,35654,1,2
272,160,35940,2,0,B|227:147|200:168|160:160,1,112.50000089407,8|0
268,56,37083,6,0,B|316:16|344:48|368:84|424:36,2,150.000001192093,8|0|8
224,136,38654,1,2
152,272,39369,5,8
272,272,39940,2,0,B|368:272,2,75,8|0|8
272,152,41083,1,4
272,272,41654,5,2
376,336,42226,2,0,B|440:264|360:192,1,150.000001192093
320,128,43226,1,8
272,272,43940,5,2
152,272,44511,2,0,B|32:272,1,112.50000089407,8|0
104,136,45654,1,2
224,112,46226,6,8,B|328:112|360:200|336:304|208:296,1,300,4|8
184,208,47845,1,8
88,112,48511,6,8,B|-16:112|-48:200|-24:304|104:296,1,300
128,208,50131,1,8
264,160,50797,6,0,B|440:160,2,150,8|0|8
160,160,52416,1,2
104,288,53083,6,8,B|200:248|296:320|408:288,1,300
416,192,54702,1,2
296,112,55369,5,4
192,48,55940,2,0,B|152:120|200:200,2,150,2|8|2
280,128,57654,5,8
320,240,58226,2,0,B|392:192|472:248,1,150,0|8
384,336,59369,1,2
264,336,59940,5,8
304,224,60511,2,0,B|240:200|192:224|160:296,2,150,2|8|2
400,152,62226,5,8
304,88,62797,1,2
208,152,63369,2,0,B|24:152,2,150,8|2|4
328,152,65083,2,0,B|400:128|400:128|488:160|488:160,2,150,2|8|2
392,256,66797,5,8
280,288,67369,2,0,B|209:248|137:296,2,150,2|8|2
392,256,69083,5,8
424,144,69654,2,0,B|384:96|352:128|328:152|280:112,1,150.000001192093,0|8
176,152,70797,1,2
184,272,71369,6,8,B|352:328|288:424|112:328|336:272,1,300.000002384186
432,232,73083,1,4
440,112,73654,6,0,B|368:72|288:112,2,150,2|8|2
368,168,75226,1,8
264,272,75940,6,0,B|192:312|120:272,1,150,0|2
120,216,76797,1,2
120,160,77083,2,0,B|176:120|240:168,1,112.50000089407,0|8
344,64,78226,6,0,B|504:64,2,150,2|8|2
320,152,79797,1,8
208,248,80511,5,2
88,248,81083,2,0,B|0:248,2,75,8|0|8
88,128,82226,1,4
200,80,82797,5,2
264,184,83369,2,0,B|192:240|120:176,1,150
76,256,84369,1,0
224,288,85083,5,2
336,248,85654,1,8
336,160,86083,2,0,B|248:96|152:168,1,187.500001490116,2|0
88,256,87369,1,4
