osu file format v5

[General]
AudioFilename: 02 A Corner of Memories.mp3
AudioLeadIn: 1985
PreviewTime: -1
Countdown: 1
SampleSet: Soft
StackLeniency: 0.7
Mode: 0
LetterboxInBreaks: 1

[Metadata]
Title:Glimpse of a Memory
Artist:Shoji Meguro
Creator:DawnII
Version:Normal
Source:Persona 4
Tags:

[Difficulty]
HPDrainRate:5
CircleSize:4
OverallDifficulty:6
SliderMultiplier:1.4
SliderTickRate:1

[Events]
//Background and Video events
0,0,"Izanagi-1280.jpg"
//Break Periods
//Storyboard Layer 0 (Background)
//Storyboard Layer 1 (Failing)
//Storyboard Layer 2 (Passing)
//Storyboard Layer 3 (Foreground)
//Storyboard Sound Samples
//Background Colour Transformations
3,100,163,162,255

[TimingPoints]
1800,652.177256373753,4,2,0,100,1
2452,652.177256373753,4,2,0,50,0
3104,652.177256373753,4,2,0,100,0
5713,652.177256373753,4,2,0,50,0
6691,652.177256373753,4,2,0,100,0
17126,652.177256373753,4,2,0,50,0
17451,652.177256373753,4,2,0,100,0
26582,652.177256373753,4,2,0,50,0
27561,652.177256373753,4,2,0,100,0
37669,652.177256373753,4,2,0,50,0
38321,652.177256373753,4,2,0,100,0
41582,652.177256373753,4,2,0,50,0
41908,652.177256373753,4,2,0,100,0
42887,652.177256373753,4,2,0,50,0
43516,652.177256373753,4,2,0,100,1
53928,652.387256373752,4,2,0,100,1
56863,652.387256373752,4,2,0,69,0
57842,652.387256373752,4,2,0,100,0
60847,679.117256373755,4,2,0,100,1
61528,679.117256373755,4,2,0,71,0

[Colours]
Combo1 : 255,0,0
Combo2 : 255,255,0
Combo3 : 128,255,0
Combo4 : 230,115,0

[HitObjects]
144,192,495,1,0
256,192,1147,1,0
368,192,1799,1,0
160,64,3104,5,0
248,128,3756,1,0
216,176,4082,1,0
360,264,5060,1,2
80,224,6691,6,0,B|32:224,2,35
120,184,7343,1,0
176,184,7669,1,0
224,216,7995,2,0,B|296:216|320:216|392:216,1,140
408,184,8973,1,0
408,128,9300,1,0
296,128,9952,1,2
352,288,10930,5,0
248,328,11582,1,0
144,280,12234,2,0,B|80:248|96:184|136:136,1,140
208,96,13539,1,0
312,128,14191,1,0
312,128,14517,1,2
216,192,15169,1,2
312,248,15821,1,2
96,64,17452,5,2
96,120,17778,2,0,B|96:224,2,70,0|0|8
208,120,19082,5,2
264,120,19408,2,0,B|360:120,2,70,0|0|8
312,288,20713,5,4
144,192,21365,5,2
256,192,22017,1,2
256,80,22669,5,2
312,96,22995,1,0
344,144,23321,1,0
352,200,23647,1,0
344,256,23974,1,2
256,328,24626,1,2
256,328,24952,1,2
200,312,25278,1,0
160,272,25604,1,0
144,216,25930,1,6
392,88,27561,6,0,B|424:136,2,35
344,56,28213,1,0
288,72,28539,1,0
256,120,28865,1,0
360,152,29517,6,2,B|392:184|360:224,1,70
312,240,30169,2,2,B|272:280|200:272|168:224,1,140
160,72,31800,5,2
120,112,32126,1,0
160,152,32452,1,2
120,192,32778,1,0
160,232,33104,1,2
328,88,34408,1,2
424,144,35061,1,0
384,184,35387,2,0,B|288:184,1,70,2|0
288,232,36039,2,0,B|200:232,1,70,2|0
192,280,36691,2,0,B|104:280,1,70,2|0
248,96,38321,6,0,B|280:128|304:160,1,70,2|0
336,184,38974,2,0,B|408:128,1,70
328,48,39952,1,0
272,56,40278,1,2
240,96,40604,2,0,B|208:144|184:160|216:240,1,140
256,136,43516,6,0,B|304:136|328:200,1,70
264,192,44168,1,0
232,232,44494,1,0
136,288,45146,1,0
168,336,45472,2,0,B|200:320|176:248,1,70
128,248,46124,2,0,B|56:200|104:144|160:120,1,140
232,192,47429,1,2
232,192,48081,1,0
344,192,48733,5,0
392,160,49059,1,0
448,176,49385,1,0
448,232,49711,2,0,B|424:312|312:304,1,140
288,288,50689,1,0
264,240,51016,1,0
232,288,51342,1,0
232,288,51994,1,0
176,312,52320,2,2,B|112:288,2,35
208,352,52972,1,0
136,208,53928,6,0,B|96:208|96:152,1,70
96,104,54580,2,0,B|104:56|176:48,1,70
280,144,55885,5,0
320,184,56211,1,0
280,224,56537,1,4
240,184,56863,1,4
256,40,57842,5,0
216,80,58168,1,0
176,120,58494,1,0
272,168,59147,2,2,B|272:264,1,70,2|2
312,328,60847,5,0
256,328,61186,1,2
200,328,61526,1,4
